#TITLE:Gossipo Perpetuo;
#SUBTITLE:;
#ARTIST:Jean Jacques Perrey;
#TITLETRANSLIT:;
#SUBTITLETRANSLIT:;
#ARTISTTRANSLIT:;
#GENRE:;
#CREDIT:Telperion;
#BANNER:Old School] - Gossipo Perpetuo.png;
#BACKGROUND:Old School] - Gossipo Perpetuo-bg.png;
#LYRICSPATH:;
#CDTITLE:cdtitle.png;
#MUSIC:[Old School] - Gossipo Perpetuo.ogg;
#OFFSET:-0.394000;
#SAMPLESTART:10.993000;
#SAMPLELENGTH:7.022000;
#SELECTABLE:YES;
#DISPLAYBPM:136.000000;
#BPMS:0.000000=136.000000
,8.000000=138.000000
,12.000000=134.000000
,15.000000=130.000000
,16.000000=142.000000
,20.000000=124.000000
,21.000000=134.000000
,24.000000=138.000000
,32.000000=136.000000
,36.000000=138.000000
,38.000000=132.000000
,40.000000=135.000000
,57.000000=143.000000
,58.000000=130.000000
,60.000000=136.000000
,68.000000=138.000000
,70.000000=130.000000
,71.000000=132.000000
,72.000000=138.000000
,80.000000=136.000000
,84.000000=138.000000
,90.000000=136.000000
,94.000000=138.000000
,96.000000=137.000000
,102.000000=132.000000
,104.000000=136.000000
,108.000000=138.000000
,110.000000=134.000000
,112.000000=138.000000
,118.000000=140.000000
,120.000000=134.000000
,122.000000=120.000000
,123.000000=138.000000
,126.000000=132.000000
,128.000000=136.000000
,136.000000=138.000000
,138.000000=134.000000
,142.000000=138.000000
,146.000000=136.000000
,149.000000=140.000000
,150.000000=136.000000
,158.000000=138.000000
,159.000000=136.000000
,160.000000=134.000000
,167.000000=136.000000
,169.000000=134.000000
,172.000000=136.000000
,174.000000=138.000000
,178.000000=136.000000
,180.000000=134.000000
,182.000000=138.000000
,186.000000=136.000000
,190.000000=128.000000
,191.000000=136.000000
,193.000000=138.000000
,198.000000=134.000000
,200.000000=136.000000
,202.000000=130.000000
,207.000000=138.000000
,208.000000=120.000000
,209.000000=128.000000
,212.000000=134.000000
,216.000000=132.000000
,218.000000=136.000000
,220.000000=138.000000
,222.000000=136.000000
,224.000000=138.000000
,226.000000=136.000000
,228.000000=138.000000
,230.000000=134.000000
,234.000000=138.000000
,236.000000=132.000000
,238.000000=136.000000
,242.000000=138.000000
,244.000000=136.000000
,250.000000=138.000000
,252.000000=136.000000
,256.000000=132.000000
,258.000000=134.000000
,262.000000=142.000000
,263.000000=136.000000
,265.000000=140.000000
,266.000000=134.000000
,269.000000=136.000000
,270.000000=140.000000
,273.000000=105.000000
,274.000000=134.000000
,276.000000=132.000000
,277.000000=120.000000
;
#STOPS:
;
#BGCHANGES:;
#KEYSOUNDS:;
#ATTACKS:;

//---------------dance-single - ----------------
#NOTES:
     dance-single:
     :
     Hard:
     8:
     0.444734,0.431647,0.007763,0.000000,0.135860,400.000000,1.000000,0.000000,0.000000,0.000000,0.000000,0.444734,0.431647,0.007763,0.000000,0.135860,400.000000,1.000000,0.000000,0.000000,0.000000,0.000000:
0000
0000
0000
0000
,
0000
0000
0000
0000
,
1000
0000
0001
0000
0100
0000
0000
0001
0000
0100
0000
0001
1000
0000
0100
0000
,
0010
0000
0000
0000
,
0001
0000
1000
0000
0100
0000
0000
1000
0000
0100
0000
1000
0001
0000
0100
0000
,
0010
0000
0000
0000
,
1000
0010
0100
0001
1000
0100
0010
0001
,
0100
0010
1000
0001
0010
0100
0010
1000
,
0001
1000
0010
0100
0001
1000
0100
0010
,
0001
0010
0100
0001
1000
0000
0000
0000
,
0001
0010
0100
1000
0001
0100
0010
1000
,
0100
0010
0001
1000
0010
0100
0010
0001
,
1000
0001
0010
0100
1000
0001
0100
0010
,
1000
0010
0100
1000
0001
0010
0100
0001
,
1000
0100
0010
0001
1000
0000
0000
0000
,
0010
0100
0010
1000
0001
0010
0100
0010
,
0001
1000
0010
0100
0001
0100
0010
1000
,
0001
0010
0100
1000
0001
0000
0000
0000
,
0001
0000
0000
1000
0100
0000
0000
0000
0010
0000
0000
0001
1000
0000
0000
0000
,
0010
0000
0000
0100
0001
0000
0100
0000
0010
0000
0000
0000
0000
0000
0000
0000
,
1000
0000
0000
1000
0001
0000
0000
0000
0010
0000
0000
0100
1000
0000
0000
0000
,
0010
0000
0000
0100
0001
0000
0000
0000
1000
0000
0000
0000
0000
0000
0000
0000
,
0001
0000
0000
0100
0001
0000
0000
0000
0010
0000
0000
0100
1000
0000
0000
0000
,
1000
0000
0000
0001
1000
0000
0000
0000
0010
0000
0000
0010
0100
0000
0000
0000
,
0001
1000
0010
1000
0100
0010
0001
0100
,
0001
1000
0010
1000
0100
0000
0000
0000
,
1000
0000
0000
0001
1000
0000
0000
0000
0100
0000
0000
0100
0010
0000
0000
0000
,
0001
0000
0000
1000
0010
0000
0000
0000
0100
0000
0000
0000
0000
0000
0000
0000
,
0001
0000
0000
0001
1000
0000
0000
0000
0010
0000
0000
0100
0001
0000
0000
0000
,
1000
0000
0000
0100
0010
0000
0000
0000
0001
0000
1000
0000
0100
0000
0010
0000
,
0001
0100
0001
1000
0010
0001
0100
0010
,
1000
0001
0010
0100
1000
0000
0000
0000
,
0001
0010
0100
1000
0010
0001
0100
0010
,
0001
1000
0001
0010
0100
0001
0010
0100
,
0001
1000
0100
0001
0010
1000
0010
0100
,
1000
0010
0001
0100
1000
0010
0100
0001
,
1000
0001
0010
0100
1000
0001
1000
0010
,
0100
0001
0100
0010
1000
0001
0010
0100
,
1000
0001
1000
0100
0010
0100
1000
0001
,
0100
0010
1000
0001
0010
1000
0010
0001
,
0100
1000
0100
0001
0010
1000
0010
0001
,
0100
1000
0100
0001
0010
1000
0010
0001
,
0100
1000
0010
0100
0001
0010
0100
1000
,
0010
0100
0001
1000
0100
0001
0010
0100
,
1000
0001
0100
0010
1000
0000
0000
0000
,
0100
0000
0000
0000
0001
0100
0001
0010
,
0100
0010
0001
0100
0010
0001
1000
0100
,
0010
0001
0010
0100
1000
0000
0000
0000
,
0000
0000
0010
0000
,
0000
0000
0001
0000
,
0000
0000
1000
0000
,
0000
0000
0100
0100
,
0100
0000
0000
0000
,
0001
0000
1000
0000
,
0010
0000
0000
0000
0000
0000
0100
0000
0001
0000
0000
1000
0001
0000
0000
0000
,
0100
0000
0000
0100
0010
0000
0000
0000
1000
0000
0000
0010
1000
0000
0000
0000
,
0001
0000
0000
0010
0100
0000
0001
0000
1000
0000
0000
1000
0010
0000
0000
0000
,
0100
0000
0000
0001
0010
0000
0000
0000
0100
0000
0000
0100
0010
0000
1000
0000
,
0001
0000
0000
0100
0001
0000
1000
0000
0100
0000
0000
1000
0001
0000
1000
0000
,
0100
0001
0100
0010
0100
1000
0001
0010
,
0100
0000
0000
1000
0001
0000
1000
0000
0010
0000
0001
0000
0100
0000
0010
0000
,
1000
0000
0000
1000
0001
0000
0100
0000
0010
0000
0001
0000
0010
0000
0100
0000
,
1000
0000
0000
0001
1000
0000
0100
0000
0010
0000
1000
0000
0001
0000
0100
0000
,
0010
1000
0001
1000
0010
0001
0010
0100
,
1000
0001
1000
0100
0010
0000
0000
0000
,
0000
0000
0001
0000
,
0000
0000
1000
0000
,
0000
0000
0010
0000
,
0100
0100
0000
0000
0000
0000
0000
0000
0010
0000
0000
0000
0000
0000
0000
0000
,
0000
1001
0100
0000
;

//---------------dance-single - ----------------
#NOTES:
     dance-single:
     :
     Medium:
     6:
     0.373754,0.323735,0.170796,0.000000,0.108688,315.000000,22.000000,0.000000,0.000000,0.000000,0.000000,0.373754,0.323735,0.170796,0.000000,0.108688,315.000000,22.000000,0.000000,0.000000,0.000000,0.000000:
0000
0000
0000
0000
,
0000
0000
0000
0000
,
1000
0100
0001
0100
,
0010
0000
0000
0000
,
0100
0001
0100
1000
,
0010
0000
0000
0000
,
1000
0001
0100
0000
0010
1000
0100
0000
,
0010
0100
1000
0000
0001
0100
0001
0000
,
1000
0100
0010
0000
0001
0010
0100
0000
,
1000
0010
0100
0000
0101
0000
0000
0000
,
0001
1000
0100
0000
0010
0001
0100
0000
,
0010
0100
0010
0000
1000
0010
0100
0000
,
0001
1000
0100
0000
0010
0001
1000
0000
,
0001
0010
0100
0000
1000
0001
0100
0000
,
0001
0100
0010
0000
1010
0000
0000
0000
,
0001
0100
0010
0000
1000
0001
1000
0000
,
1000
0100
0010
0000
0001
0010
0001
0000
,
0001
1000
0010
0000
0110
0000
0000
0000
,
0001
0000
0000
1000
0001
0000
0000
0000
0010
0000
0000
0100
0010
0000
0000
0000
,
0001
0000
0000
1000
0001
0000
0000
0000
0101
0000
0000
0000
0000
0000
0000
0000
,
1000
0000
0000
0001
1000
0000
0000
0000
0010
0000
0000
0100
0010
0000
0000
0000
,
1000
0000
0000
0001
1000
0000
0000
0000
1100
0000
0000
0000
0000
0000
0000
0000
,
0010
0000
0000
0010
0001
0000
0000
0000
1000
0000
0000
1000
0010
0000
0000
0000
,
0100
0000
0000
0100
0001
0000
0000
0000
1000
0000
0000
0001
1000
0000
0000
0000
,
0100
0000
0000
0100
1000
0000
0000
0000
0001
0000
0000
0001
0100
0000
0000
0000
,
0010
0000
0000
0010
1000
0000
0000
0000
1001
0000
0000
0000
0000
0000
0000
0000
,
1000
0000
0000
0001
1000
0000
0000
0000
0100
0000
0000
0010
0100
0000
0000
0000
,
1000
0000
0000
0001
0100
0000
0000
0000
0110
0000
0000
0000
0000
0000
0000
0000
,
0001
0000
0000
1000
0001
0000
0000
0000
0100
0000
0000
0010
0100
0000
0000
0000
,
0001
0000
0000
1000
0100
0000
0000
0000
0010
0000
0100
0000
1000
0000
0000
0000
,
0001
1000
0001
0000
0100
0001
0100
0000
,
0010
0100
0010
0000
1010
0000
0000
0000
,
0001
0000
0010
0100
1000
0000
0100
0010
,
0001
0000
1000
0010
0100
0000
0001
0100
,
0010
0000
1000
0001
0010
0000
0001
1000
,
0010
0000
1000
0010
0100
0000
0001
1000
,
0100
0000
1000
0100
0010
0000
0100
0010
,
0001
0000
0010
0001
1000
0000
0010
0100
,
0001
0000
1000
0100
1000
0000
1000
0001
,
1000
0000
1000
0010
1000
0000
0001
0100
,
0010
0000
1000
0100
0010
0000
0001
1000
,
0010
0000
0100
0001
1000
0000
0100
0010
,
0001
0000
1000
0010
0100
0000
0010
0100
,
0001
0000
0100
0001
1000
0000
0100
0010
,
0001
0000
0010
0100
1000
0000
0000
0000
,
1001
0000
0000
0000
0000
0000
0000
0000
1000
0000
0000
0001
1000
0000
0000
0000
,
0010
0000
0000
0100
0010
0000
0000
0000
1000
0000
0000
0000
0010
0000
0000
0000
,
0001
0010
1001
0000
,
0000
0000
0110
0000
,
0000
0000
1001
0000
,
0000
0000
0110
0001
,
0000
0000
1000
0100
,
0110
1000
0000
0000
,
1001
0000
0110
0000
,
1001
0000
0000
0000
0000
0000
0000
0000
0001
0000
0000
0001
1000
0000
0000
0000
,
0010
0000
0000
0010
0100
0000
0000
0000
0001
0000
0000
0001
1000
0000
0000
0000
,
0100
0000
0000
0010
0001
0000
0000
0000
1000
0000
0000
1000
0001
0000
0000
0000
,
0010
0000
0000
0010
0100
0000
0000
0000
1000
0000
0000
1000
0001
0000
0000
0000
,
0100
0000
0100
0000
0010
1000
0001
0000
,
0010
0100
1000
0000
0001
0100
0010
0000
,
1000
0100
0010
0000
0001
1000
0010
0000
,
0100
0001
1000
0000
0100
0010
0001
0000
,
1000
0010
0100
0000
0001
0100
0001
0000
,
1000
0100
1000
0000
0001
0100
0010
0000
,
1000
0100
0010
0000
0110
0000
0000
0000
,
0000
0000
1001
0000
,
0000
0000
0110
0000
,
0000
0000
1001
0000
,
0000
0000
0010
0000
,
0000
1001
0100
0000
;

//---------------dance-single - ----------------
#NOTES:
     dance-single:
     :
     Easy:
     4:
     0.248430,0.215823,0.007763,0.000000,0.000000,223.000000,1.000000,0.000000,0.000000,0.000000,0.000000,0.248430,0.215823,0.007763,0.000000,0.000000,223.000000,1.000000,0.000000,0.000000,0.000000,0.000000:
0000
0000
0000
0000
,
0000
0000
0000
0000
,
1000
0100
0001
0010
,
1000
0000
0000
0000
,
0001
0100
1000
0010
,
0001
0000
0000
0000
,
0100
0001
0100
0001
,
0010
0100
1000
0001
,
1000
0010
1000
0010
,
0100
0001
0010
0000
,
0100
1000
0100
1000
,
0010
0100
0001
1000
,
0001
0010
0001
0010
,
0100
1000
0010
0100
,
0001
1000
0100
0000
,
0010
0001
0010
0001
,
1000
0010
0100
0001
,
1000
0100
0010
0000
,
0100
0100
1000
1000
,
0001
0100
0010
0000
,
0100
0100
0001
0001
,
1000
0100
0010
0000
,
0001
0010
0100
0100
,
1000
0010
0100
0100
,
0001
1000
0100
0100
,
0010
0100
1000
0000
,
0010
0010
0100
0100
,
0001
1000
0100
0000
,
0010
0010
0100
0100
,
1000
0001
0100
0010
,
1000
1000
0100
0010
,
0001
0001
0100
0000
,
0010
0100
0001
1000
,
0010
0100
0001
1000
,
0010
0100
0001
1000
,
0010
0100
0001
0010
,
0100
1000
0001
0010
,
0100
1000
0001
1000
,
0100
0010
0001
1000
,
0001
1000
0010
0100
,
0100
0001
0001
1000
,
1000
0100
0100
0010
,
0010
0001
0001
1000
,
1000
0010
0010
0100
,
0100
0001
0001
0000
,
1000
0000
0001
1000
,
0100
0100
1000
0001
,
0100
0001
1000
0000
,
0000
0000
0001
0000
,
0000
0000
1000
0000
,
0000
0000
0001
0000
,
0000
0000
0010
0010
,
0010
0000
0000
0000
,
0100
0000
0100
0000
,
0100
0000
0010
0001
,
0010
0001
0100
0010
,
1000
0001
1000
0100
,
1000
0100
0010
0001
,
0100
0010
1000
0010
,
0100
0001
0100
0010
,
1000
0010
0100
0001
,
0010
0100
1000
0001
,
0100
0010
1000
0001
,
0010
0100
1000
0001
,
0100
0010
1000
0000
,
0000
0000
1000
0000
,
0000
0000
1000
0000
,
0000
0000
1000
0000
,
0000
0000
0001
0000
,
0000
1001
0100
0000
;
