#TITLE:Get Outta My Way;
#SUBTITLE:;
#ARTIST:Kylie Minogue;
#TITLETRANSLIT:;
#SUBTITLETRANSLIT:;
#ARTISTTRANSLIT:;
#GENRE:;
#CREDIT:;
#BANNER:get outta my way-bn.png;
#BACKGROUND:get outta my way-bg.png;
#LYRICSPATH:;
#CDTITLE:;
#MUSIC:02 Get Outta My Way.mp3;
#OFFSET:-0.020000;
#SAMPLESTART:53.800003;
#SAMPLELENGTH:15.000000;
#SELECTABLE:YES;
#BPMS:0.000000=128.000000
;
#STOPS:110.000000=0.920000
;
#BGCHANGES:0.000=[OLD SCHOOL] - Get Outta My Way.avi=1.000=0=0=1=====,
99999=-nosongbg-=1.000=0=0=0 // don't automatically add -songbackground-
;
#KEYSOUNDS:;
#ATTACKS:;

//---------------dance-single - ----------------
#NOTES:
     dance-single:
     :
     Easy:
     4:
     0.232629,0.244731,0.075302,0.000000,0.000000,165.000000,8.000000,0.000000,0.000000,0.000000,0.000000,0.232629,0.244731,0.075302,0.000000,0.000000,165.000000,8.000000,0.000000,0.000000,0.000000,0.000000:
0000
0000
0000
0000
,
0000
0000
0000
0000
,
0000
0000
0000
0000
,
0000
0000
0000
0000
,
0000
0000
1000
0100
,
0010
0001
0001
0010
,
0100
1000
1000
0100
,
0010
0001
0001
0010
,
0100
1000
0001
1000
,
0001
1000
0001
1000
,
0001
1000
0010
0100
,
0010
0100
0010
0100
,
0010
1000
0001
0000
,
0001
0000
0100
0000
,
0010
0010
0010
0000
,
1000
0000
0100
0000
,
0001
0001
0001
0000
,
0100
0000
1000
0000
,
0010
0010
0010
0000
,
0100
0000
0001
0000
,
1000
1000
1000
0010
,
0100
0001
0000
1000
,
0100
1000
0100
0010
,
0001
1000
0001
0100
,
0001
0100
0010
0000
,
1000
1000
0001
0001
,
1001
0000
0100
0100
,
0010
0010
0100
0000
,
0010
1000
1000
0001
,
0001
0100
0100
0010
,
1001
1000
1000
0100
,
0100
0010
0001
0101
,
0001
0100
0001
0100
,
0010
1000
0100
0100
,
0010
0001
1000
1000
,
0010
1000
0100
0010
,
1001
0001
0100
0010
,
1000
1001
1000
0100
,
1000
0100
0010
0001
,
0100
0001
0100
0010
,
0110
0010
1000
0001
,
1001
1000
0100
0001
,
0100
1000
0010
0010
,
0100
0100
0001
0001
,
1000
0100
0100
0100
,
0100
0000
0000
0000
,
0000
0010
0010
0010
,
0010
0000
0000
0000
,
0001
0000
0001
0001
,
0100
0100
0000
0010
,
0000
1000
0100
0001
,
0100
1000
0010
0100
,
1001
0000
0000
0000
;

//---------------dance-single - ----------------
#NOTES:
     dance-single:
     :
     Medium:
     6:
     0.334825,0.342624,0.216493,0.000000,0.000000,226.000000,23.000000,0.000000,0.000000,0.000000,0.000000,0.334825,0.342624,0.216493,0.000000,0.000000,226.000000,23.000000,0.000000,0.000000,0.000000,0.000000:
0000
0000
0000
0000
,
0000
0000
0000
0000
,
0000
0000
0000
0000
,
0000
0000
0000
0000
,
0000
0000
1000
0001
,
1000
0000
0001
0000
1000
0000
0001
1000
,
0001
1000
0001
1000
0001
0000
0010
0000
,
0100
0000
0010
0000
0100
0000
0010
0100
,
0010
0100
0010
0100
0010
0000
0100
0000
,
1000
0000
0100
0000
1000
0000
0100
1000
,
0100
1000
0100
1000
0100
0000
0010
0000
,
0001
1000
0001
0001
,
0001
1001
1000
0100
,
0010
0100
1000
0001
,
0001
0100
0001
0100
,
0100
0010
1000
0100
,
0010
0001
0001
1000
,
0001
0100
0010
0010
,
0100
0001
1000
0100
,
0010
0001
1000
0100
,
1000
0001
0101
1001
,
1010
0000
0110
0000
0010
0000
1000
0100
,
0010
0001
0101
0100
,
0010
1000
0100
1000
,
0010
0100
0001
1000
0010
0000
1000
0000
,
0001
1000
0110
1001
,
0110
0000
0010
1000
,
0001
0100
0010
0000
,
1000
0010
0100
0001
,
1000
0000
0001
0100
1000
0100
0001
1000
,
0000
1000
0010
0100
,
0001
0000
1000
0100
0001
0100
1000
0010
,
0100
0000
0001
0000
0100
0001
0100
0000
,
0010
0000
1000
0000
0010
1000
0010
0000
,
1000
0000
0001
0000
1000
0001
1000
0000
,
0001
0100
0010
1000
0001
1000
0001
0000
,
1001
0000
0010
0000
1000
0100
0010
0001
,
0000
1001
0001
0100
,
0010
1000
0100
0000
0010
0001
1000
0100
,
0000
1000
0010
0100
,
0001
0000
1000
0000
0100
0010
0001
1000
,
0000
1001
1000
0010
,
1000
0000
0100
0000
0010
0001
1000
0100
,
0000
1100
0100
1000
,
0010
0000
0100
0100
0100
0000
0010
0010
,
0010
1001
0110
1001
,
0110
0000
1000
1000
1000
0000
0100
0100
,
0100
0011
1100
0011
,
1001
0000
1000
0000
0001
0100
0010
1000
,
0001
1001
1000
1000
,
0100
0000
0010
0100
0010
0001
1000
0100
,
1000
0001
0100
0010
,
1001
0000
0000
0000
;

//---------------dance-single - ----------------
#NOTES:
     dance-single:
     :
     Hard:
     8:
     0.422229,0.391570,0.188255,0.000000,0.004706,294.000000,20.000000,0.000000,0.000000,0.000000,0.000000,0.422229,0.391570,0.188255,0.000000,0.004706,294.000000,20.000000,0.000000,0.000000,0.000000,0.000000:
// measure 0
0000
0000
0000
0000
,  // measure 1
0000
0000
0000
0000
,  // measure 2
0000
0000
0000
0000
,  // measure 3
0000
0000
0000
0000
,  // measure 4
0000
0000
1000
1000
,  // measure 5
0010
0000
0010
0000
0100
0000
0001
0010
,  // measure 6
0001
1000
0001
0100
0001
0000
0001
0000
,  // measure 7
1000
0000
1000
0000
0010
0000
0100
0001
,  // measure 8
0100
0010
0100
0001
0100
0000
0100
0000
,  // measure 9
0001
0000
0001
0000
1000
0000
0100
1000
,  // measure 10
0100
0010
0100
1000
0100
0000
0100
0000
,  // measure 11
0010
0000
0010
0000
0001
0001
0100
0100
,  // measure 12
0010
0010
1000
1000
0001
0000
0100
0000
,  // measure 13
1000
0000
0100
0000
0001
0000
0010
0100
,  // measure 14
1000
0010
1000
0001
0000
0000
0001
1000
,  // measure 15
0010
0000
0100
0001
0000
0000
0001
1000
,  // measure 16
0100
0010
0001
1000
0000
0010
1000
0010
,  // measure 17
0100
0000
0110
0000
0001
1000
0001
0100
,  // measure 18
0001
0000
0101
0000
0001
0010
1000
0010
,  // measure 19
0001
0100
0010
1000
0001
0000
0001
0100
,  // measure 20
0010
0000
0000
1000
0000
0000
0100
0000
1000
0000
0000
0000
0101
0000
0000
0000
,  // measure 21
1001
0000
1010
0000
0010
0000
1000
0010
,  // measure 22
1000
0001
0010
0100
0000
0000
1000
0001
,  // measure 23
0010
0000
0010
0001
0000
0001
0100
1000
,  // measure 24
0100
0001
0010
0100
0000
0000
0010
0001
,  // measure 25
1000
1100
0011
0110
,  // measure 26
1001
0000
0001
0000
1000
0100
1000
0100
,  // measure 27
0010
0001
0010
0001
0100
0000
0000
0000
,  // measure 28
1001
0000
0001
1000
0100
0010
0001
0100
,  // measure 29
0001
0000
1000
0100
0001
0100
1000
1000
,  // measure 30
0010
0000
0100
0001
1000
0001
0100
0010
,  // measure 31
1000
0000
0001
0010
1000
0010
0001
0001
,  // measure 32
1000
0100
0001
0100
1000
0010
0001
0010
,  // measure 33
1000
0100
0000
0010
0001
1000
0100
0100
,  // measure 34
1000
0010
0001
0010
1000
0100
0010
0001
,  // measure 35
1000
0001
0100
0001
0010
0001
1000
0100
,  // measure 36
1000
0000
0010
0100
0001
1000
0100
1000
,  // measure 37
0001
0000
1001
0000
0001
0100
0001
1000
,  // measure 38
0010
0000
0110
0000
0100
0001
1000
0010
,  // measure 39
0100
0010
0100
0000
0101
0000
1001
0000
,  // measure 40
0010
1000
0001
0100
1000
0100
0001
1000
,  // measure 41
0001
0000
0101
0000
0001
1000
0100
0010
,  // measure 42
0100
0000
1100
0000
0100
0010
0001
1000
,  // measure 43
1000
0001
1000
0001
0100
0010
1000
0100
,  // measure 44
0010
0000
0001
0100
1000
0000
1000
0100
,  // measure 45
0001
0000
0001
0010
0100
1000
0100
0010
,  // measure 46
0001
0000
1000
0010
0001
0000
0001
0010
,  // measure 47
1000
0000
1000
0010
0100
0001
1000
0100
,  // measure 48
1000
0000
1000
0100
0001
0100
0010
0001
,  // measure 49
1000
1001
0011
1100
,  // measure 50
1000
0000
0001
0010
1000
0010
0100
1000
,  // measure 51
0001
0000
1001
0000
0001
0100
0010
1000
,  // measure 52
0001
0000
0000
0000
;
