#TITLE:Feast;
#SUBTITLE:;
#ARTIST:Shibayan;
#TITLETRANSLIT:;
#SUBTITLETRANSLIT:;
#ARTISTTRANSLIT:;
#GENRE:;
#CREDIT:;
#BANNER:[Old School] - Feast.png;
#BACKGROUND:[Old School] - Feast - bg.png;
#LYRICSPATH:;
#CDTITLE:chen.png;
#MUSIC:[Old School] - Feast.ogg;
#OFFSET:0.033;
#SAMPLESTART:73.828;
#SAMPLELENGTH:14.670;
#SELECTABLE:YES;
#BPMS:0.000=130.000;
#STOPS:;
#BGCHANGES:;
#KEYSOUNDS:;

//---------------dance-single - C. Yakumo----------------
#NOTES:
     dance-single:
     C. Yakumo:
     Challenge:
     10:
     0.851,0.867,0.203,0.310,0.996:
0000
0000
0000
0000
,
0000
0000
0000
0000
,
0000
0000
0000
0000
,
0000
0000
0000
0000
,
0002
0000
0203
0000
0310
1000
0002
0000
0023
0000
0130
1000
0002
0000
0103
0010
,
1000
0100
0020
0000
0230
0000
1300
0001
0200
0000
0320
0000
2030
0000
3001
0010
,
0200
0000
0320
0000
0031
1000
0020
0000
0230
0000
0301
1000
0200
0000
0310
0001
,
0100
0010
2000
0000
3200
0000
0310
0100
2000
0000
3002
0000
0203
0000
0310
1000
,
0001
0000
0100
0000
0001
0010
0001
0000
1000
0000
0010
0100
0010
0000
1000
0100
,
1000
0001
0100
0000
0010
0000
0100
0001
0100
0000
0010
0000
1000
0000
0100
1000
,
0100
0000
0010
0000
0001
0100
0001
0000
1000
0000
0100
1000
0100
0000
0010
0001
,
0010
0100
1000
0000
0001
0000
0100
0010
0100
0000
0001
0000
0010
0000
0001
0100
,
0001
0000
1000
0000
0100
0010
0100
0000
1000
0000
0001
0100
0001
0000
0010
0100
,
0010
0001
1000
0000
0001
0000
1000
0010
1000
0000
0100
0000
0010
0000
0001
1000
,
0001
0000
0100
0000
0010
1000
0010
0000
0100
0000
0001
1000
0001
0000
0100
0010
,
0100
0001
1000
0000
0100
0000
0010
0001
0010
0000
0100
0000
1001
0000
0000
0000
,
1000
0000
0010
0000
0110
0000
0100
0000
0001
0000
0100
0000
0110
0000
0010
1000
,
0001
0000
0010
0000
0110
0000
0100
1000
0010
0000
0100
0000
0101
0000
0001
0010
,
0100
0000
1000
0000
1001
0000
0001
0000
0010
0000
0001
0000
1001
0000
1000
0100
,
0010
0000
0001
0000
0101
0000
0100
0010
1000
0000
0100
0000
0110
0000
0010
0001
,
0100
0000
0010
0000
1010
0000
1000
0000
0001
0000
1000
0000
1010
0000
0010
0100
,
0001
0000
1000
0000
1100
0000
0100
0010
0001
0000
1000
0000
1010
0000
0010
0100
,
0001
0000
0010
0000
0110
0000
0100
0000
1000
0000
0100
0000
0110
0000
0010
0001
,
0100
0000
0010
0000
1010
0000
1000
0001
0010
0000
0100
0000
0010
0001
0100
0010
,
1000
0001
0000
0000
0010
0001
0010
0100
0000
1000
0000
0010
0000
0100
0010
1000
,
0001
0100
0000
0000
0110
0000
0010
1000
0000
0001
0000
0000
0010
0100
0000
0010
,
0001
1000
0000
0100
0010
0100
1000
0001
0000
0100
0000
0010
0100
0010
1000
0001
,
0010
0100
0000
0010
0001
1000
0010
0100
0001
0100
0000
0010
1000
0100
0000
1000
,
0001
0010
0000
0000
0100
0010
0001
1000
0000
0010
0000
0100
0001
1000
0010
1000
,
0100
0010
0000
0000
0011
0000
0001
0100
0000
0010
0000
0000
1000
0100
0000
0010
,
0100
1000
0000
0001
0100
0001
0010
0100
0000
1000
0000
0010
0100
0001
0100
0010
,
1000
0001
0000
0010
0001
1000
0100
0010
0001
1000
0000
0010
0100
0001
1000
0010
,
1000
0100
0010
0001
0010
0100
0010
0001
0000
1000
0000
0010
0100
0001
0100
0001
,
1000
0100
1000
0001
0010
0000
0001
0100
0000
0010
0000
1000
0100
0010
0000
0100
,
1000
0001
0100
0010
1000
0100
0010
0100
0000
1000
0000
0010
0100
0000
0001
0010
,
0001
0100
0000
0010
1000
0100
0010
0001
1000
0010
0000
0100
0001
1000
0000
0100
,
0010
0001
1000
0001
1000
0010
0100
0001
0000
0100
0000
0010
1000
0100
0000
0010
,
0100
1000
0001
0100
0010
0000
0100
0001
0000
0010
0000
0100
1000
0001
0000
0100
,
0010
1000
0001
0010
0100
1000
0001
1000
0000
0010
0000
0100
0001
1000
0000
0100
,
0010
0001
0000
0010
0100
1000
0001
0100
0010
1000
0100
0010
0001
1000
0000
0000
,
1010
0010
0100
1000
0200
0000
0310
1000
,
0002
0000
0000
0000
0000
0000
0000
0000
0000
0000
0000
0000
2003
0000
0000
0000
0000
0000
0000
0000
0000
3001
0000
0000
0010
0000
0000
0000
0000
0000
0100
0000
1000
0000
0001
0000
1000
0000
0000
0000
0000
0000
0010
0000
0000
0100
0000
0000
,
0001
0010
0100
0001
0200
0000
0310
0001
,
2000
0000
0000
0000
3002
0000
0000
1003
0010
0000
0100
0000
0001
0000
0010
0001
,
1000
0010
0100
1000
0200
0000
0301
1000
,
0200
0000
0000
0000
0000
0000
0000
0000
0000
0000
0000
0000
0320
0000
0000
0000
0000
0000
0000
0000
0000
0130
0000
0000
1000
0000
0000
0000
0000
0000
0010
0000
1000
0000
0010
0000
0100
0000
0000
0000
0000
0000
0010
0000
0000
0000
0000
0000
,
1000
0100
0010
1000
0020
0000
0130
1000
,
0002
0000
0000
0000
0000
0000
0203
0000
0000
0000
0000
0000
0310
0000
0000
1000
0001
1000
0100
0000
0000
0010
0000
0000
,
0011
0000
0001
0000
1000
0010
1000
0000
0100
0000
0010
0001
0010
0000
0001
1000
,
0001
0000
0000
0100
0000
0000
0010
0000
0000
0000
0000
0000
1000
0000
0000
0000
0000
0000
0100
0000
0000
0010
0000
0000
0100
0000
0000
0000
0000
0000
1000
0000
0010
0000
1000
0000
0001
0000
0000
0000
0000
0000
0010
0000
0000
0100
0000
0000
,
0010
0000
0001
0000
1000
0010
1000
0000
0001
0000
1000
0100
1000
0000
0010
0100
,
0010
0000
0000
1000
0000
0000
0001
0000
0000
0000
0000
0000
0010
0000
0000
0000
0000
0000
0100
0000
0000
1000
0000
0000
0100
0000
0000
0000
0000
0000
0010
0000
0001
0000
1000
0000
0001
0000
0000
0000
0000
0000
0100
0000
0000
0010
0000
0000
,
1000
0000
0100
0000
0010
0001
0010
0000
0100
0000
1000
0001
1000
0000
0001
0100
,
0001
0000
0000
0010
0000
0000
0100
0000
0000
0000
0000
0000
1000
0000
0000
0000
0000
0000
0001
0000
0000
0100
0000
0000
0001
0000
0000
0000
0000
0000
0010
0000
0001
0000
0010
0000
0100
0000
0000
0000
0000
0000
1000
0000
0000
0001
0000
0000
,
1000
0000
0010
0000
0100
0001
0100
0000
0010
0000
1000
0100
1000
0000
0001
0010
,
0001
1000
0010
0000
0110
0000
0100
0001
1000
0000
0100
0000
0010
0001
1000
0010
,
0100
0000
0000
0000
;

//---------------dance-single - C. Yakumo----------------
#NOTES:
     dance-single:
     C. Yakumo:
     Beginner:
     1:
     0.099,0.135,0.029,0.000,0.000:
0000
0000
0000
0000
,
0000
0000
0000
0000
,
0000
0000
0000
0000
,
0000
0000
0000
0000
,
1000
0000
0000
0000
,
0010
0000
0000
0000
,
1000
0000
0000
0000
,
0001
0000
0000
0000
,
0010
0000
0000
0000
,
0100
0000
0000
0000
,
1000
0000
0000
0000
,
0001
0000
0000
0000
,
0100
0000
0000
0000
,
0010
0000
0000
0000
,
1000
0000
0000
0000
,
0100
0000
0000
1001
,
0000
0000
0000
0000
,
0001
0000
1000
0000
,
0001
0000
0000
0000
,
1000
0000
0010
0000
,
1000
0000
0000
0000
,
0010
0000
0100
0000
,
0010
0000
0000
0000
,
0001
0000
0010
0000
,
0100
0000
0000
0000
,
1000
0000
0000
0000
,
0001
0000
0000
0000
,
0100
0000
0000
0000
,
1000
0000
0000
0000
,
0010
0000
0000
0000
,
0100
0000
0000
0000
,
0001
0000
0000
0000
,
0010
0000
0000
0000
,
0001
0000
0000
0000
,
1000
0000
0000
0000
,
0100
0000
0000
0000
,
0010
0000
0000
0000
,
0100
0000
0000
0000
,
1000
0000
0000
0000
,
0001
0000
0000
0000
,
1001
0000
0001
0000
,
0001
0000
1000
0000
,
0010
0000
0100
0000
,
0100
0000
0001
0000
,
0010
0000
0100
0000
,
0100
0000
1000
0000
,
0001
0000
0100
0000
,
0100
0000
0010
0000
,
1001
0000
1000
0000
,
0001
0000
0000
0000
,
0010
0000
0100
0000
,
1000
0000
0000
0000
,
0100
0000
0010
0000
,
0100
0000
0000
0000
,
1000
0000
0010
0000
,
0100
0000
0000
0000
,
0001
0000
0000
0000
;

//---------------dance-single - C. Yakumo----------------
#NOTES:
     dance-single:
     C. Yakumo:
     Easy:
     3:
     0.130,0.163,0.019,0.000,0.000:
0000
0000
0000
0000
,
0000
0000
0000
0000
,
0000
0000
0000
0000
,
0000
0000
0000
0000
,
0001
0000
0100
0000
,
0010
0000
0100
0000
,
0001
0000
0010
0000
,
0100
0000
0010
0000
,
0001
0000
0001
0000
,
0001
0000
0100
0000
,
0010
0000
0010
0000
,
0010
0000
1000
0000
,
0100
0000
0100
0000
,
0100
0000
1000
0000
,
0001
0000
0001
0000
,
0001
0000
0100
0110
,
0001
0000
1000
0000
,
0100
0000
0010
0000
,
0100
0000
1000
0000
,
0001
0000
0100
0000
,
0001
0000
0010
0000
,
0100
0000
1000
0000
,
0100
0000
0010
0000
,
0001
0000
1000
0000
,
0010
0000
0000
0000
,
0100
0000
0000
0000
,
0001
0000
0000
0000
,
1000
0000
0000
0000
,
0100
0000
0000
0000
,
0010
0000
0000
0000
,
0001
0000
0000
0000
,
0100
0000
0000
0000
,
0001
0000
1000
0000
,
0001
0000
0000
0000
,
0010
0000
0100
0000
,
0010
0000
0000
0000
,
0001
0000
0100
0000
,
0001
0000
0000
0000
,
1000
0000
0100
0000
,
1000
0000
0001
0000
,
0010
0000
0100
0000
,
1000
0000
0000
0000
,
0001
0000
0100
0000
,
0010
0000
0000
0000
,
1000
0000
0010
0000
,
0100
0000
0000
0000
,
0001
0000
1000
0000
,
0100
0000
0010
0000
,
0100
0000
1000
0000
,
0001
0000
0001
0000
,
0100
0000
0010
0000
,
1000
0000
1000
0000
,
0001
0000
0010
0000
,
0100
0000
0100
0000
,
0010
0000
0001
0000
,
1000
0000
1000
0000
,
1001
0000
0000
0000
;

//---------------dance-single - C. Yakumo----------------
#NOTES:
     dance-single:
     C. Yakumo:
     Medium:
     6:
     0.326,0.406,0.058,0.000,0.000:
0000
0000
0000
0000
,
0000
0000
0000
0000
,
0000
0000
0000
0000
,
0000
0000
0000
0000
,
0001
0000
1000
0000
,
0010
0000
0100
0000
,
0001
0000
0010
0000
,
0100
0000
0010
0000
,
1001
0001
1000
0010
,
1000
0100
1000
0001
,
0100
0010
0100
0001
,
1000
0010
1000
0100
,
0010
0001
1000
0001
,
0100
0001
0010
0100
,
0010
0001
1000
0001
,
0100
0010
1000
1001
,
0001
0000
0100
0000
0001
0000
0100
0001
,
0100
0000
0010
1000
0010
0000
1000
0001
,
1000
0000
0100
0000
0010
0000
0100
0010
,
0100
0000
1000
0001
1000
0000
0010
0100
,
0010
0000
1000
0000
0010
0000
1000
0010
,
1000
0000
0100
0010
0100
0000
1000
0001
,
1000
0000
0100
0000
0010
0000
0001
1000
,
0001
0000
0010
0100
0010
0000
0001
0100
,
0001
0000
0000
0010
0000
0100
0000
0000
,
0010
0000
0000
0000
,
0001
0000
0000
1000
0000
0010
0000
0000
,
0100
0000
0000
0000
,
0010
0000
0000
1000
0000
0100
0000
0000
,
0010
0000
0000
0000
,
0001
0000
0000
0100
0000
0010
0000
0000
,
0100
0001
1000
0100
,
0010
0010
0010
0001
,
1000
0000
0000
0000
,
0010
0100
0100
0100
,
0001
0000
0000
0000
,
0010
0001
0001
0001
,
1000
0000
0000
0000
,
0100
0010
0010
0010
,
0100
1000
0001
0100
,
0010
1000
0010
0100
0001
0000
0001
1000
,
0001
0000
0001
0000
0001
0010
0100
0000
,
1000
0010
1000
0100
0010
0000
0010
0001
,
0010
0000
0010
0000
0010
0100
1000
0001
,
0100
0010
1000
0100
0010
0000
0010
0100
,
0010
0000
0010
0000
0010
0001
1000
0010
,
0100
0001
1000
0010
0100
0001
0100
0010
,
1000
0000
0001
0000
0010
0100
1000
0100
,
0010
0001
1000
0001
0100
0000
0100
0010
,
0100
0000
0100
0000
0100
0010
1000
0001
,
0010
0100
0010
0001
1000
0000
1000
0010
,
1000
0000
1000
0000
1000
0001
0010
0100
,
1000
0010
1000
0001
0010
0000
0100
0010
,
0100
0000
1000
0000
0001
0100
0010
1000
,
0100
0010
0001
1000
0010
0100
0001
1000
,
0100
0110
0011
0101
,
1001
0000
0000
0000
;

//---------------dance-single - C. Yakumo----------------
#NOTES:
     dance-single:
     C. Yakumo:
     Hard:
     8:
     0.513,0.542,0.087,0.000,0.310:
0000
0000
0000
0000
,
0000
0000
0000
0000
,
0000
0000
0000
0000
,
0000
0000
0000
0000
,
0001
0000
0100
0000
0001
1000
0001
0000
0010
0000
0100
0000
1000
0000
0010
0000
,
0100
0010
1000
0001
1000
0100
0010
0100
,
1000
0000
0010
0000
0100
0001
0100
0000
0010
0000
1000
0000
0100
0000
0010
0000
,
0100
1000
0010
0100
0001
0010
0100
1000
,
0001
0100
0010
0010
1000
0100
0010
0001
,
0100
1000
0100
0010
1000
0001
0100
0001
,
0010
0100
1000
1000
0001
0100
0010
1000
,
0100
0001
0100
0010
0001
1000
0010
0100
,
0001
0010
0100
0100
0010
0001
1000
0010
,
0100
1000
0100
0010
1000
0001
0010
0100
,
0010
0001
0100
0100
0010
1000
0001
0010
,
0100
0001
0100
1000
0010
0100
1001
0000
,
0001
0000
0100
0000
0001
0000
0100
0000
0001
0000
0100
0000
0001
0000
0100
0010
,
1000
0000
0010
0000
1000
0000
0100
0010
0001
0000
0010
0000
0001
0000
0100
0010
,
1000
0000
0010
0000
1000
0000
0010
0000
1000
0000
0010
0000
1000
0000
0010
0100
,
0001
0000
0100
0000
0001
0000
0100
0001
0010
0000
0001
0000
0010
0000
0001
1000
,
0100
0000
1000
0000
0100
0000
1000
0000
0100
0000
1000
0000
0100
0000
1000
0001
,
0100
0000
0001
0000
0100
0000
0001
0010
0100
0000
0010
0000
0100
0000
0010
0001
,
1000
0000
0001
0000
1000
0000
0001
0000
1000
0000
0001
0000
1000
0000
0001
0100
,
0010
0000
0100
0000
0010
0000
1000
0001
0010
0000
0001
0000
0010
0001
1000
0100
,
0010
0000
0000
0000
0000
0001
0000
0000
0000
0100
0000
0010
0000
0000
1000
0000
,
0001
0000
0000
0000
0000
0000
0000
0100
0000
0010
0000
0000
1010
0000
0000
0000
,
1000
0000
0000
0000
0000
0100
0000
0000
0000
0010
0000
0001
0000
0000
0100
0000
,
0010
0000
0000
1000
0000
0000
0000
0001
0000
0000
0000
0000
0011
0000
0000
0000
,
0010
0000
0000
0000
0000
0100
0000
0000
0000
0010
0000
0001
0000
0000
0100
0000
,
0001
0000
0000
0000
0000
0000
0000
0010
0000
0100
0000
0000
1100
0000
0000
0000
,
1000
0000
0000
0000
0000
0010
0000
0000
0000
0100
0000
0001
0000
0000
0010
0000
,
0100
0000
0000
1000
0000
0000
0000
0010
0000
0100
0000
0000
0101
0000
0000
0000
,
0001
0000
0000
1000
0000
0100
0000
1000
0000
0010
0000
0100
0000
0000
0001
0000
,
1000
0000
0100
0000
0000
0000
0000
0010
0000
0001
0000
0000
1000
0000
0000
0000
,
0010
0000
0000
1000
0000
0001
0000
1000
0000
0100
0000
0010
0000
0000
0001
0000
,
0100
0000
0000
0000
0010
0000
0000
1000
0000
0001
0000
0000
0010
0000
0000
0000
,
0100
0000
0000
1000
0000
0010
0000
1000
0000
0100
0000
0010
0000
0000
0001
0000
,
1000
0000
0000
0000
0000
0000
0000
0010
0000
0100
0000
0000
0001
0000
0000
0000
,
0010
0000
0000
0001
0000
0100
0000
0001
0000
1000
0000
0100
0000
0000
0010
0000
,
0001
0000
0000
0000
0100
0000
0000
0010
0000
0100
0000
0000
0001
0000
0000
0000
,
1000
0001
0010
0100
0010
0000
0010
0001
,
1000
0000
0001
0000
0100
0010
1000
0100
,
0010
0001
1000
0010
0100
0000
0100
0001
,
1000
0000
0100
0000
0010
0001
0100
0010
,
0100
0001
0010
0100
1000
0000
1000
0010
,
0100
0000
0001
0000
0010
0100
0010
0001
,
0100
0010
1000
0100
0010
0000
0010
0001
,
1000
0000
0010
0000
0100
0010
1000
0100
,
0010
0001
1000
0010
0100
0000
0100
0001
,
0010
0000
0100
0000
0010
0001
1000
0010
,
0100
0001
1000
0001
0100
0000
0100
0010
,
1000
0000
0100
0000
0010
0100
1000
0010
,
0100
0001
1000
0100
0010
0000
0010
0100
,
1000
0000
0001
0000
0100
0010
1000
0100
,
0010
0001
0010
0100
1000
0001
0100
0010
,
1000
1001
0101
0011
,
1100
0000
0000
0000
;
