#TITLE:Drum 'n' Boss;
#SUBTITLE:;
#ARTIST:Sota Fujimori;
#TITLETRANSLIT:;
#SUBTITLETRANSLIT:;
#ARTISTTRANSLIT:;
#GENRE:;
#CREDIT:;
#BANNER:;
#BACKGROUND:;
#LYRICSPATH:;
#CDTITLE:;
#MUSIC:[Old School] - Drum 'n' Boss.ogg;
#OFFSET:-0.006;
#SAMPLESTART:35.807;
#SAMPLELENGTH:12.000;
#SELECTABLE:YES;
#BPMS:0.000=181.000
;
#STOPS:
;
#BGCHANGES:;
#KEYSOUNDS:;
#ATTACKS:;

//---------------dance-single - ----------------
#NOTES:
     dance-single:
     :
     Hard:
     9:
     0.627,0.547,0.250,0.000,0.000,380.000,23.000,0.000,0.000,0.000,0.000,0.627,0.547,0.250,0.000,0.000,380.000,23.000,0.000,0.000,0.000,0.000: // measure 0
0000
0000
0000
0000
,  // measure 1
0000
0000
0000
0000
,  // measure 2
0000
0000
0000
0000
,  // measure 3
1001
0001
0000
1000
0100
0000
0101
0000
,  // measure 4
1000
1000
0000
0001
0100
1000
0100
0000
,  // measure 5
0010
0010
0000
1000
0001
0000
1100
0000
,  // measure 6
0100
0100
0000
1000
0010
0001
0100
1000
,  // measure 7
0010
0010
0000
1000
0001
0000
1100
0000
,  // measure 8
0100
0100
0000
0010
0001
0100
0010
0000
,  // measure 9
1000
1000
0000
0001
0010
0000
1010
0000
,  // measure 10
0001
0001
0000
1000
0100
0001
0010
1000
,  // measure 11
0100
0100
0001
0100
0100
1000
0000
0000
,  // measure 12
0010
1000
0100
0001
1000
0010
0001
0000
,  // measure 13
0010
0010
1000
0010
0010
0001
0000
0000
,  // measure 14
0100
0001
0100
1000
0001
1000
0100
0001
,  // measure 15
1000
1000
0100
1000
1000
0010
0000
0000
,  // measure 16
0100
0001
0100
1000
0001
0010
1000
0000
,  // measure 17
0001
0001
0100
0001
0001
0010
0000
0000
,  // measure 18
0100
1000
0010
0001
1000
0001
0010
1000
,  // measure 19
0100
0000
1000
0000
0000
0001
0000
0000
,  // measure 20
0100
0001
0010
1000
,  // measure 21
0100
0000
0001
0000
0000
1000
0000
0000
,  // measure 22
0100
1000
0010
0001
,  // measure 23
0010
0010
0110
0000
1000
0100
0000
0000
,  // measure 24
1000
1000
1100
0000
0001
0010
0001
0000
,  // measure 25
0100
0100
0101
0000
0010
1000
0000
0000
,  // measure 26
0110
1001
0110
1000
,  // measure 27
0001
0100
1000
0000
0001
0100
1000
0000
,  // measure 28
1000
0010
0001
0010
1000
0100
0001
0000
,  // measure 29
0100
0010
1000
0000
0100
0010
1000
0000
,  // measure 30
0010
0100
0001
0100
1000
0100
0001
0000
,  // measure 31
0100
1000
0001
0000
0100
1000
0001
0000
,  // measure 32
0010
1000
0100
0001
0100
1000
0010
0000
,  // measure 33
0100
0010
0001
0000
0100
0010
0001
0000
,  // measure 34
1000
0100
0001
0010
0100
0000
0110
0000
,  // measure 35
0001
0100
0000
1001
0000
0010
1000
0000
,  // measure 36
1000
1010
0000
1001
0000
0010
0100
0000
,  // measure 37
0100
0001
1000
0100
0010
0000
1100
0000
,  // measure 38
0001
0100
0000
0011
0000
1000
0001
0100
,  // measure 39
0010
1000
0000
0001
1000
0000
0110
0000
,  // measure 40
1000
0100
0000
0001
0010
0100
0010
0000
,  // measure 41
0001
0100
0000
1000
0001
0100
0010
0000
,  // measure 42
1000
0001
1000
0100
0100
0000
0110
0000
,  // measure 43
1001
0010
1000
0100
,  // measure 44
0001
0010
1000
0100
,  // measure 45
1000
0100
0001
0010
,  // measure 46
1000
0100
0001
0010
,  // measure 47
0110
0000
0100
0000
0100
0100
0100
0000
,  // measure 48
0100
0000
0100
0000
0100
0100
0100
0000
,  // measure 49
0001
0000
0001
0000
0001
0001
0001
0000
,  // measure 50
1000
0100
0001
0010
0100
0000
0000
0000
,  // measure 51
0001
0001
1000
0001
0010
1000
0010
0000
,  // measure 52
0100
1000
0010
0100
0001
1000
0010
0000
,  // measure 53
1000
1000
1000
0001
0010
1000
0100
0000
,  // measure 54
0010
0100
1000
0001
0010
1000
0001
0010
,  // measure 55
0100
0100
1000
0001
0010
1000
0010
0000
,  // measure 56
0001
0100
0010
1000
0001
0010
1000
0000
,  // measure 57
0010
0010
0010
0001
0100
1000
0010
0000
,  // measure 58
0001
0100
1000
0001
0010
1000
0100
0000
,  // measure 59
1001
0000
0001
1000
0100
0010
1000
0000
,  // measure 60
1000
0010
0100
1000
0001
0100
0010
0000
,  // measure 61
0110
0000
1000
0001
0010
0100
0001
0000
,  // measure 62
0001
0100
0010
0001
0100
0010
1000
0000
,  // measure 63
0010
0100
0001
1000
0010
0001
1000
0000
,  // measure 64
0100
0001
0010
1000
0010
0001
0100
0000
,  // measure 65
0001
1000
0100
0001
0010
1000
0100
0010
,  // measure 66
0001
0100
1000
0010
0100
1000
0001
0010
,  // measure 67
0100
0000
0000
0000
;

//---------------dance-single - ----------------
#NOTES:
     dance-single:
     :
     Medium:
     7:
     0.506,0.474,0.436,0.000,0.000,285.000,40.000,0.000,0.000,0.000,0.000,0.506,0.474,0.436,0.000,0.000,285.000,40.000,0.000,0.000,0.000,0.000: // measure 0
0000
0000
0000
0000
,  // measure 1
0000
0000
0000
0000
,  // measure 2
0000
0000
0000
0000
,  // measure 3
1001
0100
1000
0010
,  // measure 4
0001
0010
1000
0100
,  // measure 5
0001
0100
1000
0010
,  // measure 6
0100
0001
1000
1001
,  // measure 7
0001
0010
1000
0010
,  // measure 8
0100
1000
0001
0100
,  // measure 9
1000
0001
0010
1000
,  // measure 10
0001
1000
0010
0110
,  // measure 11
1000
0000
1100
0000
0000
0101
0000
0000
,  // measure 12
0001
1000
0100
0010
,  // measure 13
0001
0000
0101
0000
0000
1001
0000
0000
,  // measure 14
1000
0000
0010
0000
0100
0100
0100
0000
,  // measure 15
0001
0000
1010
0000
0000
0101
0000
0000
,  // measure 16
0001
1000
0010
0001
,  // measure 17
0100
0000
1100
0000
0000
0101
0000
0000
,  // measure 18
0001
0000
1000
0000
0010
0010
0010
0000
,  // measure 19
0110
0000
1000
0000
0000
0001
0000
0000
,  // measure 20
0100
0010
1000
0000
0100
0010
1000
0000
,  // measure 21
0100
0000
0001
0000
0000
1000
0000
0000
,  // measure 22
0010
0100
0001
0000
0010
0100
0001
0000
,  // measure 23
0010
0000
1000
0000
0000
0100
0000
0000
,  // measure 24
0010
0001
1000
0000
0010
0001
1000
0000
,  // measure 25
0100
0000
0001
0000
0000
0010
0000
0000
,  // measure 26
0001
1000
0110
0000
,  // measure 27
1000
1000
0100
0000
1000
0000
0010
0000
,  // measure 28
0100
1000
0100
0001
,  // measure 29
0010
0010
0001
0000
1000
0000
0010
0000
,  // measure 30
0001
0010
0100
0010
,  // measure 31
0100
0100
0001
0000
1000
0000
0100
0000
,  // measure 32
0001
0010
1000
0010
,  // measure 33
0001
0001
0010
0000
1000
0000
0100
0000
,  // measure 34
0110
0110
0110
1000
,  // measure 35
0001
0100
0000
1010
0000
0000
0101
0000
,  // measure 36
1000
0100
0010
0001
,  // measure 37
1000
0100
0000
0011
0000
0000
1100
0000
,  // measure 38
1000
0010
0100
0001
,  // measure 39
1000
0010
0000
0101
0000
0000
1010
0000
,  // measure 40
0010
1000
0100
0010
,  // measure 41
1000
0100
0000
0011
0000
0000
1100
0000
,  // measure 42
0001
0000
1000
0010
0010
1000
0001
0000
,  // measure 43
0110
0001
1000
0100
,  // measure 44
0001
0100
1000
0100
,  // measure 45
0001
0010
1000
0010
,  // measure 46
0001
0010
1000
0010
,  // measure 47
1001
1000
0001
0001
,  // measure 48
0100
0100
0010
0010
,  // measure 49
1000
1000
0100
0100
,  // measure 50
0010
0001
0001
0000
,  // measure 51
0101
0000
0001
1000
0000
1000
0100
0000
,  // measure 52
1000
0010
0100
0000
1000
0010
0100
0000
,  // measure 53
1100
0000
1000
0001
0000
1000
0100
0000
,  // measure 54
1000
1000
0100
1000
0001
0000
0101
0000
,  // measure 55
1001
0000
0001
0100
0000
0100
0010
0000
,  // measure 56
1000
0100
0010
0000
1000
0100
0010
0000
,  // measure 57
0110
0000
0010
1000
0000
0010
0100
0000
,  // measure 58
0100
0100
0001
1000
0010
0000
1010
0000
,  // measure 59
0101
0000
0000
1001
0000
1000
0100
0000
,  // measure 60
0010
0001
0100
0000
0010
0001
0100
0000
,  // measure 61
0110
0000
0010
1000
0100
0000
1100
0000
,  // measure 62
1000
0001
0010
0000
1000
0001
0010
0000
,  // measure 63
0101
0000
0000
1100
0000
1000
0010
0000
,  // measure 64
0010
0100
0001
0000
0010
0100
0001
0000
,  // measure 65
0101
0000
0100
0001
0010
0000
0011
0000
,  // measure 66
0001
0100
0100
0010
1000
1000
0100
0010
,  // measure 67
0001
0000
0000
0000
;

//---------------dance-single - ----------------
#NOTES:
     dance-single:
     :
     Easy:
     5:
     0.367,0.365,0.152,0.000,0.000,222.000,14.000,0.000,0.000,0.000,0.000,0.367,0.365,0.152,0.000,0.000,222.000,14.000,0.000,0.000,0.000,0.000: // measure 0
0000
0000
0000
0000
,  // measure 1
0000
0000
0000
0000
,  // measure 2
0000
0000
0000
0000
,  // measure 3
1000
0100
1000
0001
,  // measure 4
0100
0010
1000
0000
,  // measure 5
0001
0010
0001
1000
,  // measure 6
0100
0010
0001
0000
,  // measure 7
0001
0100
0010
0100
,  // measure 8
0001
1000
0100
0000
,  // measure 9
1000
0100
0010
0100
,  // measure 10
1000
0001
0100
0100
,  // measure 11
0001
1000
1000
0100
,  // measure 12
1000
0010
0100
0001
,  // measure 13
1000
0100
0100
1000
,  // measure 14
0001
0100
0010
1000
,  // measure 15
0010
0100
0100
0010
,  // measure 16
1000
0001
0010
0001
,  // measure 17
0100
1000
1000
0100
,  // measure 18
0010
1000
0001
1000
,  // measure 19
0100
0000
0100
0000
,  // measure 20
0100
0000
0100
0000
,  // measure 21
0100
0000
0100
0000
,  // measure 22
0100
0000
0100
0000
,  // measure 23
1000
0000
1000
0000
,  // measure 24
1000
0000
1000
0000
,  // measure 25
1000
0000
1000
0000
,  // measure 26
1000
0000
1001
0000
,  // measure 27
0001
0100
0001
0100
,  // measure 28
1000
0100
1000
0100
,  // measure 29
0001
0010
0001
0010
,  // measure 30
1000
0010
1000
0010
,  // measure 31
0001
0100
0010
0100
,  // measure 32
1000
0100
0010
0100
,  // measure 33
0001
0010
0100
0010
,  // measure 34
1000
0010
0100
0010
,  // measure 35
0001
0100
0010
0110
,  // measure 36
0000
1000
1000
0010
,  // measure 37
1000
0100
0010
0110
,  // measure 38
0000
0001
1000
0001
,  // measure 39
0100
0010
1000
1010
,  // measure 40
0000
0010
0100
0001
,  // measure 41
1000
0001
0010
0100
,  // measure 42
1000
1000
0100
0010
,  // measure 43
0101
0000
0001
0000
,  // measure 44
0001
0000
0001
0000
,  // measure 45
0001
0000
0001
0000
,  // measure 46
0001
0000
0001
0000
,  // measure 47
0100
0000
0100
0000
,  // measure 48
0100
0000
0100
0000
,  // measure 49
0100
0100
0100
0100
,  // measure 50
0100
0100
0100
0000
,  // measure 51
0110
1000
0001
0001
,  // measure 52
0100
0010
1000
1000
,  // measure 53
0010
0100
0001
0001
,  // measure 54
1000
0100
0001
0100
,  // measure 55
1000
0010
0100
0100
,  // measure 56
0001
0100
0010
1000
,  // measure 57
0001
0010
0100
0100
,  // measure 58
1000
0010
0001
0100
,  // measure 59
1000
0110
1000
0110
,  // measure 60
0001
0100
1000
0010
,  // measure 61
0001
0110
0001
0110
,  // measure 62
1000
0010
0100
0001
,  // measure 63
0010
1001
0010
1001
,  // measure 64
0100
1000
0001
0010
,  // measure 65
0100
1001
0100
1001
,  // measure 66
1000
0100
0001
0010
,  // measure 67
1000
0000
0000
0000
;
