#TITLE:Do It!;
#SUBTITLE:;
#ARTIST:House Rulez feat. Lee Yoon Jeong;
#TITLETRANSLIT:;
#SUBTITLETRANSLIT:;
#ARTISTTRANSLIT:;
#GENRE:;
#CREDIT:;
#BANNER:[Old School] - Do It!.png;
#BACKGROUND:[Old School] - Do It!-bg.png;
#LYRICSPATH:;
#CDTITLE:;
#MUSIC:[Old School] - Do It!.ogg;
#OFFSET:-4.658;
#SAMPLESTART:73.969;
#SAMPLELENGTH:12.000;
#SELECTABLE:YES;
#BPMS:0.000=129.000
;
#STOPS:
;
#BGCHANGES:;
#KEYSOUNDS:;
#ATTACKS:;

//---------------dance-single - ----------------
#NOTES:
     dance-single:
     :
     Hard:
     7:
     0.454,0.409,0.493,0.000,0.043,278.000,51.000,0.000,0.000,0.000,0.000,0.454,0.409,0.493,0.000,0.043,278.000,51.000,0.000,0.000,0.000,0.000:
0000
0000
0000
0000
,
0000
0000
0100
0100
,
1001
0000
1000
0000
0000
0000
0001
0001
,
0000
0100
0000
0000
0010
0000
0010
0000
,
1010
0000
0101
0000
,
1001
0000
0000
0000
0000
0000
0000
0000
1000
0001
1000
0001
1000
0000
0000
0000
,
0110
0000
1000
0000
0001
1000
0100
0100
,
1000
0010
0100
0000
0101
0000
0101
0000
,
1010
1000
0100
0000
1000
0001
0010
0010
,
0100
1000
1100
1100
,
0011
0010
0100
0000
1000
0010
0100
0100
,
1000
0100
0110
0110
,
1001
0000
0001
1000
0000
0001
1000
1000
,
0100
0000
0010
0000
0100
0000
0010
0000
0001
1000
0001
1000
0001
0000
0000
0000
,
1000
0100
1000
0001
1000
0010
1000
0001
,
0100
0010
0110
0110
,
1001
0000
1000
0100
0010
1000
0010
0001
,
0010
0001
0100
0010
1000
0010
0100
0000
,
0001
0100
0001
1000
0001
0010
0001
1000
,
0100
0010
0110
0110
,
1001
0000
0001
0010
1000
0100
0001
0000
,
0001
0100
1000
0100
0010
0010
1000
0000
,
1001
0001
0010
0000
1001
1000
0010
0000
,
1000
0000
0000
0001
0000
0000
1000
0000
0100
0000
0000
0000
0100
0000
0000
0000
,
1001
1000
0100
0000
1001
0001
0100
0000
,
0001
0000
0000
1000
0000
0000
0001
0000
0100
0000
0000
0000
0100
0000
0000
0000
,
0001
0100
0010
0000
1000
0100
0010
0000
,
0001
0000
0100
1000
0100
0010
1000
0000
,
0001
0100
1000
0000
0001
0100
1000
0000
,
0010
0110
1001
0110
,
0001
1000
0000
0100
0000
0100
0000
0100
,
1000
0000
0001
0000
0000
0000
0100
0000
0000
0000
0100
0000
0000
0010
0000
0000
,
1000
0001
0000
0010
0000
0010
0000
0010
,
0000
0001
1000
0100
0010
0100
1000
0010
,
0100
0000
0001
0100
0010
0100
0001
1000
,
0100
0000
1000
0001
0010
0100
0010
0100
,
1000
1000
0010
0000
0001
0001
0100
0000
,
1001
0110
1001
0110
,
1010
0000
0000
0000
1001
0000
0000
0000
1100
0000
0100
0000
0100
0000
1000
0001
,
0000
0000
0100
0100
,
1001
0000
1000
0010
0001
0010
1000
0000
,
1000
0000
0001
0000
0100
0100
0100
0000
,
0101
0000
0000
0000
1001
0000
0000
0000
0011
0000
0010
0000
0010
0000
0001
1000
,
0000
0000
0010
0010
,
1001
0000
0001
0100
1000
0100
0001
0000
,
0001
0100
1000
0010
0001
0001
0100
0000
,
0110
0000
1000
0000
1000
0000
1000
1000
,
0100
0010
0011
0011
,
1100
0000
0001
0000
0001
0000
0001
0001
,
0100
0010
1010
1010
,
0101
0000
1000
0000
1000
0000
1000
1000
,
0001
1000
0110
1001
,
0110
0000
0000
0000
0000
0000
0110
1001
;

//---------------dance-single - ----------------
#NOTES:
     dance-single:
     :
     Challenge:
     9:
     0.583,0.511,0.570,0.000,0.343,363.000,59.000,0.000,0.000,0.000,0.000,0.583,0.511,0.570,0.000,0.343,363.000,59.000,0.000,0.000,0.000,0.000:
0000
0000
0000
0000
,
0000
0000
0110
0110
,
1001
0000
1000
0000
0000
0000
0001
0000
0000
0100
0000
0000
0010
0000
0010
0000
,
1000
0100
0000
0000
1100
0000
1001
0000
,
0101
0010
1010
0100
,
1001
0000
0001
0000
1000
0000
1000
0000
0010
0100
0010
0100
0010
0000
0000
0000
,
0110
0000
1000
0000
0001
0000
0010
0100
0010
0100
0010
0000
0001
0000
0001
0000
,
0100
0010
0110
0110
,
1010
0000
0001
0000
0100
0000
0100
0010
0100
0010
0100
0000
0001
0000
0010
0000
,
0100
0010
1001
1001
,
0101
0000
1000
0000
0100
0000
0010
0001
0010
0001
0010
0000
0100
0000
1000
0000
,
0010
0100
1001
1001
,
1010
0000
0010
0000
0100
0000
0001
0010
0001
0010
0001
0000
1000
0000
1000
0000
,
0001
0000
0100
0000
1000
0000
0100
0000
0001
1000
0001
1000
0001
0000
0000
0000
,
1000
0010
0000
0000
0100
0000
0001
0010
0000
0100
0000
1000
0010
0000
0010
0000
,
0100
0001
0000
0000
1000
0000
0100
0000
0110
0000
0000
0000
0011
0000
0000
0000
,
1001
0000
0001
0000
0100
0000
0010
0000
0100
0001
0100
0010
0000
0010
0000
0000
,
1000
0100
0000
0000
1000
0000
0010
0000
0001
0000
0010
0000
1000
0000
0100
0000
,
1000
0010
0000
0000
0100
0000
1000
0100
0000
0010
0000
0100
0001
0000
0001
0000
,
1000
0010
0000
0000
0100
0000
0001
0000
0011
0000
0000
0000
0110
0000
0000
0000
,
1100
0000
1000
0000
0010
0000
0100
0010
0100
0000
0001
1000
0000
0100
0000
0000
,
0010
0001
0100
1000
0100
0001
0110
0000
,
1010
1000
0010
0001
0010
0100
0010
1000
,
0100
0000
0010
0001
0000
1000
0010
0000
1010
0000
0000
0000
1010
0000
0000
0000
,
1010
0010
1000
0100
0001
0100
0010
0001
,
0010
0000
0100
1000
0000
0010
0100
0000
0101
0000
0000
0000
0101
0000
0000
0000
,
0101
0100
0001
0100
1000
0100
0010
1000
,
0100
0000
0100
0010
1000
0001
0100
1000
,
0010
0100
1000
0100
0001
0010
0100
1000
,
0100
0100
0100
0100
0100
0000
1001
0000
,
0001
0100
0000
0010
0000
0100
0000
0001
1000
0000
0100
0000
0010
0000
0100
0000
,
1000
0010
0000
0100
0000
0010
0000
1000
0100
0000
0010
0000
0001
0000
0000
0000
,
1000
0001
0000
0001
0000
0001
0000
1000
0001
0000
1000
0000
0010
0000
0001
0000
,
0100
1000
0010
0100
0010
1000
0100
1000
,
1100
0000
1000
0010
0100
0010
0100
0001
,
0101
0000
0001
0001
0010
0010
1000
1000
,
0110
0110
1000
0001
1001
1001
0010
0100
,
0110
1001
0110
1001
,
0001
0100
0000
0000
0010
1000
0000
0000
0001
0010
0001
0010
0100
0000
1000
0001
,
0000
0000
0110
1001
,
0010
0100
0000
0000
1001
0000
0100
0010
0000
0000
0100
0010
0000
0000
0000
0000
,
1000
0001
0000
0010
0000
0001
1000
0000
0001
0000
0100
0000
0010
0000
1000
0000
,
1000
0100
0000
0000
0010
0001
0000
0000
0100
0010
0100
0010
1000
0000
0001
0100
,
0000
0000
1001
0110
,
0001
1000
0000
0000
0110
0000
1000
0001
0000
0000
1000
0001
0000
0000
0000
0000
,
1000
1000
0100
0100
0001
0001
0110
0000
,
1000
0100
0000
0000
0001
0100
0000
0000
1000
0000
0100
0000
0001
0000
0100
0000
,
1000
0001
0110
0110
,
0001
0100
0000
0000
1000
0100
0000
0000
0001
0000
0100
0000
1000
0000
0100
0000
,
0001
1000
0110
0110
,
1000
0010
0000
0000
0001
0100
0000
0000
1000
0000
0010
0000
0001
0000
0100
0000
,
1000
0001
0110
1001
,
1100
0000
0000
0000
0000
0000
0101
1010
;

//---------------dance-single - ----------------
#NOTES:
     dance-single:
     :
     Medium:
     5:
     0.327,0.306,0.348,0.000,0.000,201.000,36.000,0.000,0.000,0.000,0.000,0.327,0.306,0.348,0.000,0.000,201.000,36.000,0.000,0.000,0.000,0.000: // measure 0
0000
0000
0000
0000
,  // measure 1
0000
0000
0100
0100
,  // measure 2
1001
1000
1000
1000
,  // measure 3
0100
0000
0100
0000
,  // measure 4
1001
0001
1001
1000
,  // measure 5
0110
0000
0100
0000
0100
0100
0100
0000
,  // measure 6
0001
1000
0100
0010
,  // measure 7
0001
0000
1100
1100
,  // measure 8
1100
0010
0100
0001
,  // measure 9
1000
0000
0101
0101
,  // measure 10
1000
0001
0010
0100
,  // measure 11
1000
0000
0110
0110
,  // measure 12
0001
1000
0001
1000
,  // measure 13
0010
0000
0010
0000
0010
0010
0010
0000
,  // measure 14
0100
0001
0100
1000
,  // measure 15
0010
0000
1001
1001
,  // measure 16
0001
1000
0100
0010
,  // measure 17
0001
0100
1000
0010
,  // measure 18
0001
0010
1000
0010
,  // measure 19
0100
0000
1001
1001
,  // measure 20
0110
0000
0100
0010
,  // measure 21
1000
0000
0001
0000
1000
0001
1000
0000
,  // measure 22
0010
0000
0100
0000
0001
0010
0001
0000
,  // measure 23
1000
1000
1100
0000
,  // measure 24
0100
0000
0010
0000
0001
0100
0001
0000
,  // measure 25
1000
1000
1010
0000
,  // measure 26
1000
0000
0001
0000
0010
0100
0010
0000
,  // measure 27
0001
0000
1000
0000
0100
0010
0100
0000
,  // measure 28
1000
0100
0010
0001
,  // measure 29
1001
0100
0100
0100
,  // measure 30
0001
0001
0000
0000
0000
0000
0000
0000
,  // measure 31
1000
1000
0000
0000
0010
0000
0010
0000
,  // measure 32
0100
0100
0000
0000
0000
0000
0000
0000
,  // measure 33
0001
0000
1000
0000
0010
0010
0010
0000
,  // measure 34
1000
0000
0001
0000
0100
0100
0100
0000
,  // measure 35
0010
0000
1000
0001
1000
0001
1000
0000
,  // measure 36
0100
0100
0000
0000
0010
0010
0000
0000
,  // measure 37
1001
1001
0110
0110
,  // measure 38
0101
0000
1001
0000
1000
1000
1000
0100
,  // measure 39
0100
0000
1000
0001
,  // measure 40
0110
0000
0000
1000
0000
0001
0000
0000
,  // measure 41
0100
0000
0100
0000
0001
1000
0001
0000
,  // measure 42
1100
0000
1001
0000
0001
0001
0001
0100
,  // measure 43
0100
0000
0001
1000
,  // measure 44
0110
0000
0000
0001
0000
1000
0000
0000
,  // measure 45
0001
0001
0100
0000
1000
1000
0010
0000
,  // measure 46
0110
1000
1000
1000
,  // measure 47
0100
0000
0101
0101
,  // measure 48
0001
0001
0001
0001
,  // measure 49
0010
0000
0110
0110
,  // measure 50
0100
0100
0100
0100
,  // measure 51
1000
0000
0001
1000
,  // measure 52
0110
0000
0000
1001
;

//---------------dance-single - ----------------
#NOTES:
     dance-single:
     :
     Easy:
     3:
     0.248,0.255,0.242,0.000,0.000,155.000,25.000,0.000,0.000,0.000,0.000,0.248,0.255,0.242,0.000,0.000,155.000,25.000,0.000,0.000,0.000,0.000:
0000
0000
0000
0000
,
0000
0000
0000
0000
,
1001
0000
1000
0000
,
0001
0000
0001
0000
,
0110
0000
0110
0000
,
0110
0000
0000
0100
,
0001
1000
0001
1000
,
0100
0000
0100
0000
,
1000
0001
1000
0001
,
0010
0000
0010
0000
,
0100
0001
1000
0100
,
0010
0000
0010
0000
,
0001
0100
0010
1000
,
0100
0100
0100
0100
,
1001
0000
0000
0001
,
0100
0100
0010
0010
,
1000
0001
1000
0001
,
0100
0100
0010
0010
,
1001
0000
0000
1000
,
0010
0010
0100
0100
,
0001
1000
0001
1000
,
0010
0010
0010
0110
,
1000
0001
1000
0100
,
1000
1000
1000
0000
,
0001
1000
0001
0100
,
0001
0001
0001
0000
,
1000
0100
0001
0010
,
1000
0010
0001
0100
,
1000
0001
1000
0001
,
0100
0100
0100
0100
,
0110
0000
0000
0000
,
1001
0000
0100
0100
,
0110
0000
0000
0000
,
0000
0001
0100
0010
,
1000
0001
0010
0100
,
1000
0001
0010
1000
,
0100
0000
0100
0000
,
0110
0110
0110
0110
,
1001
1001
0100
0100
,
0100
0000
0010
0010
,
0110
0000
0100
0000
,
0001
1000
0100
0000
,
1001
1001
0010
0010
,
0010
0000
0100
0100
,
0110
0000
0010
0000
,
1000
0001
0100
0100
,
0110
0000
0001
0000
,
1000
0000
0100
0100
,
0110
0000
1000
0000
,
0001
0000
0100
0000
,
0110
0000
0001
0000
,
1000
0000
0001
1000
,
1001
0000
0000
1001
;
