#TITLE:Club;
#SUBTITLE:;
#ARTIST:Patt.22;
#TITLETRANSLIT:;
#SUBTITLETRANSLIT:;
#ARTISTTRANSLIT:;
#CREDIT:Dossar;
#BANNER:clubbn.png;
#BACKGROUND:clubbg.png;
#LYRICSPATH:;
#CDTITLE:cd.png;
#MUSIC:Club.mp3;
#OFFSET:-0.060;
#SAMPLESTART:44.080;
#SAMPLELENGTH:11.900;
#SELECTABLE:YES;
#BPMS:0.000=120.000;
#STOPS:;
#BGCHANGES:;

//---------------dance-single - ----------------
#NOTES:
     dance-single:
     :
     Hard:
     10:
     0.748,0.819,0.050,0.000,0.974: // measure 1
0000
0000
0000
0000
,  // measure 2
0000
0000
0000
0000
,  // measure 3
0000
0000
0000
0000
,  // measure 4
0000
0000
0000
0000
,  // measure 5
0100
0000
0000
0000
0100
0000
0000
0000
0100
0000
0000
0000
0100
0000
0001
0010
,  // measure 6
0100
0000
0000
0000
0100
0000
0000
0000
0100
0000
0000
0000
0100
0000
1000
0010
,  // measure 7
0100
0000
0000
0000
0100
0000
0000
0000
0100
0000
0000
0000
0100
0000
0001
0010
,  // measure 8
0100
0000
0000
0000
0100
0000
0000
0000
0100
0000
0000
0000
0100
0000
1000
0010
,  // measure 9
0100
0000
0001
0000
0100
0000
1000
0000
0100
0000
0001
0000
0100
0000
0001
0010
,  // measure 10
0100
0000
1000
0000
0100
0000
0001
0000
0100
0000
1000
0000
0100
0000
1000
0010
,  // measure 11
0100
0000
0001
0000
0100
0000
1000
0000
0100
0000
0001
0000
0100
0000
0001
0010
,  // measure 12
0100
0000
1000
0000
0100
0000
0001
0000
0100
0000
1000
0000
0100
0000
1000
0010
,  // measure 13
0100
0000
0001
0000
0100
0000
1000
0000
0100
0000
0001
0010
0100
0000
1000
0010
,  // measure 14
0100
0000
0001
0000
0100
0000
1000
0000
0100
0000
0001
0010
0100
0000
1000
0010
,  // measure 15
0100
0000
0001
0000
0100
0000
1000
0000
0100
0000
0001
0010
0100
0000
1000
0010
,  // measure 16
0100
0000
0001
0000
0100
0000
1000
0000
0100
0000
0001
0010
0100
0000
1010
0000
,  // measure 17
0101
0000
0001
0000
0100
0000
1000
0000
0100
0000
0001
0010
0100
0000
1000
0010
,  // measure 18
0100
0000
0001
0000
0100
0000
1000
0000
0100
0000
0001
0010
0100
0000
1000
0010
,  // measure 19
0100
0000
0001
0000
0100
0000
1000
0000
0100
0000
0001
0010
0100
0000
1000
0010
,  // measure 20
0100
0000
0001
0000
0100
0000
1000
0000
0100
0000
0001
0010
0100
0000
0110
0000
,  // measure 21
1001
0000
0000
0000
,  // measure 22
0000
0000
0000
0000
1000
0001
1000
0001
1000
0001
1000
0001
1000
0001
1000
0001
,  // measure 23
1000
0100
0010
0100
1000
0010
0100
0001
0010
0100
0010
0001
1000
0010
0100
0001
,  // measure 24
1000
0100
0001
1000
0010
0001
1000
0100
0001
1000
0010
0001
1000
0010
0100
0001
,  // measure 25
1000
0100
0010
0100
1000
0010
0100
0001
0010
0100
0010
0001
1000
0010
0100
0001
,  // measure 26
1000
0100
0001
1000
0010
0001
1000
0100
0001
1000
0010
0001
1000
0010
0100
0001
,  // measure 27
1000
0100
0010
0100
1000
0010
0100
0001
0010
0100
0010
0001
1000
0010
0100
0001
,  // measure 28
1000
0100
0001
1000
0010
0001
1000
0100
0001
1000
0010
0001
1000
0010
0100
0001
,  // measure 29
1000
0100
0010
0100
1000
0010
0100
0001
0010
0100
0010
0001
1000
0010
0100
0001
,  // measure 30
1000
0100
0001
1000
0010
0001
1000
0100
0001
1000
0010
0001
1000
0010
0100
0001
,  // measure 31
0010
0100
1000
0010
1000
0100
0010
0100
1000
0010
1000
0100
0010
0001
0010
0100
,  // measure 32
1000
0010
0001
1000
0100
0001
1000
0010
0001
1000
0100
0001
1000
0010
0100
0001
,  // measure 33
0010
0100
1000
0010
1000
0100
0010
0100
1000
0010
1000
0100
0010
0001
0010
0100
,  // measure 34
1000
0010
0001
1000
0100
0001
1000
0010
0001
1000
0100
0001
1000
0010
0100
0001
,  // measure 35
0010
0100
1000
0010
1000
0100
0010
0100
1000
0010
1000
0100
0010
0001
0010
0100
,  // measure 36
1000
0010
0001
1000
0100
0001
1000
0010
0001
1000
0100
0001
1000
0010
0100
0001
,  // measure 37
0010
0100
1000
0010
1000
0100
0010
0100
1000
0010
1000
0100
0010
0001
0010
0100
,  // measure 38
1000
0010
0001
1000
0100
0001
1000
0010
0001
1000
0100
0001
1000
0010
0100
0001
,  // measure 39
1000
1000
1000
1000
,  // measure 40
1000
1000
1000
1000
;

//---------------dance-single - ----------------
#NOTES:
     dance-single:
     :
     Medium:
     9:
     0.651,0.819,0.025,0.000,0.799:
0000
0000
0000
0000
,
0000
0000
0000
0000
,
0000
0000
0000
0000
,
0000
0000
0000
0000
,
0100
0000
0100
0000
0100
0000
0100
0001
,
0100
0000
0100
0000
0100
0000
0100
1000
,
0100
0000
0100
0000
0100
0000
0100
0001
,
0100
0000
0100
0000
0100
0000
0100
1000
,
0100
0001
0100
1000
0100
0001
0100
0001
,
0100
1000
0100
0001
0100
1000
0100
1000
,
0100
0001
0100
1000
0100
0001
0100
0001
,
0100
1000
0100
0001
0100
1000
0100
1000
,
0100
0000
0001
0000
0100
0000
1000
0000
0100
0000
0000
0001
0000
0000
0010
0000
,
0100
0000
0001
0000
0100
0000
1000
0000
0100
0000
0000
1000
0000
0000
0010
0000
,
0100
0000
0001
0000
0100
0000
1000
0000
0100
0000
0000
0001
0000
0000
0010
0000
,
0100
0000
0001
0000
0100
0000
1000
0000
0100
0000
0000
1000
0000
0000
0010
0000
,
0110
0000
0001
0000
0100
0000
1000
0000
0100
0000
0000
0001
0000
0000
0010
0000
,
0100
0000
0001
0000
0100
0000
1000
0000
0100
0000
0000
1000
0000
0000
0010
0000
,
0100
0000
0001
0000
0100
0000
1000
0000
0100
0000
0000
0001
0000
0000
0010
0000
,
0100
0000
0001
0000
0100
0000
1000
0000
0100
0000
0000
1000
0000
0000
0010
0000
,
0110
0000
0000
0000
,
0000
0000
0001
0001
0001
0001
0001
0001
,
1000
0010
1000
0010
1000
0010
0100
0001
0100
0001
0100
0001
1000
0100
0010
0001
,
1000
0100
1000
0001
0100
0001
1000
0010
1000
0001
0010
0001
1000
0010
0100
0001
,
1000
0010
1000
0010
1000
0010
0100
0001
0100
0001
0100
0001
1000
0100
0010
0001
,
1000
0100
1000
0001
0100
0001
1000
0010
1000
0001
0010
0001
1000
0010
0100
0001
,
1000
0010
1000
0010
1000
0010
0100
0001
0100
0001
0100
0001
1000
0100
0010
0001
,
1000
0100
1000
0001
0100
0001
1000
0010
1000
0001
0010
0001
1000
0010
0100
0001
,
1000
0010
1000
0010
1000
0010
0100
0001
0100
0001
0100
0001
1000
0100
0010
0001
,
1000
0100
1000
0001
0100
0001
1000
0010
1000
0001
0010
0001
1000
0010
0100
0001
,
1000
0100
0000
1000
0100
0000
0010
0001
0000
0010
0001
0000
1000
0010
0100
0001
,
1000
0100
1000
0001
0100
0001
1000
0010
1000
0001
0010
0001
1000
0010
0100
0001
,
1000
0100
0000
1000
0100
0000
0010
0001
0000
0010
0001
0000
1000
0010
0100
0001
,
1000
0100
1000
0001
0100
0001
1000
0010
1000
0001
0010
0001
1000
0010
0100
0001
,
1000
0100
0000
1000
0100
0000
0010
0001
0000
0010
0001
0000
1000
0010
0100
0001
,
1000
0100
1000
0001
0100
0001
1000
0010
1000
0001
0010
0001
1000
0010
0100
0001
,
1000
0100
0000
1000
0100
0000
0010
0001
0000
0010
0001
0000
1000
0010
0100
0001
,
1000
0100
1000
0001
0100
0001
1000
0010
1000
0001
0010
0001
1000
0010
0100
0001
,
1000
1000
1000
1000
,
1000
1000
1000
1000
;

//---------------dance-single - ----------------
#NOTES:
     dance-single:
     :
     Easy:
     5:
     0.387,0.422,0.225,0.000,0.050:
0000
0000
0000
0000
,
0000
0000
0000
0000
,
0000
0000
0000
0000
,
0000
0000
0000
0000
,
1000
0000
1000
0000
1000
0000
1000
0001
,
0100
0000
0100
0000
0100
0000
0100
0010
,
1000
0000
1000
0000
1000
0000
1000
0001
,
0100
0000
0100
0000
0100
0000
0100
0010
,
1000
0001
1000
0001
1000
0001
1000
0001
,
1000
0010
1000
0010
1000
0010
1000
0010
,
0100
0001
0100
0001
0100
0001
0100
0001
,
0100
0010
0100
0010
0100
0010
0100
0010
,
1000
0001
1000
0000
1001
0000
1001
0000
,
0001
1000
0001
0000
1001
0000
1001
0000
,
0100
0010
0100
0000
0110
0000
0110
0000
,
0010
0100
0010
0000
0110
0000
0110
0000
,
1001
1000
1001
1001
,
0001
0001
0101
0101
,
0100
0100
0110
0110
,
0010
0010
1010
1010
,
1001
0000
0000
0000
,
0000
0000
1000
0001
1000
0001
1000
0001
,
1000
0000
0000
0100
0000
0000
0010
0000
,
0001
0001
0001
1000
1000
1000
0010
0100
,
0001
0000
0000
1000
0000
0000
0100
0000
,
0010
0010
0010
0001
0001
0001
1000
0100
,
1000
0000
0000
0001
0000
0000
0100
0000
,
0010
0010
0010
1000
1000
1000
0001
0100
,
0001
0000
0000
1000
0000
0000
0100
0000
,
0010
0010
0010
0100
0100
0100
1000
0001
,
0100
0000
0000
0100
0000
0000
0100
0000
0000
0100
0000
0000
0100
0000
0000
0000
,
0001
0001
0001
1000
1000
1000
0100
0100
,
1000
0000
0000
1000
0000
0000
1000
0000
0000
1000
0000
0000
1000
0000
0000
0000
,
0001
0001
0001
0100
0100
0100
0010
1000
,
0001
0000
0000
0001
0000
0000
0001
0000
0000
0001
0000
0000
0001
0000
0000
0000
,
1000
1000
1000
0100
0100
0100
0010
0001
,
1000
0000
0000
1000
0000
0000
1000
0000
0000
1000
0000
0000
1000
0000
0000
0000
,
0010
0010
0010
0100
0100
0100
0001
1000
,
0100
0100
0100
0100
,
0100
0100
0100
0100
;

//---------------dance-single - ----------------
#NOTES:
     dance-single:
     :
     Beginner:
     2:
     0.246,0.248,0.012,0.000,0.000:
0000
0000
0000
0000
,
0000
0000
0000
0000
,
0000
0000
0000
0000
,
0000
0000
0000
0000
,
1000
1000
1000
1000
,
0001
0001
0001
0001
,
0100
0100
0100
0100
,
0010
0010
0010
0010
,
1000
1000
1000
1000
,
0001
0001
0001
0001
,
0010
0010
0010
0010
,
0100
0100
0100
0100
,
1000
1000
1000
1000
,
0001
0001
0001
0001
,
0100
0100
0100
0100
,
0010
0010
0010
0010
,
0100
0100
0100
0100
,
0001
0001
0001
0001
,
1000
1000
1000
1000
,
0010
0010
0010
0010
,
0110
0000
0000
0000
,
0000
0000
0000
0000
,
1000
1000
0010
0010
,
0100
0100
0001
0001
,
1000
1000
0100
0100
,
0010
0010
0001
0001
,
0010
0010
0100
0100
,
1000
1000
0001
0001
,
1000
1000
0010
0010
,
0100
0100
0001
0001
,
1000
1000
0100
0100
,
0010
0010
0001
0001
,
1000
1000
0010
0010
,
0100
0100
0001
0001
,
1000
1000
0001
0001
,
0100
0100
0010
0010
,
1000
1000
0001
0001
,
0010
0010
0100
0100
,
1000
1000
1000
1000
,
1000
1000
1000
1000
;
