#VERSION:0.81;
#TITLE:Baby;
#SUBTITLE:(Breakbot Remix);
#ARTIST:Pnau;
#TITLETRANSLIT:;
#SUBTITLETRANSLIT:;
#ARTISTTRANSLIT:;
#GENRE:;
#ORIGIN:;
#CREDIT:;
#BANNER:[Old School] - Baby (Breakbot Remix)-bn.png;
#BACKGROUND:[Old School] - Baby (Breakbot Remix)-bg.png;
#PREVIEWVID:;
#JACKET:[Old School] - Baby (Breakbot Remix)-jacket.png;
#CDIMAGE:;
#DISCIMAGE:;
#LYRICSPATH:;
#CDTITLE:cdtitle.png;
#MUSIC:[Old School] - Baby (Breakbot Remix).ogg;
#OFFSET:-8.075;
#SAMPLESTART:69.999;
#SAMPLELENGTH:12.000;
#SELECTABLE:YES;
#DISPLAYBPM:124.000;
#BPMS:0.000=124.000;
#STOPS:;
#DELAYS:;
#WARPS:;
#TIMESIGNATURES:0.000=4=4;
#TICKCOUNTS:0.000=4;
#COMBOS:0.000=1;
#SPEEDS:0.000=1.000=0.000=0;
#SCROLLS:0.000=1.000;
#FAKES:;
#LABELS:0.000=Song Start;
#BGCHANGES:;
#KEYSOUNDS:;
#ATTACKS:
;

//---------------dance-single - ----------------
#NOTEDATA:;
#CHARTNAME:;
#STEPSTYPE:dance-single;
#DESCRIPTION:;
#CHARTSTYLE:;
#DIFFICULTY:Hard;
#METER:6;
#RADARVALUES:0.405,0.318,0.411,0.000,0.013,277.000,47.000,0.000,0.000,0.000,0.000,0.000,0.000,0.405,0.318,0.411,0.000,0.013,277.000,47.000,0.000,0.000,0.000,0.000,0.000,0.000;
#CREDIT:;
#DISPLAYBPM:124.000;
#NOTES:
0000
0000
0000
0000
,
0000
0000
0000
0000
,
0001
0000
0100
0000
0001
1000
1000
1000
,
0001
0000
0010
0000
0001
0100
0100
0100
,
0010
1000
1100
1100
,
1001
0000
0000
0000
1000
0001
0001
0001
,
0100
0000
0010
0000
1000
0100
0100
0100
,
0010
0000
0001
0000
1000
0010
0010
0010
,
0100
0001
0101
0101
,
1001
0000
0000
0000
1000
0000
0100
0100
,
1100
0000
1001
0000
1000
0000
0010
0010
,
0110
0000
0101
0000
1000
0000
0001
0001
,
0011
0000
1100
0000
0001
0000
0100
0100
,
0010
1000
0010
0000
0100
0000
0001
0001
,
1001
0000
1100
0000
1000
0000
0001
0001
,
0101
0000
1010
0000
1000
0000
0100
0100
,
0110
0000
0011
0000
0001
0000
1000
1000
,
0001
0100
0001
0000
1000
0100
0100
0100
,
1000
0000
0001
0100
0001
0010
0010
0010
,
0100
0000
1000
0010
1000
0100
0100
0100
,
0010
0000
0001
1000
0000
1010
0000
0101
,
0000
0001
0010
0100
0010
0001
0001
0001
,
1000
0000
1010
0000
0001
0100
0100
0100
,
0010
0000
1010
0000
0001
0010
0010
0010
,
0100
0000
1000
0001
0000
0101
0000
1010
,
0000
1000
0100
0010
0100
1000
0001
0000
,
1000
1010
1000
1001
,
0001
0000
0011
0000
0001
0000
1001
1000
,
0001
0101
0001
1001
,
1000
0000
1100
0000
1000
0010
0100
0001
,
1000
0000
0100
0000
1000
0100
0010
0000
,
0001
0000
0100
0000
0001
0010
0010
0010
,
0001
0000
0000
0001
0100
0000
0000
0000
0010
0000
0100
0000
0001
0000
0000
0000
,
1001
0000
1100
0000
1000
0000
0001
0100
,
0010
0000
0000
0010
1000
0000
0000
0000
0001
0000
0010
0000
0100
0000
0000
0000
,
1100
0000
1001
0000
0001
0100
0010
1000
,
0001
0000
0000
0001
0010
0000
0000
0000
0100
0000
1000
0000
0001
0000
0000
0000
,
1000
0000
1010
0000
0010
1000
0001
1000
,
1000
0000
1100
0000
0001
0100
0010
0100
,
0001
0000
0010
0000
0100
1000
1000
1000
,
0001
0000
0101
0000
1000
0100
0010
0100
,
1000
0000
0010
0000
0100
0001
1000
0001
,
1000
0000
0101
0000
0001
0010
0100
0000
,
1000
0000
1001
0000
0001
0100
0001
0001
,
1001
0000
1000
0000
0100
1000
0001
0000
,
0101
0000
0000
0000
0010
1000
0000
0000
,
0001
0000
0101
0000
0001
0010
0100
0000
,
1000
0010
1010
0000
1000
0001
1000
0000
,
0001
0000
0011
0000
0010
0001
1000
0000
,
0001
0100
0010
1000
0001
0010
0001
0000
,
1000
0000
1100
0000
0100
1000
0001
0000
,
1000
0010
0100
0001
0010
0100
1000
0000
,
1001
0000
0000
0000
;

//---------------dance-single - ----------------
#NOTEDATA:;
#CHARTNAME:;
#STEPSTYPE:dance-single;
#DESCRIPTION:;
#CHARTSTYLE:;
#DIFFICULTY:Medium;
#METER:4;
#RADARVALUES:0.241,0.227,0.184,0.000,0.000,172.000,21.000,0.000,0.000,0.000,0.000,0.000,0.000,0.241,0.227,0.184,0.000,0.000,172.000,21.000,0.000,0.000,0.000,0.000,0.000,0.000;
#CREDIT:;
#DISPLAYBPM:124.000;
#NOTES:
// measure 0
0000
0000
0000
0000
,  // measure 1
0000
0000
0000
0000
,  // measure 2
0001
0100
0001
0001
,  // measure 3
1000
0100
1000
1000
,  // measure 4
0001
0100
0010
1000
,  // measure 5
1001
0000
0000
0001
,  // measure 6
1000
0010
1000
1000
,  // measure 7
0001
0010
0001
0001
,  // measure 8
1000
0010
0100
0001
,  // measure 9
1001
0000
0000
1000
,  // measure 10
0001
0010
0001
0010
,  // measure 11
0100
0000
0000
1000
,  // measure 12
0001
0100
0001
0100
,  // measure 13
0010
0000
1000
0001
,  // measure 14
1000
0100
1000
0100
,  // measure 15
0010
0000
0000
0001
,  // measure 16
1000
0010
1000
0010
,  // measure 17
0100
0000
0001
1000
,  // measure 18
0001
0010
0100
0010
,  // measure 19
0001
0000
1000
0001
,  // measure 20
1000
0010
0100
0010
,  // measure 21
1000
0000
0001
1000
0001
0000
1000
0000
,  // measure 22
0001
0010
0100
1000
,  // measure 23
1001
0000
0001
1000
,  // measure 24
0001
0100
0010
1000
,  // measure 25
1001
0000
0001
0000
1000
0001
1000
0000
,  // measure 26
0001
0000
0000
0000
0011
0000
0000
1100
,  // measure 27
0000
0000
0000
0000
1000
0000
0001
1000
,  // measure 28
0001
0000
0000
0000
0101
0000
0000
1010
,  // measure 29
0000
0000
1000
0100
,  // measure 30
1000
0000
1001
0001
,  // measure 31
1000
0010
0100
0100
,  // measure 32
0100
0000
0101
0001
,  // measure 33
1000
0000
0001
0010
,  // measure 34
0100
0000
1100
1000
,  // measure 35
0001
1000
0010
0100
,  // measure 36
0001
0000
1001
1000
,  // measure 37
0001
0000
0010
0000
0100
1000
0100
0000
,  // measure 38
1000
0000
1001
0001
,  // measure 39
0100
0010
1000
0001
,  // measure 40
0001
0000
0011
0010
,  // measure 41
0001
0100
0010
1000
,  // measure 42
0001
0000
1001
1000
,  // measure 43
0100
0000
1000
0010
,  // measure 44
0100
0000
0101
0000
,  // measure 45
1001
0000
0000
0000
1000
0100
0000
0000
,  // measure 46
1000
1001
0001
0100
,  // measure 47
0001
0010
0100
0000
,  // measure 48
1100
1000
0001
0100
,  // measure 49
0010
0100
0001
0000
,  // measure 50
1001
1000
0001
0010
,  // measure 51
0100
1000
0001
0000
,  // measure 52
1001
0000
0000
0000
;

//---------------dance-single - ----------------
#NOTEDATA:;
#CHARTNAME:;
#STEPSTYPE:dance-single;
#DESCRIPTION:;
#CHARTSTYLE:;
#DIFFICULTY:Easy;
#METER:2;
#RADARVALUES:0.192,0.182,0.149,0.000,0.000,137.000,17.000,0.000,0.000,0.000,0.000,0.000,0.000,0.192,0.182,0.149,0.000,0.000,137.000,17.000,0.000,0.000,0.000,0.000,0.000,0.000;
#CREDIT:;
#DISPLAYBPM:124.000;
#NOTES:
// measure 0
0000
0000
0000
0000
,  // measure 1
0000
0000
0000
0000
,  // measure 2
0001
0000
0001
0100
,  // measure 3
0100
0000
0100
0001
,  // measure 4
0001
0000
1000
0000
,  // measure 5
1001
0000
0000
0001
,  // measure 6
1000
0000
1000
0100
,  // measure 7
0100
0000
0100
1000
,  // measure 8
1000
0000
0001
0000
,  // measure 9
1001
0000
0000
0000
,  // measure 10
1000
0000
0010
0000
,  // measure 11
1000
0000
0001
1000
,  // measure 12
0001
0000
0010
0000
,  // measure 13
0001
0000
1000
0001
,  // measure 14
1000
0000
0100
0000
,  // measure 15
1000
0000
0001
1000
,  // measure 16
0001
0000
0100
0000
,  // measure 17
0001
0000
1000
0001
,  // measure 18
0001
0000
0010
0100
,  // measure 19
0100
0000
1000
0001
,  // measure 20
0001
0100
0001
0100
,  // measure 21
0010
1000
1000
0001
,  // measure 22
1000
0000
0001
0010
,  // measure 23
0010
0000
0100
1000
,  // measure 24
1000
0010
1000
0010
,  // measure 25
0100
0000
0100
0001
,  // measure 26
1000
0000
1100
0000
,  // measure 27
0101
0000
1000
0001
,  // measure 28
1000
0000
1100
0000
,  // measure 29
0101
0000
1000
0001
,  // measure 30
1000
0000
0001
0100
,  // measure 31
0001
0000
1000
1000
,  // measure 32
1000
0000
1010
0000
,  // measure 33
0101
0000
0001
0010
,  // measure 34
0001
0000
0101
0000
,  // measure 35
1010
0000
1000
0001
,  // measure 36
1000
0000
0001
0100
,  // measure 37
0001
0000
0001
1000
,  // measure 38
0001
0000
0011
0000
,  // measure 39
1100
0000
1000
0001
,  // measure 40
0001
0000
0101
0000
,  // measure 41
1010
0000
1000
0001
,  // measure 42
1000
0000
0001
0100
,  // measure 43
0001
0000
1000
0100
,  // measure 44
1000
0000
1100
0000
,  // measure 45
1001
0000
0001
0000
,  // measure 46
1000
1000
0001
0000
,  // measure 47
0001
0100
0001
0000
,  // measure 48
1000
1000
0100
0000
,  // measure 49
0010
0001
1000
0000
,  // measure 50
0001
0001
0100
0000
,  // measure 51
0010
1000
0001
0000
,  // measure 52
1001
0000
0000
0000
;
