#TITLE:ツミナガラ...と彼女は謂ふ;
#SUBTITLE:;
#ARTIST:あさき;
#TITLETRANSLIT:tsuminigara...tokanojowaiu;
#SUBTITLETRANSLIT:;
#ARTISTTRANSLIT:Asaki;
#GENRE:;
#CREDIT:;
#BANNER:tsuminigara...tokanojowaiubn.png;
#BACKGROUND:tsuminigara...tokanojowaiubg.png;
#LYRICSPATH:;
#CDTITLE:encorerebirth.png;
#MUSIC:tsuminagara...tokanojowaiu - Asaki.mp3;
#OFFSET:-1.022;
#SAMPLESTART:46.881;
#SAMPLELENGTH:12.309;
#SELECTABLE:YES;
#BPMS:0.000=153.000
;
#STOPS:
;
#BGCHANGES:;
#KEYSOUNDS:;
#ATTACKS:;

//---------------dance-single - Spork!----------------
#NOTES:
     dance-single:
     :
     Beginner:
     1:
     0.104,0.152,0.034,0.023,0.000,59.000,3.000,2.000,0.000,0.000,0.000,0.104,0.152,0.034,0.023,0.000,59.000,3.000,2.000,0.000,0.000,0.000:
0000
0000
0000
0000
,
0000
0000
0000
0000
,
0000
0000
0000
0000
,
0000
0000
0000
0001
,
0000
0000
0001
0000
,
0000
0001
0000
1000
,
0000
0000
1000
0000
,
0000
1000
0000
0100
,
0000
0000
0100
0000
,
0000
0100
0000
0010
,
0000
0000
0010
0000
,
0000
0010
0000
1001
,
0000
0000
0000
0100
,
0000
0000
0000
0010
,
0000
0000
0000
0010
,
0000
0100
0000
1001
,
0000
0000
0000
0001
,
0000
0000
0000
1000
,
0000
0000
0000
0100
,
0000
0010
0000
0001
,
0000
0000
0000
0000
,
0000
0000
0100
0000
0000
0000
0000
1001
,
0000
0000
0000
0000
,
0000
0000
0000
0000
0000
0000
0000
2000
,
0000
0000
0000
0000
0000
3000
0000
0002
,
0000
0000
0000
0000
0000
0003
0000
0000
,
0000
0000
0000
0000
,
0000
0000
0000
0001
,
0000
1000
0000
0001
,
0000
1000
1000
1000
,
0000
0000
0000
0001
,
0000
0010
0000
0100
,
0000
0000
0000
1000
,
0000
0010
0000
0100
,
0000
0000
0000
0001
,
0000
0000
0000
1000
,
0000
0000
0000
0001
,
0000
0000
0000
0001
,
0000
0000
0100
0100
,
0000
0000
0000
0010
,
0000
0000
1000
1000
,
0000
0000
0000
0001
,
0000
0000
0001
0001
,
0000
0000
0000
1000
,
0000
0000
0000
0100
,
0000
0000
0000
0000
,
0000
0000
0000
0000
,
0000
0000
0000
0000
,
0000
0000
0000
0000
,
0000
0000
0000
0001
,
0000
0000
0001
0000
,
0000
0001
0000
1000
,
0000
0000
1000
0000
,
0000
1000
0000
0000
;

//---------------dance-double - Spork!----------------
#NOTES:
     dance-double:
     :
     Easy:
     4:
     0.254,0.273,0.068,0.216,0.000,131.000,6.000,19.000,0.000,0.000,0.000,0.254,0.273,0.068,0.216,0.000,131.000,6.000,19.000,0.000,0.000,0.000:
00000000
00000000
00000000
00000000
,
00000000
00000000
00000000
00000000
,
00000000
00000000
00000000
00000000
,
00000000
00000000
00000000
10000000
,
00000000
01000000
00000000
00000000
00100000
00000000
00000000
00001000
,
00000000
00010000
00010000
00000001
,
00000000
00000100
00000000
00000000
00000010
00000000
00000000
00010000
,
00000000
00001000
00000000
10000000
,
00000000
00100000
00000000
00000000
01000000
00000000
00000000
00001000
,
00000000
00010000
00010000
00000001
,
00000000
00000010
00000000
00000000
00000100
00000000
00000000
00010000
,
00000000
00001000
00001000
00020000
,
00000000
00030100
00001000
00000002
,
00000000
00000103
00000010
00002000
,
00000000
00003100
00010000
00000010
,
00010000
00001000
00100000
00002000
,
00000000
01003000
00010000
20000000
,
00000000
30100000
01000000
00020000
,
00000000
20030000
00000000
31000000
,
00100000
00010000
00000000
01010000
,
00000000
01001000
00000000
00000000
00010000
00000000
00001000
00000000
,
00001000
00000000
00100000
00000000
01000000
00000000
00000000
10010000
,
00000000
10000000
00000000
10000000
00000000
10000000
00000000
10000000
,
00000000
10000000
00000000
10000000
00000000
10000000
00000000
00020000
,
00000000
00000000
00000000
00000000
00000000
00030000
00000000
00002000
,
00000000
00000000
00000000
00000000
00000000
00003000
00000000
00000001
,
00000000
00000001
00000000
00000001
00000000
00000001
00000000
00000001
,
00000000
00000001
00000000
00000001
00000000
00000000
00000001
00000000
,
00001000
00000100
00010000
00001000
,
01000000
00010000
10000000
10010000
,
00100000
00100000
00000000
10000000
,
01000000
00010000
00000000
00011000
,
00000000
00011000
00010000
00000010
,
00000100
00000001
00001000
00000100
,
00000000
00000010
00000001
00001000
,
00000000
00000010
00010000
00001000
,
00000000
00001000
00100000
00010000
,
00000000
00010000
00010000
20000000
,
00000000
30000000
01000000
02000000
,
00000000
00200000
03000000
00000000
00301000
00000000
00002000
00000000
,
00000000
00003000
00010000
00020000
,
00000000
00000020
00030000
00000000
00000100
00000030
00000200
00000000
,
00000000
00000300
00000001
00000002
,
00000000
00002000
00000003
00000000
00000100
00003000
00000200
00000000
,
00000000
00000300
00000000
00000000
,
00000000
00000000
00000000
00000000
,
00000000
00000000
00000000
00000000
,
00000000
00000000
00000000
00000000
,
00000000
00000000
00000000
00000000
,
00000000
00000000
00000000
00000001
,
00000000
00000100
00000000
00000000
00000010
00000000
00000000
00010000
,
00000000
00001000
00001000
10000000
,
00000000
00100000
00000000
00000000
01000000
00000000
00000000
00001000
,
00000000
00010000
00000000
00000000
;

//---------------dance-single - Spork!----------------
#NOTES:
     dance-single:
     :
     Hard:
     9:
     0.592,0.642,0.182,0.034,0.222,345.000,16.000,3.000,0.000,0.000,0.000,0.592,0.642,0.182,0.034,0.222,345.000,16.000,3.000,0.000,0.000,0.000:
0000
0000
0000
0000
,
0000
0000
0000
0000
,
0000
0000
0000
0000
,
0000
0000
0000
0000
0000
0000
1000
0010
,
0100
0000
0100
0001
0000
0100
0000
1000
,
0100
0000
0100
0001
0000
1000
0001
0010
,
0100
0000
0100
1000
0000
0100
0000
0001
,
0100
0000
0100
0000
1001
0000
0010
1000
,
0100
0010
0000
0010
0001
0000
0001
1000
,
0000
1000
0010
0000
1001
0000
0100
0001
,
0010
0100
0000
0100
1000
0010
0100
0001
,
0000
0001
0100
0000
0110
0110
0010
1000
,
0100
1000
0010
0100
0001
1000
0100
0010
,
0001
0010
0100
1000
0000
1000
0010
0100
,
0001
0010
0001
1000
0100
0010
0100
0001
,
0100
1000
0010
1010
0000
0011
0010
0100
,
1000
0010
0100
0001
0000
0001
0100
0100
,
0001
0010
0100
1000
0000
1000
0001
0100
,
1000
0100
0001
0100
1000
0100
0010
1000
,
0100
0000
0010
0000
0002
0000
0000
0000
0000
0000
0000
0000
1003
0010
0000
0000
,
0000
0000
1000
0100
0000
0000
0000
0000
0011
0000
0000
0000
1000
0000
0000
1000
,
0000
0000
0000
1000
0000
0000
0001
0000
0010
0000
0001
0000
0100
0000
0001
0000
1000
0000
0000
0000
0000
1001
0000
0000
,
1000
0100
0010
0000
0010
0001
0000
0001
,
0010
0100
1000
0001
0000
1000
0000
1010
,
1000
0010
0100
0001
1000
1100
0000
0011
,
0001
0010
0100
1000
0001
0101
0000
1001
,
0001
0100
0001
0010
0100
1000
0001
0010
,
0001
0000
0100
0000
0010
0000
1000
0001
1000
0001
1000
0000
0001
0000
0100
0000
,
1000
0000
0100
0000
0001
0000
1000
0000
0100
0000
0001
0000
0100
1000
0000
0000
,
0001
1000
0001
1000
0001
0000
0000
0000
1001
0000
0000
0000
0001
0000
0000
0010
,
0000
0000
0100
0000
0000
0000
0100
0000
1000
0000
0010
0000
0100
0000
0000
1010
,
0000
0100
0001
0000
0001
0020
1000
0030
,
1000
0000
0020
0000
0001
0000
0030
0000
0001
0000
1000
0000
0100
0000
0000
0110
,
0000
0001
0000
0001
0010
0100
1000
0100
,
1000
0010
1000
0001
0100
0100
0001
0100
,
0001
0000
0010
0000
0001
0000
1000
0000
0100
0000
0100
0000
0000
0000
0010
0001
,
0010
0000
0001
0100
0001
0000
0100
0010
0100
0000
0010
0000
1000
0010
1000
0000
,
0001
1000
0100
0100
0100
0100
1000
0100
,
0010
0001
0100
1000
0100
0001
1000
0100
,
0001
1000
0010
0001
0010
0010
0001
0100
,
0010
1000
0100
0001
0100
1000
0001
0100
,
1000
0001
0010
1000
0010
0010
1000
0100
,
0010
0000
0100
0010
0000
0100
0000
0100
1000
0000
0001
1000
0001
0000
0100
0000
,
0010
0000
1000
0010
0000
0100
0000
0100
0001
0000
1000
0000
0001
1000
0001
1000
,
0001
1000
0010
0100
0010
0001
0010
0010
,
0010
0010
0010
0010
0010
0010
0000
0000
,
0000
1000
0000
0000
,
0000
0000
1000
0000
,
0000
0000
0000
0000
,
0000
0000
0000
1000
0000
0000
0000
0000
0000
0000
0000
0000
0001
0000
0100
0000
,
0100
0001
0010
0010
0001
1000
0000
1000
,
0001
0000
0100
0000
0001
0100
0001
0000
1000
0000
0100
0000
0010
0100
0010
0100
,
0010
0000
0001
0000
1000
0000
0001
1000
0001
0000
0100
0000
0100
0010
0000
0010
,
0000
0010
0100
0000
0001
0000
0001
1000
0100
0010
0001
1000
0000
0000
0000
0000
;

//---------------dance-double - Spork!----------------
#NOTES:
     dance-double:
     :
     Hard:
     9:
     0.565,0.551,0.273,0.102,0.120,314.000,24.000,9.000,0.000,0.000,0.000,0.565,0.551,0.273,0.102,0.120,314.000,24.000,9.000,0.000,0.000,0.000:
00000000
00000000
00000000
00000000
,
00000000
00000000
00000000
00000000
,
00000000
00000000
00000000
00000000
,
00000000
00000000
00000000
00000000
00000000
00000000
00001000
00010000
,
00001000
00010000
00000100
00001000
00000100
00001000
00000010
00000100
,
00000010
00000100
00000001
00000010
00001000
00001000
00010000
00001000
,
00010000
00001000
01000000
00010000
01000000
00010000
00100000
01000000
,
00100000
01000000
10000000
00000000
01010000
00000000
10000000
00100000
,
10000000
00100000
01000000
00001000
01000000
00001000
00010000
00000010
,
00010000
00000010
00001000
00000001
00000010
00000010
00000001
00000100
,
00000001
00000100
00000010
00010000
00000010
00010000
00001000
00100000
,
00001000
00000000
00100000
00000000
01000000
00000000
00000000
00000000
00100000
00000000
00100000
00000000
00010000
00000000
00000000
10000000
,
00000000
00000000
01000000
00000000
00000000
00000000
00010000
00000000
00001000
00000000
00010000
00000000
00000100
00000000
00000000
00000010
,
00000000
00000001
00000000
00000100
00001000
00010000
00001000
00100000
,
01000000
00000000
00000000
10000000
00000000
00000000
00010000
00000000
00000000
00000000
00010000
00000000
01000000
00000000
00000000
00001000
,
00000000
00000000
00010000
00000000
00000100
00000000
00010100
00000000
00000000
00000000
00101000
00000000
00010000
00000000
00001000
01000000
,
00000000
01000000
00010000
00000000
00000000
00000000
00100000
00000000
00000000
00000000
01000000
00000000
11000000
00000000
00000000
10010000
,
00000000
01010000
00000000
00100000
01000000
00010000
10000000
01000000
,
00010000
00010000
00001000
00000100
00000001
00000100
00002000
00000000
,
00023000
00000000
00000000
00000000
00030200
00000000
00000000
00000000
00000000
00000000
00000000
00000000
00001300
00000100
00000000
00000000
,
00000000
00000000
00000100
00000010
00000000
00000000
00000000
00000000
00001001
00000000
00000000
00000000
00000001
00000000
00000000
00000001
,
00000000
00000000
00000000
00000001
00000000
00000000
00000100
00000000
00000010
00000000
00010000
00000000
00001000
00000000
00100000
00000000
01000000
00000000
00000000
00000000
00000000
00011000
00000000
00000000
,
00000000
00001000
00000000
01001000
00000000
01000000
00000000
01100000
,
00000000
00100000
00000000
10010000
00000000
00011000
00000000
00010000
,
00000100
00000001
00000100
00001000
01000000
10000000
00000000
10000000
,
00100000
00010000
00000010
00000001
00000010
00001000
00000000
00011000
,
00000000
00010000
00000000
00010100
00000000
00000100
00000000
00000110
,
00000000
00000010
00000000
00000010
00000001
00001000
00000001
00000100
,
00001000
00000000
01000000
00000000
00010000
00000000
00100000
00000000
00001000
00000000
00010000
00000000
01000000
10000000
01000000
00000000
,
10000000
00010000
10000000
00010000
10000000
00000000
00000000
00000000
10010000
00000000
00000000
00000000
10000000
00000000
01000000
00000000
,
00100000
00000100
00010000
00001000
01000000
00001000
00010000
00000010
,
00010000
00000100
00100000
00000000
00001000
00020000
01000000
00030000
,
00010000
00002000
00000100
00003000
00001000
00100000
01000000
10000000
,
01000000
00100000
00010000
01000000
00001000
00010000
00000100
00000000
,
00001000
00000010
00000100
00000001
00000100
00001000
01000000
00000000
,
00010000
00100000
01000000
10000000
01000000
00010000
00000100
00010000
,
00001000
01000000
00100000
00010000
00000100
00000010
00001000
00010000
,
00000100
00000010
00000001
00000001
00000001
00000001
00001000
00000100
,
00000001
00000100
00010000
00001000
00100000
00100000
00010000
01000000
,
10000000
01000000
00001000
00010000
00000100
00000100
00001000
00000010
,
00000001
00000010
00010000
00001000
01000000
01000000
00010000
00100000
,
10000000
00100000
00001000
01000000
00010000
00010000
10000000
01000000
,
00010000
00000000
00000000
00001000
00000000
00000010
00000000
00000000
00000001
00000000
00001000
00000000
00000001
00000000
00000100
00000000
,
00001000
00000000
00000000
00010000
00000000
00100000
00000000
00000000
10000000
00000000
00010000
00000000
10000000
00000000
01000000
00000000
,
00100000
00001000
00010000
00000010
00001000
00000100
00000010
00000010
,
00000010
00000010
00000010
00000010
00000010
00000010
00000000
00000000
,
00000000
00000000
00000000
00000000
,
00000000
00000000
00000000
00000000
,
00000000
00000000
00000000
00000000
,
00000000
00000000
00000000
00000000
00000000
00000000
00011000
00001000
,
01000000
01010000
00010000
10000000
12000000
00000000
03100000
00001000
,
00010000
00000010
00000100
00000000
00001000
00000000
00011000
00010000
,
00000100
00001100
00001000
00000001
00000201
00000000
00000300
00000120
,
00000000
00000030
00002010
00000000
00000000
00000000
00003000
00000000
;

//---------------dance-single - Spork!----------------
#NOTES:
     dance-single:
     :
     Medium:
     6:
     0.350,0.459,0.159,0.239,0.006,180.000,14.000,21.000,0.000,0.000,0.000,0.350,0.459,0.159,0.239,0.006,180.000,14.000,21.000,0.000,0.000,0.000:
0000
0000
0000
0000
,
0000
0000
0000
0000
,
0000
0000
0000
0000
,
0000
0000
0000
1010
,
0000
0010
0000
0000
0100
0000
0000
0100
,
0000
0001
0001
1100
,
0000
1000
0000
0000
0001
0000
0000
0001
,
0000
0010
0001
0101
,
0000
0100
0000
0000
0010
0000
0000
0010
,
0000
1000
1000
0011
,
0000
0001
0000
0000
1000
0000
0000
1000
,
0000
0000
0100
0000
1000
1000
0001
0000
,
0010
0000
0010
0001
0100
0000
0010
0000
,
1000
0000
1000
0001
0000
0001
0100
0000
,
0010
0000
0010
0100
0010
0100
0001
0000
,
0001
1000
0100
0000
0010
0000
0100
0000
,
1000
0000
1000
0010
1000
0010
0100
0000
,
0001
0000
0001
0010
0001
0010
0100
0000
,
0010
0001
1000
0020
,
2030
0000
3200
0000
0000
0300
1100
0000
,
0000
0000
0101
0000
0000
0000
0000
0000
0110
0000
0000
0000
0001
0000
0000
0001
,
0000
0001
1000
0100
1000
0001
0000
1001
,
0000
1000
0000
1000
0000
0001
0000
0010
,
0000
0100
0000
0110
0000
0010
0000
0200
,
0000
0000
0000
0000
0000
0300
0000
0020
,
0000
0000
0000
0000
0000
0030
0000
0001
,
0000
0001
0000
0001
0000
1000
0000
0010
,
0000
0100
0000
0110
0000
0100
0001
1000
,
0001
0010
0001
1000
0001
0010
0100
0000
,
0010
0110
1001
1000
,
0100
0000
0100
1000
0010
0000
0100
0000
,
0100
0001
1000
0000
0000
0000
0101
0000
,
0000
1100
0100
0010
,
0001
0000
1000
0000
1000
0000
0001
0100
,
0001
0100
0001
0100
0001
0001
1000
0100
,
1000
0100
1000
0100
1000
1000
0000
0001
,
0000
0001
0000
1000
0000
1000
0000
0100
,
0000
0100
0010
0000
0010
0000
0002
0000
,
0000
0000
0000
0000
0013
0001
0020
0000
,
0000
0230
0000
0000
1000
0000
2300
0000
,
0000
0000
0000
0000
3010
1000
0020
0000
,
0000
0230
0000
0000
0001
0000
0302
0000
,
0000
0000
0000
0000
1003
0001
2000
0000
,
0000
3200
0000
0000
0010
0000
0320
0000
,
0000
0000
0000
0200
,
0000
0000
0000
0000
0000
0330
0000
0000
,
0000
0000
0000
0000
,
0000
0000
0000
0000
,
0000
0000
0000
0000
,
0000
0000
0000
1000
,
0010
1000
0000
1000
0200
0000
0000
0320
,
0000
0031
1000
0001
,
0100
0001
0000
0001
0020
0000
0000
0230
,
0000
2300
0000
3000
;

//---------------dance-single - Spork!----------------
#NOTES:
     dance-single:
     :
     Easy:
     5:
     0.332,0.337,0.114,0.410,0.000,158.000,10.000,36.000,0.000,0.000,0.000,0.332,0.337,0.114,0.410,0.000,158.000,10.000,36.000,0.000,0.000,0.000:
0000
0000
0000
0000
,
0000
0000
0000
0000
,
0000
0000
0000
0000
,
0000
0000
0000
0002
,
0000
0023
0000
0000
0230
0000
0000
2300
,
0000
3001
1000
2000
,
0000
3020
0000
0000
0230
0000
0000
0302
,
0000
1003
0001
2000
,
0000
3200
0000
0000
0320
0000
0000
0032
,
0000
1003
0001
0002
,
0000
0203
0000
0000
0320
0000
0000
2030
,
0000
3001
1001
0001
,
0010
1000
0010
0001
,
0100
1000
0100
0001
,
1000
0010
0001
0010
,
0100
0000
0100
0001
0000
0001
1000
0000
,
0100
0001
0100
1000
,
0010
0001
0010
1000
,
0001
0010
1000
0020
,
0032
0203
0000
0310
,
0000
0010
0000
0000
1001
0000
1000
0000
,
1000
0000
0001
0001
1000
1000
0000
1001
,
0000
0010
0000
0001
0000
0100
0000
0010
,
0000
0010
0000
1000
0000
0100
0000
0020
,
0000
0000
0000
0000
0000
0030
0000
0200
,
0000
0000
0000
0000
0000
0300
0000
1001
,
0000
0100
0000
1000
0000
0010
0000
0100
,
0000
0100
0000
0001
0000
0000
0001
0000
,
0001
1000
1000
0001
,
1000
1001
1001
1000
,
0100
1100
0100
0010
,
0001
0101
0000
0210
,
0000
0300
0120
0000
0000
0030
1000
0000
,
1000
0100
0010
0002
,
0000
0013
0001
2000
,
0000
3010
0010
0200
,
0000
0301
1000
0200
,
0000
0310
0010
0001
,
1000
1000
0001
0100
,
0000
0010
0000
0000
0010
0000
1000
0000
,
0001
0001
1000
0100
,
0000
0010
0000
0000
0010
0000
0001
0000
,
0100
0100
0001
1000
,
0100
0100
0010
0001
,
0100
0000
0010
0000
1000
0000
1000
0100
,
1000
0000
0001
0000
0001
0001
0000
0000
,
0000
0000
0000
0000
,
0000
0000
0000
0000
,
0000
0000
0000
0000
,
0000
0000
0000
0002
,
0000
0023
0000
0000
0032
0000
0000
0203
,
0000
0310
0010
2000
,
0000
3200
0000
0000
2300
0000
0000
3020
,
0000
0230
0000
0300
;

//---------------dance-double - Spork!----------------
#NOTES:
     dance-double:
     :
     Medium:
     6:
     0.350,0.398,0.125,0.296,0.034,178.000,11.000,26.000,0.000,0.000,0.000,0.350,0.398,0.125,0.296,0.034,178.000,11.000,26.000,0.000,0.000,0.000:
00000000
00000000
00000000
00000000
,
00000000
00000000
00000000
00000000
,
00000000
00000000
00000000
00000000
,
00000000
00000000
00000000
00000000
00000000
00000000
00000100
00000001
,
00000000
00000001
00000000
00000001
00001000
00000100
00000000
00000100
,
00000000
00000100
00000010
00000000
00000010
00000000
00000100
00010000
,
00000000
00010000
00000000
00010000
00001000
01000000
00000000
01000000
,
00000000
01000000
00100000
01000000
00100000
00000000
10000000
01000000
,
00000000
01000000
00000000
01000000
00100000
00001000
00000000
00001000
,
00000000
00001000
01000000
00000000
00001000
00000000
00010000
00000010
,
00000000
00000010
00000000
00000010
00001000
00000100
00000000
00000100
,
00000000
00000100
00000010
00000000
00000001
00000000
00002001
00000000
,
00000000
00000000
00003000
00000010
00000000
00000010
00000200
00000000
,
00000000
00000000
00000300
00000001
00000000
00000001
00000020
00000000
,
00000000
00000000
00000000
00000000
00000030
00000000
00000000
00000100
00000000
00000000
00000100
00000000
00010000
00000000
00000000
00001000
,
00000000
00001000
01000000
00000000
00000000
00000000
10020000
00000000
,
00000000
00000000
00030000
00100000
00000000
00100000
02000000
00000000
,
00000000
00000000
03000000
00000000
10000000
01000000
00100000
00000000
,
00001000
00010000
00000010
00002000
,
00003200
00000000
00000320
00000000
00000000
00000030
00001100
00000000
,
00000000
00000000
00000101
00000000
00000000
00000000
00000000
00000000
00001001
00000000
00000000
00000000
00000001
00000000
00000000
00000001
,
00000000
00000001
00000200
00000000
00000020
00000000
00000330
00001001
,
00000000
00000001
00000000
00001000
00000000
00010000
00000000
00001000
,
00000000
00000001
00000000
00000001
00000000
00001000
00000000
00020000
,
00000000
00000000
00000000
00000000
00000000
00030000
00000000
00002000
,
00000000
00000000
00000000
00000000
00000000
00003000
00000000
10010000
,
00000000
10000000
00000000
00010000
00000000
00001000
00000000
00010000
,
00000000
10000000
00000000
10000000
00000000
00010000
01000000
00000000
,
00100000
00010000
00001000
00000010
,
00000100
00011000
00001001
00001000
,
00000010
00000000
00000100
00000000
00000100
00000001
00000010
00000000
,
00000010
00000100
00001000
00000000
00000000
00000001
00000100
00000000
,
00000000
00000000
00000100
00000000
00001000
00000000
00000000
00000000
00010000
00000000
00000000
00000000
00001000
00000000
00000000
00001000
,
00000000
00100000
00000000
01000000
00100000
00010000
10000000
00000000
,
00000000
00000000
10000000
00000000
01000000
00000000
00000000
00100000
00000000
00000000
00100000
00000000
00001000
00000000
00000000
00000000
,
00000000
00000000
00000000
00000000
00001000
00000000
00000000
00010000
00000000
00000000
00000010
00000000
00000200
00000000
00000000
00000000
,
00000000
00000000
00000000
00000010
00000300
00000010
00000100
00000000
,
00000000
00001010
00000011
00000001
,
00000010
00000000
00000100
00000000
00000100
00010000
00002000
00000000
,
00000000
00003200
00000000
00000000
00002300
00000000
00013000
00000000
,
00001000
00000000
01000000
00000000
01000000
00001000
00020000
00000000
,
00000000
00230000
00000000
00000000
00320000
00000000
00031000
00000000
,
00100000
00000000
01000000
00000000
10000000
10000000
01000000
00000000
,
00010000
00001000
00000100
00000002
,
00000000
00000000
00000000
00002000
,
00000000
00000000
00000000
00000000
00000000
00003003
00000000
00000000
,
00000000
00000000
00000000
00000000
,
00000000
00000000
00000000
00000000
,
00000000
00000000
00000000
00000000
,
00000000
00000000
00000000
10000000
,
10000000
01000000
00000000
01000000
00200000
00000000
00000000
00302000
,
00000000
00013000
00010000
00000001
,
00000001
00000100
00000000
00000100
00000020
00000000
00000000
00020030
,
00000000
00032000
00000000
00003000
;
