#TITLE:綿帽子;
#SUBTITLE:;
#ARTIST:Shohei Tsuchiya;
#TITLETRANSLIT:Wataboshi;
#SUBTITLETRANSLIT:;
#ARTISTTRANSLIT:;
#GENRE:;
#CREDIT:;
#BANNER:;
#BACKGROUND:;
#LYRICSPATH:;
#CDTITLE:;
#MUSIC:music.mp3;
#OFFSET:-0.059999;
#SAMPLESTART:36.119999;
#SAMPLELENGTH:19.200001;
#SELECTABLE:YES;
#BPMS:0.000000=100.000000
;
#STOPS:
;
#BGCHANGES:;
#KEYSOUNDS:;
#ATTACKS:;

//---------------dance-single - ----------------
#NOTES:
     dance-single:
     :
     Hard:
     6:
     0.382895,0.349877,0.316656,0.022618,0.124401,207.000000,28.000000,2.000000,0.000000,0.000000,0.000000,0.382895,0.349877,0.316656,0.022618,0.124401,207.000000,28.000000,2.000000,0.000000,0.000000,0.000000:
// measure 0
0000
0000
0000
0000
,  // measure 1
0000
0000
0000
0000
,  // measure 2
0000
0000
0000
0000
,  // measure 3
0000
0000
0000
0000
,  // measure 4
0001
0000
1000
0000
0100
0000
0011
0100
,  // measure 5
0001
0000
0010
0000
0101
0100
1000
0000
,  // measure 6
0002
0000
0000
0003
,  // measure 7
0100
0000
1000
0000
0100
0000
1000
0000
0000
0010
0000
0000
0100
0000
0000
0001
0000
0000
0011
0000
0000
0000
0000
0000
,  // measure 8
0010
0100
1000
0010
0100
0001
0101
0000
,  // measure 9
0100
0010
1010
1000
0001
0010
0110
0000
,  // measure 10
0100
1000
1100
1000
0001
0100
0110
0000
,  // measure 11
0010
1000
1001
0001
0010
0100
1100
0000
,  // measure 12
1000
0001
0101
0001
1000
0100
0110
0000
,  // measure 13
0010
0001
0101
0100
1000
0100
0101
0000
,  // measure 14
0001
0010
1010
0001
0100
1000
1010
0000
,  // measure 15
0010
1000
1100
0100
0010
0100
1100
0000
,  // measure 16
1000
0001
0101
0100
0010
1000
1001
0000
,  // measure 17
0001
0010
0110
0010
0001
1000
1010
0000
,  // measure 18
0010
0100
0101
0001
1000
0100
1100
0000
,  // measure 19
1000
0100
0010
0010
0100
1000
1001
0000
,  // measure 20
0001
0100
0010
0010
0100
1000
1100
0000
,  // measure 21
0100
0001
0010
0100
1000
0001
0100
0000
,  // measure 22
0010
1000
1100
1000
0001
0100
0010
0000
,  // measure 23
1000
0000
0100
0000
1000
0100
0000
0000
1000
0000
0001
0000
1000
0001
0000
0000
,  // measure 24
0010
0000
0001
0000
0010
0001
0000
0000
0100
0000
0010
0000
0100
0010
0000
0000
,  // measure 25
1000
0000
0100
0000
1000
0100
0000
0000
1000
0000
0010
0000
1000
0010
0000
0000
,  // measure 26
0100
0000
0001
0000
0100
0001
0000
0000
0010
0000
0001
0000
0010
0000
0000
0000
,  // measure 27
0001
0000
0100
0000
0010
1000
0000
0000
0001
0000
0010
0000
0100
1000
0000
0000
,  // measure 28
0001
0000
0100
0000
1000
0100
0000
0000
0010
0000
1000
0000
0001
0010
0000
0000
,  // measure 29
0100
0000
1000
0000
0010
0100
0000
0000
0001
0000
0010
0000
0100
0010
0000
0000
,  // measure 30
0001
0100
1000
0001
0010
1000
1002
0000
,  // measure 31
0013
0000
0000
0000
0000
0000
0100
1000
0000
0100
1000
0100
0000
0000
0000
0000
,  // measure 32
0010
0000
0000
0000
0000
0000
0001
0010
0001
1000
0100
0000
1000
0000
0000
0000
,  // measure 33
0010
0000
0000
0000
0000
0000
0100
0010
0000
0000
0000
0000
0000
0000
0000
0000
,  // measure 34
1000
0000
0001
0100
0001
0000
1000
0000
0000
0000
0000
0000
0000
0000
0000
0000
;

//---------------dance-single - ----------------
#NOTES:
     dance-single:
     :
     Medium:
     4:
     0.227799,0.233251,0.000000,0.011309,0.000000,140.000000,0.000000,1.000000,0.000000,0.000000,0.000000,0.227799,0.233251,0.000000,0.011309,0.000000,140.000000,0.000000,1.000000,0.000000,0.000000,0.000000:
0000
0000
0000
0000
,
0000
0000
0000
0000
,
0000
0000
0000
0000
,
0000
0000
0000
0000
,
1000
0100
1000
0000
,
0001
0100
0001
0000
,
0020
0000
0000
0030
,
0100
0000
1000
0000
0010
0100
0010
0000
,
1000
0000
0100
0000
0010
0001
0010
0000
,
0100
0000
1000
0000
0001
0100
0001
0000
,
0100
0000
0010
0000
1000
0010
1000
0000
,
0001
0000
0010
0000
0100
1000
0100
0000
,
0010
0000
0001
0000
1000
0010
1000
0000
,
0001
0000
0010
0000
0100
1000
0100
0000
,
0010
0000
0001
0000
1000
0010
1000
0000
,
0010
0000
0100
0000
0001
0010
1000
0000
,
0001
0000
0100
0000
0010
0001
0100
0000
,
0010
0000
1000
0000
0001
0100
1000
0000
,
0100
0000
0001
0000
0010
0100
1000
0000
,
0010
0000
0100
0000
0001
1000
0100
0000
,
1000
0000
0010
0000
0100
0001
0010
0000
,
0100
0000
1000
0000
0010
0100
0010
0000
,
1000
0000
0100
0000
0010
0100
0010
0000
,
0001
0000
0010
0000
0001
0010
0001
0010
,
0001
0000
1000
0000
0100
1000
0100
1000
,
0100
0000
1000
0000
0010
0100
0010
0100
,
0010
1000
0001
0010
,
0100
0000
1000
0000
0001
0100
0010
0100
,
0001
0000
0010
0000
0100
1000
0010
1000
,
0100
0000
0010
0000
0001
1000
0010
1000
,
0001
0000
0100
0000
0001
1000
0100
0000
,
0010
0000
0000
0001
0000
0000
0000
0000
,
0001
0000
0000
1000
0000
0000
0000
0000
,
0010
0000
0000
0100
0000
0000
0000
0000
,
0001
0000
0000
1000
0000
0000
0000
0000
;

//---------------dance-single - ----------------
#NOTES:
     dance-single:
     :
     Easy:
     2:
     0.121169,0.116626,0.000000,0.045237,0.000000,71.000000,0.000000,4.000000,0.000000,0.000000,0.000000,0.121169,0.116626,0.000000,0.045237,0.000000,71.000000,0.000000,4.000000,0.000000,0.000000,0.000000:
0000
0000
0000
0000
,
0000
0000
0000
0000
,
0000
0000
0000
0000
,
0000
0000
0000
0000
,
0100
0000
0010
0000
,
1000
0000
0001
0000
,
0000
0000
0000
0000
,
0100
0000
1000
0000
,
0001
0100
0001
0000
,
0010
0000
0100
0000
,
1000
0001
1000
0000
,
0100
0000
0010
0000
,
0001
1000
0001
0000
,
0010
0000
0001
0000
,
1000
0100
1000
0000
,
0010
0000
0100
0001
,
1000
0100
0010
0000
,
0001
0000
0100
0010
,
0100
0000
0010
0000
,
1000
0000
0100
0001
,
0100
0010
0001
0000
,
1000
0000
0010
0100
,
0001
1000
0100
0000
,
0010
0000
0001
0000
,
0010
0000
0001
0000
,
1000
0000
0100
0000
,
1000
0010
0001
0100
,
1000
0000
0010
0000
,
1000
0000
0001
0000
,
0100
0000
0001
0000
,
0010
1000
0100
0001
,
0020
0000
0000
0030
0000
0000
0000
0000
,
0200
0000
0000
0300
0000
0000
0000
0000
,
2000
0000
0000
3000
0000
0000
0000
0000
,
0002
0000
0000
0003
0000
0000
0000
0000
;

//---------------dance-single - ----------------
#NOTES:
     dance-single:
     :
     Beginner:
     1:
     0.054930,0.057677,0.000000,0.000000,0.000000,34.000000,0.000000,0.000000,0.000000,0.000000,0.000000,0.054930,0.057677,0.000000,0.000000,0.000000,34.000000,0.000000,0.000000,0.000000,0.000000,0.000000:
0000
0000
0000
0000
,
0000
0000
0000
0000
,
0000
0000
0000
0000
,
0000
0000
0000
0000
,
1000
0000
0000
0000
,
0010
0000
0000
0000
,
0000
0000
0000
0000
,
0100
0000
0000
0000
,
0001
0000
0000
0000
,
0010
0000
0000
0000
,
0100
0000
0000
0000
,
1000
0000
0000
0000
,
0010
0000
0000
0000
,
0100
0000
0000
0000
,
0001
0000
0000
0000
,
0010
0000
0000
0000
,
0100
0000
0000
0000
,
1000
0000
0000
0000
,
0010
0000
0000
0000
,
1000
0000
0000
0000
,
0001
0000
0000
0000
,
0010
0000
0000
0000
,
0100
0000
0000
0000
,
1000
0000
1000
0000
,
1000
0000
0000
0000
,
0001
0000
0001
0000
,
0001
0000
0000
0000
,
0100
0000
0100
0000
,
0100
0000
0000
0000
,
0010
0000
0010
0000
,
0010
0000
0000
0000
,
1000
0000
0000
0000
,
0100
0000
0000
0000
,
0010
0000
0000
0000
,
0001
0000
0000
0000
;

//---------------dance-double - ----------------
#NOTES:
     dance-double:
     :
     Hard:
     5:
     0.284344,0.272126,0.011309,0.000000,0.011309,175.000000,1.000000,0.000000,0.000000,0.000000,0.000000,0.284344,0.272126,0.011309,0.000000,0.011309,175.000000,1.000000,0.000000,0.000000,0.000000,0.000000:
00000000
00000000
00000000
00000000
,
00000000
00000000
00000000
00000000
,
00000000
00000000
00000000
00000000
,
00000000
00000000
00000000
00000000
,
00100000
10000000
01000000
01000000
,
00100000
00010000
01000000
00100000
,
00000000
00000000
00000000
00000000
,
01000000
00000000
10000000
00000000
01000000
00000000
10000000
00000000
00000000
00100000
00000000
00000000
01000000
00000000
00000000
00010000
00000000
00000000
00100000
00000000
00000000
00000000
00000000
00000000
,
00100000
00001000
00010000
00001000
00100000
00001000
00010000
00000000
,
00000100
00010000
00000010
00010000
00000100
00001000
00000100
00000000
,
00010000
00001000
00010000
00000010
00001000
00000100
00000010
00000000
,
00000100
00000010
00000001
00000100
00000010
00000100
00000001
00000000
,
00001000
00000100
00001000
00000010
00001000
00000001
00000100
00000000
,
00000010
00001000
00000100
00010000
00000100
00010000
00001000
00000000
,
00001000
00010000
00001000
00100000
00010000
00100000
00001000
00000000
,
00100000
00001000
00010000
00000100
00010000
00001000
00100000
00000000
,
00010000
00100000
01000000
10000000
00100000
01000000
00010000
00000000
,
00010000
10000000
01000000
00100000
00010000
01000000
00100000
00000000
,
10000000
01000000
00010000
01000000
00100000
00010000
01000000
00000000
,
00001000
00010000
00001000
01000000
00010000
00100000
00010000
00000000
,
01000000
00001000
00010000
00000010
00001000
00000010
00001000
00000000
,
00000100
00010000
00001000
00010000
00000010
00001000
00000001
00000000
,
00000001
00000010
00000100
00001000
00000001
00000100
00000010
00000000
,
00001000
00000100
00000010
00000000
00000010
00000100
00001000
00000000
,
00001000
00000100
00010000
00000000
00010000
00000100
00001000
00000000
,
00001000
00000100
00010000
00000000
00001000
00100000
00001000
00000000
,
00010000
00100000
00010000
00000000
00001000
00000000
00100000
00000000
,
00010000
01000000
00100000
00000000
10000000
01000000
00100000
00000000
,
01000000
10000000
00100000
00000000
01000000
00010000
00100000
00000000
,
00001000
00010000
00000010
00000000
00010000
00001000
00010000
00000000
,
00000100
00001000
00000010
00000000
00000100
00000000
00001001
00000000
,
00000001
00000000
00000000
00000010
00000000
00000000
00000000
00000000
,
00000100
00000000
00000000
00010000
00000000
00000000
00000000
00000000
,
00001000
00000000
00000000
01000000
00000000
00000000
00000000
00000000
,
00100000
00000000
00000000
10000000
00000000
00000000
00000000
00000000
;

//---------------dance-double - ----------------
#NOTES:
     dance-double:
     :
     Medium:
     4:
     0.200333,0.233251,0.000000,0.000000,0.000000,124.000000,0.000000,0.000000,0.000000,0.000000,0.000000,0.200333,0.233251,0.000000,0.000000,0.000000,124.000000,0.000000,0.000000,0.000000,0.000000,0.000000:
00000000
00000000
00000000
00000000
,
00000000
00000000
00000000
00000000
,
00000000
00000000
00000000
00000000
,
00000000
00000000
00000000
00000000
,
00010000
01000000
00100000
00000000
,
01000000
00010000
10000000
00000000
,
00000000
00000000
00000000
00000000
,
10000000
00000000
01000000
00000000
00100000
00010000
01000000
00000000
,
00100000
01000000
00010000
00000000
,
00100000
00000000
00001000
00000000
01000000
00001000
00100000
00000000
,
00001000
00010000
00000010
00000000
,
00001000
00000000
00000100
00000000
00000010
00000100
00001000
00000000
,
00000010
00000100
00000001
00000000
,
00000010
00000000
00000100
00000000
00001000
00000010
00010000
00000000
,
00000010
00010000
00001000
00000000
,
00100000
00000000
00010000
01000000
00000000
01000000
00100000
00000000
,
10000000
01000000
00100000
00010000
,
10000000
00000000
00100000
01000000
00000000
01000000
00001000
00000000
,
00010000
00000010
00010000
00000100
,
00001000
00000000
00000010
00000100
00000000
00000100
00000001
00000000
,
00000010
00000100
00001000
00000001
,
00000100
00000000
00001000
00010000
00000000
00010000
00001000
00000000
,
00100000
00010000
01000000
00100000
,
10000000
01000000
10000000
00000000
01000000
00000000
00100000
00000000
,
01000000
00010000
01000000
00000000
00100000
00000000
00010000
00000000
,
01000000
00001000
01000000
00000000
00001000
00000000
00010000
00000000
,
00000010
00010000
00000010
00000000
00001000
00000000
00000100
00000000
,
00000010
00000001
00000010
00000000
00000100
00001000
00000100
00000000
,
00010000
00001000
00010000
00000000
00001000
00100000
00001000
00000000
,
00100000
00010000
00100000
00000000
01000000
10000000
01000000
00000000
,
10000000
00100000
01000000
00010000
,
00100000
00000000
00000000
00010000
00000000
00000000
00000000
00000000
,
10000000
00000000
00000000
01000000
00000000
00000000
00000000
00000000
,
00100000
00000000
00000000
00001000
00000000
00000000
00000000
00000000
,
00010000
00000000
00000000
00000100
00000000
00000000
00000000
00000000
;

//---------------dance-double - ----------------
#NOTES:
     dance-double:
     :
     Easy:
     2:
     0.130863,0.116626,0.000000,0.045237,0.000000,77.000000,0.000000,4.000000,0.000000,0.000000,0.000000,0.130863,0.116626,0.000000,0.045237,0.000000,77.000000,0.000000,4.000000,0.000000,0.000000,0.000000:
00000000
00000000
00000000
00000000
,
00000000
00000000
00000000
00000000
,
00000000
00000000
00000000
00000000
,
00000000
00000000
00000000
00000000
,
01000000
00000000
10000000
00000000
,
00010000
00000000
01000000
00000000
,
00000000
00000000
00000000
00000000
,
00001000
00100000
00010000
00000000
,
00100000
00001000
00010000
00000000
,
00000010
00001000
00000001
00000000
,
00000010
00000100
00001000
00000000
,
00000010
00010000
00001000
00000000
,
01000000
00100000
10000000
00000000
,
00010000
00100000
01000000
00000000
,
10000000
00010000
01000000
00000000
,
00001000
00100000
00001000
00000000
,
00010000
00000010
00010000
00000000
,
00000100
00001000
00000100
00000000
,
00000010
00000001
00000010
00000000
,
00000100
00001000
00000010
00000000
,
00010000
00001000
00100000
00000000
,
00010000
01000000
10000000
00000000
,
01000000
00001000
00100000
00000000
,
00010000
00000000
01000000
00000000
,
00001000
00000000
00010000
00000000
,
00000010
00000000
00001000
00000000
,
00000001
00000100
00000010
00001000
,
00000001
00000000
00000010
00000000
,
00000100
00000000
00010000
00000000
,
00001000
00000000
01000000
00000000
,
00100000
10000000
01000000
00100000
,
00020000
00000000
00000000
00030000
00000000
00000000
00000000
00000000
,
02000000
00000000
00000000
03000000
00000000
00000000
00000000
00000000
,
00002000
00000000
00000000
00003000
00000000
00000000
00000000
00000000
,
00020000
00000000
00000000
00031000
00000000
00000000
00000000
00000000
;
