#TITLE:笑;
#SUBTITLE:;
#ARTIST:笹川美和;
#TITLETRANSLIT:Warai;
#SUBTITLETRANSLIT:;
#ARTISTTRANSLIT:Sasagawa Miwa;
#CREDIT:;
#BANNER:waraibn.png;
#BACKGROUND:waraibg.png;
#LYRICSPATH:;
#CDTITLE:cd.png;
#MUSIC:Warai.mp3;
#OFFSET:-2.165;
#SAMPLESTART:23.580;
#SAMPLELENGTH:21.300;
#SELECTABLE:YES;
#DISPLAYBPM:90.000;
#BPMS:0.000=89.740;
#STOPS:;
#BGCHANGES:;

//---------------dance-single - ----------------
#NOTES:
     dance-single:
     :
     Hard:
     6:
     0.384,0.379,0.328,0.361,0.229:
0000
0000
0000
0000
,
0000
0000
0000
0000
,
0000
0000
0000
0000
,
0000
0000
0000
0000
,
1000
0000
0000
1000
0001
0000
0100
0000
0001
0000
0000
0001
1000
0000
0100
0000
,
0010
0000
0000
0010
0100
0000
1000
0000
0001
0000
0000
0001
1000
0000
0010
0000
,
0100
0000
0000
0100
0001
0000
1000
0000
0100
0000
0000
0100
0010
0000
0001
0000
,
1000
0000
0000
1000
0010
0000
0100
0000
0001
0000
0000
0000
0000
0000
0000
0000
,
2000
0000
0000
0000
3100
0000
0010
0000
0001
1000
0000
0000
1001
0000
0000
0000
,
0001
0000
1000
0000
0100
0010
0000
0000
0110
0000
0000
0000
1001
0000
0000
0001
,
0020
0000
0000
0000
0130
0000
1000
0000
0001
0100
0000
0000
0110
0000
0000
0000
,
0010
0000
1000
0000
0001
0010
0000
0000
0022
0000
0000
0000
0033
0000
0000
0000
,
1002
0000
0000
0000
1003
0000
0100
0000
0010
0001
0000
0000
0101
0000
0000
0000
,
0100
0000
0010
0000
1000
0001
0000
0000
0011
0000
0000
0000
1100
0000
0000
0100
,
2000
0000
0000
0000
3010
0000
0100
0000
0001
1000
0000
0000
1100
0000
0000
0000
,
0100
0000
0010
0000
0001
1000
0000
0000
2020
0000
0000
0000
3030
0000
0000
0000
,
0202
0000
0303
0100
0001
1000
0100
2000
,
0000
3001
0000
0200
0000
0000
0301
0000
1000
0000
0100
0000
0010
0001
0000
0000
,
2002
0000
3003
1000
0001
0010
0100
0020
,
0000
0130
0000
2000
0000
0000
3001
0100
0001
0000
1000
0000
0010
0100
0000
0000
,
0220
0000
0330
0010
1000
0001
0010
0002
,
0000
1003
0000
0200
0000
0000
0310
0001
0010
0000
0100
0000
1000
0001
0000
0000
,
0022
0000
0033
0010
0001
1000
0010
2000
,
0000
3001
0000
0100
0000
0001
1000
0000
0100
0000
0010
0000
0001
1000
0000
0000
,
2002
0000
3003
0110
,
1002
0000
0000
0000
1003
0000
0010
0000
0100
0001
0000
0000
1001
0000
0000
0000
,
1000
0000
0001
0000
0100
0010
0000
0000
0110
0000
0000
0000
1001
0000
0000
0001
,
0020
0000
0000
0000
0130
0000
1000
0000
0100
0010
0000
0000
0011
0000
0000
0000
,
0001
0000
1000
0000
0001
0100
0000
0000
0220
0000
0000
0000
0330
0000
0000
0000
,
1020
0000
0000
0000
1030
0000
0001
0000
1000
0100
0000
0000
0110
0000
0000
0000
,
0010
0000
0001
0000
0100
0010
0000
0000
0110
0000
0000
0000
1001
0000
0000
1000
,
0200
0000
0000
0000
1300
0000
0001
0000
0100
0010
0000
0000
1010
0000
0000
0000
,
1000
0000
0001
0000
0010
0100
0000
0000
2200
0000
0000
0000
3300
0000
0000
0000
,
1001
0000
0000
0000
;

//---------------dance-single - ----------------
#NOTES:
     dance-single:
     :
     Medium:
     4:
     0.314,0.289,0.328,0.284,0.044:
0000
0000
0000
0000
,
0000
0000
0000
0000
,
0000
0000
0000
0000
,
0000
0000
0000
0000
,
1000
0000
1000
0100
0010
0000
0010
0100
,
1000
0000
1000
0001
0100
0000
0100
0001
,
1000
0000
1000
0100
0010
0000
0010
0001
,
1000
0000
1000
0001
0100
0000
0000
0000
,
0002
0000
1003
0010
0100
0000
0110
0000
,
0010
1000
0001
0000
1001
0000
1001
0000
,
2000
0000
3010
0100
0001
0000
1001
0000
,
1000
0010
0100
0000
0220
0000
0330
0000
,
1002
0000
1003
0010
0100
0000
0110
0000
,
0010
0100
0001
0000
1001
0000
1001
0000
,
2000
0000
3001
0100
0010
0000
0110
0000
,
0100
0010
1000
0000
2002
0000
3003
0000
,
0220
0000
0330
0000
0001
1000
0001
1000
,
0000
0100
0000
0010
0000
0000
0001
0000
0100
0000
0010
0000
1000
0000
0000
0000
,
2002
0000
3003
0000
1000
0010
1000
0010
,
0000
0100
0000
0001
0000
0000
1000
0000
0100
0000
0010
0000
0001
0000
0000
0000
,
2002
0000
3003
0000
1000
0001
1000
0001
,
0000
0010
0000
0100
0000
0000
1000
0000
0001
0000
0100
0000
0010
0000
0000
0000
,
0220
0000
0330
0000
0100
0001
0100
0001
,
0000
0010
0000
0100
0000
0000
1000
0000
0010
0000
0100
0000
0001
0000
0000
0000
,
2002
0000
3003
0110
,
1002
0000
1003
0100
0010
0000
0110
0000
,
0100
1000
0010
0000
0110
0000
0110
0000
,
0200
0000
0310
1000
0001
0000
1001
0000
,
1000
0010
0100
0000
0220
0000
0330
0000
,
1002
0000
1003
0100
0010
0000
0110
0000
,
0100
0010
0001
0000
1001
0000
1001
0000
,
2000
0000
3010
0100
0001
0000
1001
0000
,
1000
0100
0010
0000
0220
0000
0330
0000
,
1001
0000
0000
0000
;

//---------------dance-single - ----------------
#NOTES:
     dance-single:
     :
     Easy:
     2:
     0.225,0.252,0.229,0.240,0.000: // measure 1
0000
0000
0000
0000
,  // measure 2
0000
0000
0000
0000
,  // measure 3
0000
0000
0000
0000
,  // measure 4
0000
0000
0000
0000
,  // measure 5
1000
1000
0010
0010
,  // measure 6
0100
0100
0100
0001
,  // measure 7
1000
1000
0100
0100
,  // measure 8
0010
0010
0010
0000
,  // measure 9
0220
0330
2002
3003
,  // measure 10
1000
0001
0200
0300
,  // measure 11
0220
0330
2002
3003
,  // measure 12
0001
1000
0020
0030
,  // measure 13
0110
0100
0001
1000
,  // measure 14
0100
0010
0110
0110
,  // measure 15
0100
1000
0001
1001
,  // measure 16
1000
0100
0220
0330
,  // measure 17
2002
3003
0001
0100
,  // measure 18
0001
1000
0100
1000
,  // measure 19
0002
0003
1000
0010
,  // measure 20
1000
0001
0010
0001
,  // measure 21
2000
3000
0010
0100
,  // measure 22
0010
1000
0001
1000
,  // measure 23
0200
0300
0010
0001
,  // measure 24
0010
0100
1000
0100
,  // measure 25
0020
0000
0030
0001
,  // measure 26
1001
1000
0010
0100
,  // measure 27
0001
1000
1001
1001
,  // measure 28
0001
0010
0100
0110
,  // measure 29
0010
0001
2002
3003
,  // measure 30
1001
1000
0100
0010
,  // measure 31
0001
1000
1001
1001
,  // measure 32
0001
0100
0010
0110
,  // measure 33
0100
0001
2002
3003
,  // measure 34
1001
0000
0000
0000
;

//---------------dance-single - ----------------
#NOTES:
     dance-single:
     :
     Beginner:
     1:
     0.130,0.162,0.131,0.000,0.000:
0000
0000
0000
0000
,
0000
0000
0000
0000
,
0000
0000
0000
0000
,
0000
0000
0000
0000
,
1000
0000
1000
0000
,
1000
1000
1000
0000
,
0001
0000
0001
0000
,
0001
0001
0001
0000
,
0100
0000
0100
0000
,
0100
0100
0100
0000
,
0010
0000
0010
0000
,
0010
0010
0010
0000
,
1001
0000
1001
0000
,
1000
1000
1000
0000
,
0110
0000
0110
0000
,
0100
0100
0100
0000
,
0000
0000
0001
0000
,
0001
0000
0001
0001
,
0001
0000
1000
0000
,
1000
0000
1000
1000
,
1000
0000
0010
0000
,
0010
0000
0010
0010
,
0010
0000
0100
0000
,
0100
0000
0100
0100
,
0100
0000
0000
0000
,
1001
0000
1001
0000
,
0001
0001
0001
0000
,
0110
0000
0110
0000
,
0010
0010
0010
0000
,
1001
0000
1001
0000
,
1000
1000
1000
0000
,
0110
0000
0110
0000
,
0100
0100
0100
0000
,
0100
0000
0000
0000
;
