#TITLE:黄昏を遊ぶ猫;
#SUBTITLE:;
#ARTIST:東京スカパラダイスオーケストラ feat. 中納良恵;
#TITLETRANSLIT:Tasogare wo Asobu Neko;
#SUBTITLETRANSLIT:;
#ARTISTTRANSLIT:Tokyo Ska Paradise Orchestra feat. Nakano Yoshie;
#CREDIT:;
#BANNER:Tasogare wo Asobu Neko.png;
#BACKGROUND:Tasogare wo Asobu Neko-bg.PNG;
#LYRICSPATH:;
#CDTITLE:;
#MUSIC:Tasogare wo Asobu Neko.mp3;
#OFFSET:-6.770;
#SAMPLESTART:12.710;
#SAMPLELENGTH:11.940;
#SELECTABLE:YES;
#DISPLAYBPM:160.000:180.000;
#BPMS:0.000=159.000,4.000=160.000,12.000=166.000,16.000=160.000,28.000=164.000,32.000=159.000,36.000=161.000,44.000=163.000,48.000=160.000,56.000=161.000,80.000=157.000,88.000=160.000,92.000=158.000,95.000=146.000,96.000=162.000,100.000=155.000,104.000=159.000,112.000=156.000,116.000=159.000,132.000=161.000,136.000=158.000,138.000=150.000,139.000=136.000,140.000=119.000,148.000=144.000,156.000=189.000,164.000=178.000,172.000=182.000,180.000=179.000,188.000=181.000,196.000=178.000,204.000=183.000,212.000=180.000,235.000=166.000,236.000=182.000,244.000=150.000,245.500=139.000,246.000=100.000,246.500=71.000,247.000=68.000,248.000=47.000,249.000=51.000,250.000=148.320,256.000=169.000,262.000=172.000,268.000=171.000,272.000=138.000,273.000=86.000,274.000=80.400;
#STOPS:;
#BGCHANGES:;

//---------------dance-single - ----------------
#NOTES:
     dance-single:
     :
     Hard:
     8:
     0.512,0.528,0.336,0.221,0.037: // measure 1
0002
0010
1000
0100
,  // measure 2
1003
0000
0100
0000
0010
0000
0001
0000
1000
0000
0000
0000
0001
1000
0001
1000
,  // measure 3
0002
0010
1000
0103
,  // measure 4
0001
0100
0001
1000
0100
0010
0100
1000
,  // measure 5
1001
0000
0001
0010
0100
1000
0000
0010
,  // measure 6
0200
1000
0010
0301
,  // measure 7
1000
0000
0001
0000
1000
0200
0000
0001
,  // measure 8
0000
1300
0001
1000
0010
0100
0001
0000
,  // measure 9
1001
0000
1000
0010
0100
1000
0000
0100
,  // measure 10
0002
0010
1000
0103
,  // measure 11
0001
1000
0100
0000
0010
0000
0100
0010
,  // measure 12
0001
0000
0000
1000
0001
0000
1000
0000
0001
0000
0010
0000
0100
0000
1000
0000
,  // measure 13
1001
0000
0001
0100
1000
0100
0010
0100
,  // measure 14
0000
0200
0001
0000
0010
0000
0301
0000
,  // measure 15
1000
0100
0010
0000
0001
0200
0000
1000
,  // measure 16
0000
0301
0100
0001
1000
0100
0010
0001
,  // measure 17
1000
0000
0001
0100
0001
1000
0100
0010
,  // measure 18
0000
0100
0010
0000
0001
0000
1000
0000
,  // measure 19
0110
0000
0001
0020
0000
0130
0010
0001
,  // measure 20
1000
0100
0010
0001
0100
1010
0000
0000
,  // measure 21
1001
0000
1000
0100
0010
0000
0101
0000
,  // measure 22
0001
0000
1000
0010
0100
0000
1001
0000
,  // measure 23
0001
0000
2100
0000
0001
0001
3001
1000
,  // measure 24
0020
0000
0001
0000
0100
0100
0130
0220
,  // measure 25
0000
0330
1001
0000
1000
0100
0010
0100
,  // measure 26
0000
0010
0001
0000
1010
0000
1001
0000
,  // measure 27
0101
0000
0001
0100
1000
0100
0020
0000
,  // measure 28
1030
0100
0010
0001
1000
0001
1000
0000
,  // measure 29
0101
0000
0010
1000
0100
0000
0010
0001
,  // measure 30
2000
0000
0010
0010
0000
0001
3001
0000
,  // measure 31
1001
0000
0001
0010
0100
0010
0001
1000
,  // measure 32
0000
0010
1000
1100
0000
0010
0001
0000
,  // measure 33
0100
0000
0010
1000
0000
0001
0100
0000
,  // measure 34
0001
0001
1000
0100
0000
0010
0002
0000
,  // measure 35
1003
0100
1100
0000
0011
0000
1001
0000
,  // measure 36
0220
0000
0000
0000
,  // measure 37
0000
0000
0000
0000
,  // measure 38
0330
0000
0000
0000
,  // measure 39
0000
0000
0000
0000
,  // measure 40
0001
0020
0000
1000
0000
0001
0000
0100
,  // measure 41
0000
1000
0000
0031
0011
0000
1100
0000
,  // measure 42
0010
0001
0100
0001
0100
0000
1010
0000
,  // measure 43
0010
1000
0001
1000
0100
0000
0011
0000
,  // measure 44
1000
0010
0001
0000
1000
0100
0001
0000
,  // measure 45
1000
0100
0010
0100
1000
0001
0100
0000
,  // measure 46
0110
0000
0010
1000
0001
1000
0100
0010
,  // measure 47
0000
0010
0001
0000
1000
0001
0100
0000
,  // measure 48
0010
0100
0001
0000
1000
0100
0010
0001
,  // measure 49
0100
0010
1000
0100
1000
0001
0100
0010
,  // measure 50
0100
0000
0001
0100
0001
1000
0100
0010
,  // measure 51
0000
0100
1000
0000
0001
0010
0001
0000
,  // measure 52
1000
0010
0100
0000
0110
0000
1001
0000
,  // measure 53
1000
0001
0100
0001
1000
0010
1000
0001
,  // measure 54
1000
0000
0001
0010
0100
1000
0000
0101
,  // measure 55
0000
0010
1000
0000
1001
0000
0110
0000
,  // measure 56
0010
1000
0100
0000
0010
0001
0100
0000
,  // measure 57
0001
1000
0100
1000
0010
0100
0001
0010
,  // measure 58
0100
0000
0010
0001
1000
0100
1000
0001
,  // measure 59
0100
0010
0100
0001
,  // measure 60
1000
0200
0010
0000
0001
0000
1300
0000
,  // measure 61
0001
0100
0001
1000
0001
1000
0001
0100
,  // measure 62
0120
0000
0000
1000
1000
2030
3002
0000
,  // measure 63
2003
3200
0020
0000
,  // measure 64
0000
0000
0000
0330
,  // measure 65
0010
0000
0001
0100
0000
0001
1000
0000
0000
0001
0000
0000
,  // measure 66
1010
0000
0000
1001
0000
0000
1000
0000
0100
0001
0000
0100
,  // measure 67
1000
0001
0011
1100
,  // measure 68
0010
0000
1000
0100
0000
0010
0001
0000
0000
1100
0000
0000
,  // measure 69
1001
0110
2002
0000
,  // measure 70
0000
0000
0000
0000
,  // measure 71
0000
0000
0000
0000
,  // measure 72
0000
3003
1001
0000
;

//---------------dance-single - ----------------
#NOTES:
     dance-single:
     :
     Medium:
     5:
     0.371,0.381,0.115,0.107,0.000:
0001
0000
1000
0001
1000
0000
0010
0000
,
0100
0000
0001
0100
0001
0000
1000
0001
,
1000
0100
0010
0100
,
1000
0000
0002
2000
0000
0000
3003
0000
,
1001
0000
0000
1000
0001
0000
1000
0000
,
0100
1000
0001
1000
,
0010
0100
0001
0000
1000
0000
0001
0010
,
0100
0000
0010
0001
1000
0000
0001
0000
,
1001
0000
0000
1000
0100
0000
0010
0000
,
0100
1000
0001
0100
,
0010
0100
0001
0000
1000
0000
0100
0000
,
0010
0001
1000
0000
0010
1000
0001
0000
,
1001
0000
0000
0001
0100
0000
0010
0000
,
0100
0001
1000
0100
,
1000
0001
0100
0000
0010
1000
0000
0001
,
0000
1000
0000
0100
1000
0000
0001
0000
,
1000
0000
0000
1000
0001
0010
0000
0100
,
0000
0010
0001
0000
1000
0000
0010
0000
,
0100
0001
1000
0000
0001
0000
1000
0000
,
0001
0100
0002
0200
0000
0000
0303
0000
,
0010
0000
1000
0000
0100
0000
0010
0001
,
0000
0001
0100
0000
1000
0000
0100
0000
,
0010
0000
1001
0000
1000
0001
0000
0001
,
1000
0000
0011
0000
1000
0100
1000
0200
,
0000
0000
0310
0000
0100
0000
1000
0001
,
0000
0001
0100
0000
0010
0000
0100
0000
,
0001
1000
0001
1000
,
0001
0010
0001
0000
1000
0010
0100
0000
,
1001
0000
0000
1000
0010
0000
0100
0000
,
0001
0000
1000
0100
0000
0010
0001
0000
,
0010
0000
0001
0000
0100
0010
0100
0020
,
0000
0100
0000
0200
0000
0000
0330
0000
,
1001
0000
1000
0100
0000
1000
0001
0000
,
1000
0000
0001
0100
0000
0001
1000
0000
,
0001
0100
0001
0000
1000
0000
1010
0000
,
2002
0000
0000
0000
,
0000
0000
0000
0000
,
3003
0000
0000
0000
,
0000
0000
0000
0000
,
1000
0100
1000
0001
,
0100
0000
0001
0000
1000
0001
1000
0000
,
0001
0010
0001
1000
,
0100
1000
0001
0100
,
0010
0100
0010
0000
1000
0010
1000
0000
,
0001
0000
1000
0000
0001
1000
0001
0000
,
1000
0100
0010
0001
,
1000
0010
0100
0010
,
1000
0010
1000
0000
0001
0100
0001
0000
,
1000
0000
0001
0000
1000
0001
0100
0000
,
0010
0000
0100
0000
0001
0000
0100
0001
,
0010
0100
0010
0001
,
0100
0010
1000
0000
0100
0000
0010
0000
,
0001
1000
0010
0000
0100
0001
1000
0000
,
0100
0000
1000
0100
0010
0000
0100
0000
,
0010
0001
0100
0010
,
0100
0001
1000
0000
0010
1000
0001
0000
,
1000
0000
0100
0000
0010
0100
0010
0000
,
0001
0000
1000
0001
0100
0000
0010
0000
,
1000
0100
0010
0100
,
1000
0100
0001
0000
0100
0000
1000
0000
,
0001
0100
1000
0000
0100
0000
0001
0000
,
2002
0000
0000
0000
,
0000
0000
0000
0000
,
0000
0000
0000
3003
,
1001
0000
0000
0001
0100
0000
0001
0000
,
1000
0000
0100
0000
0010
0000
0000
0100
,
1000
0001
1000
0010
,
0100
0000
0000
0010
0100
0000
0001
0000
,
1000
0110
2002
0000
,
0000
0000
0000
0000
,
0000
0000
0000
0000
,
0000
3003
1001
0000
;

//---------------dance-single - ----------------
#NOTES:
     dance-single:
     :
     Easy:
     3:
     0.232,0.293,0.098,0.090,0.000:
2001
0000
0000
0000
,
3001
1000
0001
0100
,
0220
0000
0000
0300
,
1030
0001
1000
0001
,
1001
0000
1000
0001
,
0010
0000
0001
0000
,
1000
0000
0001
0000
,
1000
0010
0100
0001
,
0100
0000
0010
0000
,
0100
0001
1000
0000
,
0001
0000
1000
0100
,
0010
0001
1000
0000
,
1001
0000
0001
0000
,
1000
0000
0001
0100
,
0010
0000
0100
0000
,
0010
1000
0100
0000
,
0010
0000
0100
0000
,
0010
0001
1000
0100
,
1000
0000
0001
0000
,
1000
0001
1000
0000
,
1001
0000
0001
0100
,
0001
0000
1000
0000
,
0010
0100
0010
0000
,
0100
0001
0100
0000
,
0001
0000
1000
0000
,
0100
1000
0001
1000
,
0010
0100
1000
0100
,
0010
0100
0001
0000
,
1001
0000
1000
0001
,
0010
0000
0001
1000
,
0100
1000
0001
0000
,
1000
0010
0100
0010
,
1000
0000
0001
0010
,
0001
0000
1000
0000
,
0001
1000
0010
0100
,
2002
0000
0000
0000
,
0000
0000
0000
0000
,
3003
0000
0000
0000
,
0000
0000
0000
0000
,
2002
0000
0000
0000
,
0000
0000
3003
0000
,
1000
0100
1000
0000
,
0001
0100
0001
0100
,
0001
0000
1000
0000
,
0010
0000
0100
0000
,
0010
0100
0010
0000
,
1000
0001
1000
0001
,
1000
0000
0100
0000
,
0010
0000
0001
0000
,
1000
0100
0010
0000
,
0100
0010
0001
0010
,
0001
0000
1000
0000
,
0001
0000
0100
0000
,
0001
0100
0010
0000
,
0100
0010
1000
0010
,
1000
0000
0001
0000
,
1000
0000
0100
0000
,
1000
0100
0010
0001
,
1000
0001
1000
0001
,
0100
0000
0010
0000
,
0100
0000
0010
0000
,
2002
0000
0000
0000
,
0000
0000
0000
0000
,
0000
0000
0000
3003
,
1001
0000
1000
0100
,
1000
0001
0100
0000
,
0010
0100
0001
1000
,
0100
0000
0010
0001
,
1000
0001
2002
0000
,
0000
0000
0000
0000
,
0000
0000
0000
0000
,
0000
3003
1001
0000
;

//---------------dance-single - ----------------
#NOTES:
     dance-single:
     :
     Beginner:
     1:
     0.129,0.176,0.090,0.000,0.000:
1001
0000
0000
0000
,
0000
0000
0010
0000
,
0110
0000
0000
0000
,
0100
0000
0001
0000
,
1001
0000
0000
0000
,
1000
0000
0100
0000
,
1000
0000
0000
0000
,
0001
0000
0000
0000
,
0100
0000
0001
0000
,
0100
0000
0010
0000
,
0100
0000
0000
0000
,
0010
0000
0000
0000
,
1000
0000
0001
0000
,
1000
0000
0100
0000
,
0010
0000
0000
0000
,
0100
0000
0010
0000
,
0100
0000
1000
0000
,
0001
0000
0100
0000
,
0001
0000
0000
0000
,
1000
0000
0000
0000
,
1001
0000
0000
0000
,
0001
0000
0100
0000
,
0001
0000
0000
0000
,
1000
0000
0100
0000
,
1001
0000
0000
0000
,
0001
0000
0100
0000
,
0001
0000
1000
0000
,
0100
0000
0000
0000
,
0010
0000
0100
0000
,
0010
0000
0000
0000
,
0001
0000
1000
0000
,
0001
0000
0000
0000
,
1000
0000
0010
0000
,
0100
0000
0001
0000
,
1000
0000
0100
0000
,
1001
0000
0000
0000
,
0000
0000
0000
0000
,
0000
0000
0000
0000
,
0000
0000
0000
0000
,
1001
0000
0000
0000
,
0000
0000
0000
0000
,
1000
0000
0001
0000
,
1000
0000
0010
0000
,
0100
0000
0000
0000
,
0010
0000
0000
0000
,
0100
0000
0001
0000
,
0100
0000
0001
0000
,
1000
0000
0000
0000
,
0001
0000
0000
0000
,
1000
0000
0100
0000
,
0010
0000
0001
0000
,
0010
0000
0000
0000
,
0001
0000
0000
0000
,
1000
0000
0010
0000
,
0100
0000
0001
0000
,
0100
0000
0000
0000
,
0010
0000
1000
0000
,
0001
0000
1000
0000
,
0100
0000
0010
0000
,
0100
0000
0000
0000
,
0010
0000
0001
0000
,
1001
0000
0000
0000
,
0000
0000
0000
0000
,
0000
0000
0000
0000
,
1001
0000
0000
0001
,
0000
0000
1000
0000
,
0000
0010
0000
0100
,
0100
0000
0000
0001
,
0001
1000
1001
0000
,
0000
0000
0000
0000
,
0000
0000
0000
0000
,
0000
0000
1001
0000
;
