#TITLE:Taekwonburi;
#SUBTITLE:;
#ARTIST:xxdbxx;
#TITLETRANSLIT:;
#SUBTITLETRANSLIT:;
#ARTISTTRANSLIT:;
#GENRE:;
#CREDIT:;
#BANNER:태권부리.png;
#BACKGROUND:태권부리 BG.png;
#LYRICSPATH:;
#CDTITLE:;
#MUSIC:태권부리.mp3;
#OFFSET:0.100;
#SAMPLESTART:95.400;
#SAMPLELENGTH:12.000;
#SELECTABLE:YES;
#BPMS:0.000=162.000
;
#STOPS:201.000=0.751,
203.000=0.751,
301.000=0.751,
303.000=0.751
;
#BGCHANGES:0.000=[Moon Runes] - Taekwonburi=1.000=0=0=0=StretchNoLoop====,
99999=-nosongbg-=1.000=0=0=0 // don't automatically add -songbackground-
;
#KEYSOUNDS:;
#ATTACKS:;

//---------------dance-single - ----------------
#NOTES:
     dance-single:
     :
     Hard:
     8:
     0.564,0.546,0.238,0.191,0.111,443.000,30.000,24.000,0.000,0.000,0.000,0.564,0.546,0.238,0.191,0.111,443.000,30.000,24.000,0.000,0.000,0.000: // measure 0
0000
0000
0000
0000
,  // measure 1
0000
0000
0000
0000
,  // measure 2
0000
0000
0000
0000
,  // measure 3
0000
0000
0000
0000
,  // measure 4
0000
0000
0001
0010
,  // measure 5
0100
1000
0100
0010
,  // measure 6
0001
0001
0000
0000
1000
0000
0010
0000
,  // measure 7
0100
0001
0100
0010
,  // measure 8
1000
0000
1000
0000
0001
0000
1000
0000
0000
0100
0000
0000
0001
0000
0000
0100
,  // measure 9
0000
0000
0100
0000
1000
0000
0001
0000
0000
0100
0000
0000
1000
0000
0000
0100
,  // measure 10
0000
0100
0001
0010
0100
0000
0110
0000
,  // measure 11
0100
0010
0001
0000
1000
0010
0000
0100
,  // measure 12
0001
0000
1000
0100
0000
0010
0002
0000
,  // measure 13
1003
0000
1000
0001
0000
0000
1000
0010
,  // measure 14
0001
0010
1000
0100
0010
0000
0110
0000
,  // measure 15
0010
0100
1000
0000
0001
0100
0000
0010
,  // measure 16
1000
0000
0001
0010
0000
0100
2000
0000
,  // measure 17
3001
0000
0001
1000
0000
0000
0001
0010
,  // measure 18
1000
0010
0001
0100
0010
0000
0110
0000
,  // measure 19
0010
0100
0001
0000
1000
0100
0000
0010
,  // measure 20
0001
0000
1000
0010
0100
0001
0020
0000
,  // measure 21
0031
0000
0001
1001
0000
0000
1000
0100
,  // measure 22
0001
0100
1000
0010
0100
0000
0110
0000
,  // measure 23
0100
0010
1000
0000
0001
0010
0000
0100
,  // measure 24
1000
0000
0001
0100
0010
1000
0200
0000
,  // measure 25
1300
0000
1000
1001
0000
0000
0001
0010
,  // measure 26
1000
0010
0001
1000
1000
0100
0001
0001
,  // measure 27
1000
0010
0001
2000
0000
3020
0000
0230
,  // measure 28
0000
0302
0000
1003
1000
0010
0001
0001
,  // measure 29
1000
0100
0001
2000
0000
3200
0000
0320
,  // measure 30
0000
0032
0000
1003
0010
0001
0010
0000
,  // measure 31
1000
0010
0100
0001
0010
1000
0010
0000
,  // measure 32
0001
0000
0100
0000
0010
0000
1000
0000
0000
0100
0000
0000
0001
0000
0000
0100
,  // measure 33
0000
0000
0100
0000
1000
0000
0001
0000
0000
0100
0000
0000
1000
0000
0000
0100
,  // measure 34
0000
0000
0100
0000
0001
0000
0010
0000
0000
0010
0001
0000
0100
0000
0010
0000
,  // measure 35
0000
0010
0100
0000
0001
0000
0010
0000
0010
0000
0001
0000
0100
0000
0010
0000
,  // measure 36
0010
0000
0100
0000
0001
0000
0010
0000
0000
0010
0100
0000
1000
0000
0010
0000
,  // measure 37
0000
0010
1000
0000
0100
0000
0010
0000
0010
0000
0100
0000
1000
0000
0010
0000
,  // measure 38
0010
0100
0001
1000
0000
1001
0000
0001
,  // measure 39
0000
1001
0000
1000
0000
1010
0000
0110
,  // measure 40
0000
0101
0000
0001
0000
1001
0000
1000
,  // measure 41
0000
1001
0000
0011
0000
0110
0000
1100
,  // measure 42
0000
1001
0001
0100
1000
0100
0001
0100
,  // measure 43
1000
0100
0001
0100
1000
0100
0001
0010
,  // measure 44
0100
1000
1000
0010
0001
0010
1000
0010
,  // measure 45
0001
0010
1000
0010
0001
0010
1000
0100
,  // measure 46
0010
0001
0001
0010
1000
0010
0001
0010
,  // measure 47
1000
0010
0001
0010
1000
0010
0001
0100
,  // measure 48
0010
1000
1000
0100
0001
0100
1000
0100
,  // measure 49
0001
0100
1000
0100
0001
0100
1000
0010
,  // measure 50
0100
0001
0000
0100
0001
0000
0010
0000
0100
1000
0000
0100
1000
0000
0010
0000
,  // measure 51
0100
0001
0000
0100
0001
0000
0010
0000
0100
0000
0000
0000
0110
0000
0000
0000
,  // measure 52
0100
0010
0001
0000
1000
0010
0000
0100
,  // measure 53
0001
0000
1000
0100
0000
0010
0002
0000
,  // measure 54
1003
0000
1001
1001
0000
0000
1000
0100
,  // measure 55
0001
0100
1000
0010
0100
0000
0110
0000
,  // measure 56
0100
0010
1000
0000
0001
0010
0000
0100
,  // measure 57
1000
0000
0001
0100
0000
0010
2000
0000
,  // measure 58
3001
0000
1001
1001
0000
0000
0001
0100
,  // measure 59
1000
0100
0001
1000
0010
1000
0001
0010
,  // measure 60
0001
0100
0010
2000
0000
3020
0000
0230
,  // measure 61
0000
0302
0000
1003
0100
1000
0001
0100
,  // measure 62
0001
0010
0100
2000
0000
3200
0000
0320
,  // measure 63
0000
0032
0000
1003
0010
0001
0010
0000
,  // measure 64
1000
0010
0100
0001
0010
1000
0010
0000
,  // measure 65
0001
0000
0100
0000
0010
0000
1000
0000
0000
0100
0000
0000
0001
0000
0000
0100
,  // measure 66
0000
0000
0100
0000
1000
0000
0001
0000
0000
0100
0000
0000
1000
0000
0000
0100
,  // measure 67
0000
0100
0001
0010
0100
0000
0110
0000
,  // measure 68
0100
0010
0001
0000
1000
0010
0000
0100
,  // measure 69
0001
0000
1000
0100
0000
0010
0002
0000
,  // measure 70
1003
0000
1001
1001
0000
0000
1000
0010
,  // measure 71
0001
0010
1000
0100
0010
0000
0110
0000
,  // measure 72
0010
0100
1000
0000
0001
0100
0000
0010
,  // measure 73
1000
0000
0001
0010
0000
0100
2000
0000
,  // measure 74
3001
0000
1001
1001
0000
0000
1000
0100
,  // measure 75
0010
0001
0000
0010
0001
0000
0100
0000
0010
1000
0000
0010
1000
0000
0100
0000
,  // measure 76
0010
0001
0000
0010
0001
0000
1001
0000
0000
0000
0000
0000
0000
0000
0000
0000
;

//---------------dance-single - ----------------
#NOTES:
     dance-single:
     :
     Medium:
     5:
     0.348,0.425,0.151,0.000,0.000,288.000,19.000,0.000,0.000,0.000,0.000,0.348,0.425,0.151,0.000,0.000,288.000,19.000,0.000,0.000,0.000,0.000:
0000
0000
0000
0000
,
0000
0000
0000
0000
,
0000
0000
0000
0000
,
0000
0000
0000
0000
,
0000
0000
1000
0100
,
0010
0001
0010
0100
,
1000
1000
0000
0000
0001
0000
0010
0000
,
0100
1000
0100
0010
,
0001
0001
0000
1000
0000
0000
0001
0000
,
0000
1000
0000
0001
0000
0000
1000
0000
,
0000
0001
0000
1000
0000
0010
0000
0100
,
0000
0001
0000
0100
0000
0010
0000
1000
,
0000
0001
0000
0010
0000
0100
0000
1000
,
0000
0100
0000
0010
0000
0000
0000
0001
,
0000
0001
0000
1000
0000
0010
0000
0100
,
0000
0001
0000
0100
0000
0010
0000
1000
,
0000
0100
0000
0010
0000
0001
0000
1000
,
0000
0010
0000
0100
0000
0000
0000
0001
,
0000
0001
0000
1000
0000
1001
0000
0000
,
0000
1000
0000
0001
0000
1001
0000
0000
,
0000
0001
0000
1000
0000
1001
0000
0000
,
0000
1000
0000
1001
0000
0000
0000
1000
,
0000
0001
0000
1000
0000
1001
0000
0000
,
0000
0001
0000
1000
0000
1001
0000
0000
,
0000
1000
0000
0001
0000
1001
0000
0000
,
0000
0001
0000
1001
0000
0000
0000
0001
,
0000
1000
0000
0001
0000
0100
0000
1000
,
0000
0100
0000
0001
0000
0001
0000
1000
,
0000
1000
0000
0001
0000
0010
0000
1000
,
0000
0010
0000
0001
0000
0001
0000
1000
,
0000
1000
0000
0001
0000
0010
0000
0000
,
0000
0001
0000
0010
0000
0100
0000
0000
,
0000
0010
0000
0100
0000
0000
1000
0000
,
0000
0010
0000
0100
0000
0000
0001
0000
,
0000
0010
0000
0001
0000
0000
0000
0100
,
0000
0000
0000
0010
0000
1000
0000
0010
,
0000
1000
0000
0100
0000
0000
0000
0010
,
0000
0000
0000
0001
0000
0010
0000
0001
,
0000
0010
0000
0001
0000
1001
0000
1000
,
0000
1001
0000
0001
0000
0101
0000
0110
,
0000
1010
0000
1000
0000
1001
0000
0001
,
0000
1001
0000
0101
0000
0110
0000
1010
,
0000
1001
0000
0001
0010
0100
0000
1000
,
0010
0100
0000
0001
0100
0010
0000
1000
,
0100
0010
0000
0001
0100
1000
0000
1000
,
0100
0001
0000
1000
0100
0001
0000
0001
,
0100
1000
0000
0001
0010
0100
0000
0100
,
0010
0001
0000
1000
0010
0100
0000
0100
,
0010
1000
0000
0001
0010
0100
0000
1000
,
0010
0100
0000
0001
0100
0010
0000
1000
,
0010
0100
0001
0010
0100
1000
0001
0010
,
0100
1000
0001
1000
0000
0010
0000
0100
,
0000
0001
0000
0010
0000
0100
0000
1000
,
0000
0001
0000
0010
0000
0100
0000
1000
,
0000
0100
0000
0010
0000
0000
0000
0001
,
0000
0001
0000
1000
0000
0100
0000
0010
,
0000
0001
0000
0010
0000
0100
0000
1000
,
0000
0001
0000
0010
0000
0100
0000
1000
,
0000
0100
0000
0010
0000
0000
0000
0001
,
0000
0001
0000
1000
0000
0100
0000
0001
,
0000
0100
0000
1000
0000
1000
0000
0001
,
0000
0001
0000
1000
0000
0010
0000
0001
,
0000
0010
0000
1000
0000
1000
0000
0001
,
0000
0001
0000
1000
0000
0010
0000
0000
,
0000
1000
0000
0010
0000
0100
0000
0000
,
0000
0010
0000
0100
0000
0000
0001
0000
,
0000
0010
0000
0100
0000
0000
1000
0000
,
0000
0001
0000
0001
0000
0010
0000
0100
,
0000
1000
0000
0100
0000
0010
0000
0001
,
0000
1000
0000
0010
0000
0100
0000
0001
,
0000
0100
0000
0010
0000
0000
0000
1000
,
0000
1000
0000
0001
0000
0010
0000
0100
,
0000
1000
0000
0100
0000
0010
0000
0001
,
0000
1000
0000
0010
0000
0100
0000
0001
,
0000
0100
0000
0010
0000
0000
0000
1000
,
0001
1000
0001
0010
0100
1000
0001
0010
,
0100
1000
0001
1000
0000
0000
0000
0000
;

//---------------dance-single - ----------------
#NOTES:
     dance-single:
     :
     Easy:
     3:
     0.208,0.243,0.064,0.000,0.000,175.000,8.000,0.000,0.000,0.000,0.000,0.208,0.243,0.064,0.000,0.000,175.000,8.000,0.000,0.000,0.000,0.000:
0000
0000
0000
0000
,
0000
0000
0000
0000
,
0000
0000
0000
0000
,
0000
0000
0000
0000
,
0000
0000
0001
0010
,
0100
1000
0100
0010
,
0001
0000
1000
0010
,
0100
0001
0100
0010
,
1000
0000
0000
1001
0000
0000
0000
0000
,
0000
0000
0000
0110
0000
0000
0000
0000
,
0000
0000
0000
1001
0000
0000
0000
0001
,
0000
0000
0000
1000
0000
0000
0000
0001
,
0000
0000
0000
1000
0000
0000
0000
0001
,
0000
0000
0000
1001
0000
0000
0000
0000
,
0000
0000
0000
0110
0000
0000
0000
0100
,
0000
0000
0000
0010
0000
0000
0000
0100
,
0000
0000
0000
0010
0000
0000
0000
0100
,
0000
0000
0000
0110
0000
0000
0000
0000
,
0000
0000
0000
0001
0000
0000
0000
0010
,
0000
0000
0000
0100
0000
0000
0000
1000
,
0000
0000
0000
0001
0000
0000
0000
0100
,
0000
0000
0000
0010
0000
0000
0000
0000
,
0000
0000
0000
1000
0000
0000
0000
0100
,
0000
0000
0000
0010
0000
0000
0000
0001
,
0000
0000
0000
1000
0000
0000
0000
0010
,
0000
0000
0000
0100
0000
0000
0000
0000
,
0000
0000
0000
0001
0000
0100
0000
1000
,
0000
0100
0000
0001
0000
0001
0000
1000
,
0000
1000
0000
0001
0000
0010
0000
1000
,
0000
0010
0000
0001
0000
0001
0000
1000
,
0000
1000
0000
0001
0000
0000
0000
0000
,
0000
0000
0000
1000
0000
0000
0000
0000
,
0000
0000
0000
0001
0000
0000
0000
0000
,
0000
0000
0000
1000
0000
0000
0000
0000
,
0000
0000
0000
0001
0000
0000
0000
0010
,
0000
0000
0000
0100
0000
1000
0000
0100
,
0000
1000
0000
0010
0000
0000
0000
0100
,
0000
0000
0000
0001
0000
0100
0000
0001
,
0000
0100
0000
0001
0000
0000
0000
1000
,
0000
0000
0000
0001
0000
1000
0000
0001
,
0000
1000
0000
0001
0000
0000
0000
1000
,
0000
0000
0000
0001
0000
1000
0000
0001
,
0000
1000
0000
0001
0000
0010
0000
0100
,
0000
1000
0000
0001
0000
0010
0000
0100
,
0000
0100
0000
1000
0000
0010
0000
0100
,
0000
0001
0000
1000
0000
0010
0000
0100
,
0000
0100
0000
0001
0000
0010
0000
0100
,
0000
1000
0000
0001
0000
0010
0000
0100
,
0000
0100
0000
1000
0000
0010
0000
0100
,
0000
0001
0000
1000
0000
0010
0000
0100
,
0000
0001
0000
1000
0000
0000
0000
1001
,
0000
0000
0000
0001
0000
0000
0000
0010
,
0000
0000
0000
0100
0000
0000
0000
1000
,
0000
0000
0000
0001
0000
0000
0000
0100
,
0000
0000
0000
0010
0000
0000
0000
0000
,
0000
0000
0000
1000
0000
0000
0000
0100
,
0000
0000
0000
0010
0000
0000
0000
0001
,
0000
0000
0000
1000
0000
0000
0000
0010
,
0000
0000
0000
0100
0000
0000
0000
0000
,
0000
0000
0000
0001
0000
0010
0000
0100
,
0000
1000
0000
0001
0000
0100
0000
0010
,
0000
1000
0000
0001
0000
0010
0000
0100
,
0000
1000
0000
0001
0000
0100
0000
0010
,
0000
1000
0000
0001
0000
0000
0000
0000
,
0000
0000
0000
1000
0000
0000
0000
0000
,
0000
0000
0000
0001
0000
0000
0000
0000
,
0000
0000
0000
1000
0000
0000
0000
0000
,
0000
0000
0000
0001
0000
0000
0000
0010
,
0000
0000
0000
0100
0000
0000
0000
1000
,
0000
0000
0000
0001
0000
0000
0000
0100
,
0000
0000
0000
0010
0000
0000
0000
0000
,
0000
0000
0000
1000
0000
0000
0000
0100
,
0000
0000
0000
0010
0000
0000
0000
0001
,
0000
0000
0000
1000
0000
0000
0000
0010
,
0000
0000
0000
0100
0000
0000
0000
0001
,
0000
1000
0000
0001
0000
0000
0000
1000
,
0000
0000
0000
1001
0000
0000
0000
0000
;
