#VERSION:0.81;
#TITLE:旅立ちの唄;
#SUBTITLE:;
#ARTIST:Tatsh feat. Junko Hirata;
#TITLETRANSLIT:Tabitachi No Uta;
#SUBTITLETRANSLIT:;
#ARTISTTRANSLIT:;
#GENRE:;
#ORIGIN:;
#CREDIT:;
#BANNER:[Moon Runes] - Tabitachi No Uta.PNG;
#BACKGROUND:[Moon Runes] - Tabitachi No Uta-bg.PNG;
#PREVIEWVID:;
#JACKET:[Moon Runes] - Tabitachi No Uta-jacket.PNG;
#CDIMAGE:;
#DISCIMAGE:;
#LYRICSPATH:;
#CDTITLE:cdtitle.png;
#MUSIC:[Moon Runes] - Tabitachi No Uta.ogg;
#OFFSET:-0.023;
#SAMPLESTART:55.581;
#SAMPLELENGTH:15.158;
#SELECTABLE:YES;
#BPMS:0.000=190.000;
#STOPS:;
#DELAYS:;
#WARPS:;
#TIMESIGNATURES:0.000=4=4;
#TICKCOUNTS:0.000=4;
#COMBOS:0.000=1;
#SPEEDS:0.000=1.000=0.000=0;
#SCROLLS:0.000=1.000;
#FAKES:;
#LABELS:0.000=Song Start;
#BGCHANGES:;
#KEYSOUNDS:;
#ATTACKS:
;

//---------------dance-single - xRGTMx-S14----------------
#NOTEDATA:;
#CHARTNAME:xRGTMx-S14;
#STEPSTYPE:dance-single;
#DESCRIPTION:xRGTMx-S14;
#CHARTSTYLE:;
#DIFFICULTY:Hard;
#METER:9;
#RADARVALUES:0.756,0.764,0.649,0.337,0.208,498.000,75.000,39.000,0.000,0.000,0.000,0.000,0.000,0.756,0.764,0.649,0.337,0.208,498.000,75.000,39.000,0.000,0.000,0.000,0.000,0.000;
#CREDIT:xRGTMx-S14;
#NOTES:
// measure 0
0000
0000
0000
0000
,  // measure 1
0210
0000
0310
0000
,  // measure 2
1001
0000
1100
0000
,  // measure 3
0102
0000
0103
0000
,  // measure 4
2002
0000
3003
0100
,  // measure 5
0010
0000
0000
0000
1001
0000
0000
1000
,  // measure 6
0100
0000
1000
0000
0010
0000
0110
0100
,  // measure 7
0002
0000
0000
0000
0000
0000
0000
0000
1000
0000
0000
0000
0003
0000
1000
0001
,  // measure 8
1000
0000
0100
0000
0010
0000
0001
0100
0001
0000
1000
0000
0010
0000
0100
0000
,  // measure 9
0001
0010
0001
0010
0100
1000
0100
1000
,  // measure 10
0001
0100
0001
0100
1000
0100
0010
1000
,  // measure 11
0100
0010
0001
0200
0000
1300
0200
0000
,  // measure 12
0301
0000
0010
0000
0100
0000
1000
0000
0002
0000
0000
0000
0003
0000
1000
0001
,  // measure 13
1000
0010
1000
0010
0100
0001
0100
0001
,  // measure 14
1000
0100
1000
0100
0001
0100
0010
0001
,  // measure 15
1000
0010
0001
1000
0100
0001
1000
0100
,  // measure 16
0000
0000
0001
0000
0100
0000
1000
0000
0010
0000
0000
0000
0100
0010
0100
0010
,  // measure 17
0100
0102
1003
2100
,  // measure 18
3001
1010
0101
0011
,  // measure 19
0100
0000
1100
1000
0001
0000
0101
0001
,  // measure 20
2000
0000
0000
0010
3020
0000
0230
0000
,  // measure 21
0310
2010
3001
0012
,  // measure 22
1003
0101
1010
1100
,  // measure 23
0010
0000
0000
0010
0001
0000
0000
0001
0100
0000
0000
0100
1000
0000
0000
1000
,  // measure 24
0010
0000
0000
0000
0001
0000
0010
0000
0100
0000
1000
0000
0010
0100
0001
1000
,  // measure 25
0001
0000
1100
0000
0001
0100
1000
0100
,  // measure 26
0001
0000
0101
0000
1000
0100
0001
0100
,  // measure 27
1000
0000
1100
1000
0001
0000
0101
0001
,  // measure 28
0020
0000
0000
0100
0030
0000
1001
1000
,  // measure 29
0010
0000
0000
0010
1000
0000
0000
1000
0100
0000
0000
0100
1000
0000
0000
1000
,  // measure 30
0001
0000
0000
0001
0100
0000
0000
0100
0010
0000
0000
0010
0001
0000
0000
0001
,  // measure 31
0020
1000
0001
0130
,  // measure 32
0010
0000
0000
0000
0110
0000
0000
0000
1001
0000
1000
0000
0100
0000
0010
0001
,  // measure 33
0010
0000
0210
0000
0000
1300
0000
1000
,  // measure 34
0001
0000
2000
0000
0010
0000
3001
1000
,  // measure 35
0001
0000
0201
0000
1000
0000
0310
0010
,  // measure 36
0100
0000
1001
0000
1000
0010
0100
0001
,  // measure 37
0000
0000
0120
0000
0000
0031
0000
0001
,  // measure 38
1000
0000
0002
0000
0100
0000
1003
0001
,  // measure 39
1000
0010
0010
0000
0110
0000
0101
0000
,  // measure 40
1001
0000
0000
0000
1100
0000
0000
0000
0101
0000
0000
0000
1001
0000
0001
1000
,  // measure 41
0001
0000
0000
1000
0100
0000
0000
0100
0010
0000
0000
0010
0001
0000
0000
0001
,  // measure 42
1000
0001
0010
1000
0001
0100
1000
0010
,  // measure 43
0000
0100
0010
0200
0010
0000
0310
0000
,  // measure 44
1001
0000
1000
0100
0010
0100
0010
0100
,  // measure 45
1000
0010
1000
0010
0001
0010
0001
0010
,  // measure 46
1000
0100
1000
0100
0001
0100
1000
0001
,  // measure 47
0100
0010
0000
1010
0000
0011
0010
0000
,  // measure 48
1001
0000
0001
0010
0100
1000
0010
0100
,  // measure 49
0001
0010
0100
0010
0001
1000
0010
0100
,  // measure 50
0001
0011
0100
1010
,  // measure 51
1001
1000
0100
0000
0010
0000
0110
0000
,  // measure 52
1001
0000
0001
0100
0010
0100
0010
0100
,  // measure 53
0001
0010
0001
0010
1000
0010
1000
0010
,  // measure 54
0001
0100
0001
0100
1000
0100
0001
1000
,  // measure 55
0100
0010
0000
0011
0000
1010
0010
0000
,  // measure 56
1001
0000
1000
0010
0100
0001
0010
0100
,  // measure 57
1000
0010
0100
0010
1000
0001
0010
0100
,  // measure 58
1000
1010
0100
0011
,  // measure 59
1001
0001
0100
0000
0010
0000
0110
0000
,  // measure 60
1001
1000
0100
0000
1001
0100
0000
0110
,  // measure 61
0000
0000
1001
0000
0000
0000
0000
0000
0000
0001
1000
0001
1000
0001
1000
0001
,  // measure 62
2000
0000
0000
3010
,  // measure 63
2001
0000
3010
1000
0002
0000
0013
0001
,  // measure 64
0200
0010
0010
0000
0010
0000
0010
0000
,  // measure 65
1000
0000
0001
0000
1000
0000
0301
0100
,  // measure 66
0001
0010
0200
0000
2300
0000
0100
0000
,  // measure 67
3001
0000
0000
0000
0010
0000
0000
0000
0100
0000
0000
0000
1000
0000
1000
0100
,  // measure 68
0010
0000
0001
0000
0100
0000
1010
1000
,  // measure 69
0001
0000
0000
0000
1000
0000
0000
0000
0000
0010
0100
0010
0100
0001
1000
0001
,  // measure 70
1000
0100
0001
0000
1000
0100
0001
0000
,  // measure 71
1000
0000
0100
0000
0001
0000
0100
0000
1000
0000
0000
0000
1001
0000
0001
1000
,  // measure 72
0001
0100
1000
0000
0001
0100
1000
0000
,  // measure 73
0001
0100
1000
0100
0001
0000
1001
0000
,  // measure 74
2000
3020
0032
0203
,  // measure 75
2300
0000
0000
0000
3020
0000
0000
0000
0230
0000
0000
0000
0301
0000
0100
0010
,  // measure 76
2000
0100
0001
0100
,  // measure 77
3002
0000
0000
0003
,  // measure 78
0011
0001
1000
1010
0000
0010
0100
0000
,  // measure 79
0101
0001
1001
0000
1100
1000
1001
0000
,  // measure 80
0110
0110
0110
0110
,  // measure 81
1001
0000
0000
0000
1001
0000
0000
0000
1000
0001
1000
0001
0100
0010
0100
0010
,  // measure 82
1000
0000
0000
1000
0100
0000
0000
0100
0010
0000
0000
0010
0001
0000
0000
1000
,  // measure 83
0001
0000
0000
0001
0100
0000
0000
0100
0010
0000
0000
0010
1000
0000
0000
0001
,  // measure 84
1000
0010
0100
0010
0001
0010
0100
0010
,  // measure 85
0000
0110
0000
0000
0101
0000
1001
0200
,  // measure 86
0000
0000
0000
0000
,  // measure 87
0000
0000
0000
0000
,  // measure 88
0000
0300
0000
0000
;

//---------------dance-single - xRGTMx-S11----------------
#NOTEDATA:;
#CHARTNAME:xRGTMx-S11;
#STEPSTYPE:dance-single;
#DESCRIPTION:xRGTMx-S11;
#CHARTSTYLE:;
#DIFFICULTY:Medium;
#METER:8;
#RADARVALUES:0.602,0.611,0.407,0.277,0.009,408.000,47.000,32.000,0.000,0.000,0.000,0.000,0.000,0.602,0.611,0.407,0.277,0.009,408.000,47.000,32.000,0.000,0.000,0.000,0.000,0.000;
#CREDIT:xRGTMx-S11;
#NOTES:
// measure 0
0000
0000
0000
0000
,  // measure 1
2001
0000
3100
0000
,  // measure 2
0110
0000
0011
0000
,  // measure 3
1002
0000
1003
0000
,  // measure 4
0220
0000
0330
1000
,  // measure 5
0001
0000
0000
0000
0101
0000
0000
0100
,  // measure 6
0010
0000
1000
0000
0001
0000
1000
0100
,  // measure 7
0020
0000
0000
0031
,  // measure 8
1000
0010
1000
0010
0100
0001
0100
0001
,  // measure 9
1000
0100
0010
0100
,  // measure 10
1000
0010
0001
0010
0000
0100
0001
2000
,  // measure 11
0000
0100
0001
3001
,  // measure 12
0010
0100
1000
1001
,  // measure 13
0001
0100
0010
0100
,  // measure 14
0001
0010
1000
0010
0000
0100
1000
0000
,  // measure 15
0001
0000
0000
0101
0000
0000
1100
0000
,  // measure 16
0000
0010
0001
0100
1000
0000
0110
0000
,  // measure 17
1001
1000
0010
0100
,  // measure 18
0001
0000
0010
0100
0010
0000
1000
0000
,  // measure 19
0001
0000
0001
0100
1000
0000
0010
0000
,  // measure 20
0001
0000
1000
0100
0001
0000
0010
0000
,  // measure 21
1001
0001
0010
0100
,  // measure 22
1000
0000
0010
0100
0010
0000
0001
0000
,  // measure 23
0010
1000
0010
0000
1000
0100
1000
0000
,  // measure 24
0200
0010
0301
0110
,  // measure 25
1001
1000
0100
0010
,  // measure 26
0001
0000
0100
0010
0100
0000
1000
0000
,  // measure 27
0001
0000
0001
0010
1000
0000
0100
0000
,  // measure 28
0001
0000
1000
0010
0001
0000
0100
0000
,  // measure 29
1001
0001
0100
0010
,  // measure 30
1000
0000
0100
0010
0100
0000
0001
0000
,  // measure 31
0100
1000
0100
1000
0001
0100
1000
0100
,  // measure 32
0002
0000
0023
0000
0230
0000
1300
0001
,  // measure 33
0000
0000
0101
0000
0000
1010
0000
1000
,  // measure 34
0001
0000
0020
0000
0100
0000
0130
0010
,  // measure 35
0100
0000
2100
0000
0100
0000
3001
1000
,  // measure 36
0001
0000
1000
0100
1000
0010
0001
0010
,  // measure 37
0000
0000
1100
0000
0000
0011
0000
0001
,  // measure 38
1000
0000
0020
0000
0100
0000
0130
0010
,  // measure 39
0100
0001
1000
0000
1100
0000
0101
0000
,  // measure 40
0001
0010
1000
0100
,  // measure 41
0001
0100
1000
0010
,  // measure 42
0000
0001
1000
0000
0110
0000
1001
0000
,  // measure 43
0000
1000
0001
1000
0010
0000
0100
0000
,  // measure 44
1001
0000
0001
0100
0001
0000
1000
0100
,  // measure 45
1000
0000
0001
0010
0001
0000
1000
0010
,  // measure 46
1000
0000
0100
0010
0001
0000
0100
0010
,  // measure 47
1000
0000
0100
0001
1000
0000
0001
0100
,  // measure 48
1000
0000
0010
0001
0100
0000
0001
0010
,  // measure 49
1000
0000
0100
0001
0010
0001
0100
0000
,  // measure 50
1000
0002
0023
0230
,  // measure 51
2300
0010
3020
0000
0230
0000
0310
0000
,  // measure 52
1001
0000
1000
0100
1000
0000
0001
0100
,  // measure 53
0001
0000
1000
0010
1000
0000
0001
0010
,  // measure 54
0001
0000
0100
0010
1000
0000
0100
0010
,  // measure 55
0001
0000
0100
1000
0001
0000
1000
0100
,  // measure 56
0001
0000
0010
1000
0100
0000
1000
0010
,  // measure 57
0001
0000
0100
1000
0010
1000
0100
0000
,  // measure 58
0001
2000
3020
0230
,  // measure 59
0302
0010
0023
0000
0230
0000
0310
0100
,  // measure 60
1000
0100
1000
0000
0001
0100
0001
0010
,  // measure 61
0000
0100
0000
0000
0020
0000
0000
0000
,  // measure 62
0130
0000
0000
0110
,  // measure 63
1001
1000
0010
0001
,  // measure 64
0010
1000
0100
0000
0001
0000
0100
0000
,  // measure 65
2000
0000
0100
0000
3001
0000
1000
0010
,  // measure 66
0100
0010
0001
0000
0010
0000
1000
0000
,  // measure 67
0001
0000
0010
0000
0100
0000
1000
1000
,  // measure 68
0001
0000
0101
0000
1000
0000
1100
0100
,  // measure 69
0010
0000
0001
0000
0100
1000
0100
0001
,  // measure 70
0100
0010
1000
0000
0100
0010
0001
0000
,  // measure 71
1000
0010
0100
0000
0001
0010
0100
0000
,  // measure 72
2000
0010
0010
0000
0001
0000
0100
0000
,  // measure 73
3002
0010
1000
0100
,  // measure 74
1003
0100
1000
0000
1000
0100
1000
0000
,  // measure 75
0001
0100
0001
0000
0001
0100
0001
0010
,  // measure 76
0100
0001
0100
1000
,  // measure 77
0020
0000
0000
0130
,  // measure 78
1001
0000
1000
0100
0000
0001
0100
1000
,  // measure 79
0001
0101
1100
0110
,  // measure 80
1001
1000
0001
0100
0010
0100
0001
0010
,  // measure 81
0100
0000
0000
0000
2000
0000
0000
0000
3010
0000
0000
0010
0100
0000
0000
0100
,  // measure 82
0010
1010
1100
0110
,  // measure 83
0011
0101
0110
1010
,  // measure 84
1001
0101
1100
0110
,  // measure 85
0000
1000
0000
0000
0001
0000
1001
0200
,  // measure 86
0000
0000
0000
0000
,  // measure 87
0000
0000
0000
0000
,  // measure 88
0000
0300
0000
0000
;

//---------------dance-single - xRGTMx-S7----------------
#NOTEDATA:;
#CHARTNAME:xRGTMx-S7;
#STEPSTYPE:dance-single;
#DESCRIPTION:xRGTMx-S7;
#CHARTSTYLE:;
#DIFFICULTY:Easy;
#METER:5;
#RADARVALUES:0.366,0.458,0.130,0.121,0.000,267.000,15.000,14.000,0.000,0.000,0.000,0.000,0.000,0.366,0.458,0.130,0.121,0.000,267.000,15.000,14.000,0.000,0.000,0.000,0.000,0.000;
#CREDIT:xRGTMx-S7;
#NOTES:
// measure 0
0000
0000
0000
0000
,  // measure 1
0010
0000
0000
0000
,  // measure 2
1000
0000
0001
0000
,  // measure 3
0010
0000
0000
0000
,  // measure 4
0100
0000
0000
0100
,  // measure 5
1000
0000
1001
0000
,  // measure 6
0001
0100
0010
0000
,  // measure 7
2000
0000
3000
0000
,  // measure 8
0001
0001
0001
0000
,  // measure 9
1001
0000
1000
0010
,  // measure 10
1000
0010
0100
0000
,  // measure 11
0001
0001
0001
0000
,  // measure 12
1000
1000
1000
0000
,  // measure 13
1001
0000
0001
0010
,  // measure 14
0001
0010
0100
0000
,  // measure 15
1000
0000
0000
1001
,  // measure 16
0000
0001
1000
0110
,  // measure 17
1001
1000
1000
0000
,  // measure 18
0001
0001
0001
0000
,  // measure 19
1000
0100
0001
0000
,  // measure 20
0001
0010
1000
0000
,  // measure 21
0001
0001
0001
0000
,  // measure 22
1000
1000
1000
0000
,  // measure 23
0001
0100
1000
0000
,  // measure 24
1000
0010
0001
0000
,  // measure 25
1000
1000
0100
0000
,  // measure 26
0001
0001
0100
0000
,  // measure 27
1000
0010
0001
0010
,  // measure 28
1000
1000
0001
0000
,  // measure 29
0001
0001
0100
0000
,  // measure 30
1000
1000
0100
0000
,  // measure 31
0001
0010
1000
0010
,  // measure 32
0001
0100
0010
0010
,  // measure 33
0000
0000
2002
0000
0000
3003
0000
0000
,  // measure 34
1000
0001
1000
0000
,  // measure 35
0001
0010
0010
1000
,  // measure 36
0010
0001
0001
1000
,  // measure 37
0000
0000
2002
0000
0000
3003
0000
0000
,  // measure 38
0001
1000
0001
0000
,  // measure 39
1000
0010
0010
0001
,  // measure 40
0010
1000
1000
0100
,  // measure 41
0010
0010
0010
0020
,  // measure 42
0000
0030
0000
0000
0010
0000
0010
0000
,  // measure 43
0000
0001
1000
0110
,  // measure 44
1001
1000
0100
1000
,  // measure 45
0001
0001
0100
0001
,  // measure 46
0010
0000
0100
0000
,  // measure 47
1000
0001
1000
0000
,  // measure 48
0001
0010
0100
0010
,  // measure 49
0100
1000
0001
0001
,  // measure 50
0000
0100
0100
0100
,  // measure 51
0010
0010
0100
0000
,  // measure 52
1001
0001
0100
0001
,  // measure 53
1000
1000
0100
1000
,  // measure 54
0010
0000
0100
0000
,  // measure 55
0001
1000
0001
0000
,  // measure 56
1000
0010
0100
0010
,  // measure 57
0100
0001
1000
1000
,  // measure 58
0000
0100
0100
0100
,  // measure 59
0010
0010
0100
0000
,  // measure 60
1000
1000
0001
0001
,  // measure 61
0100
0000
0020
0000
,  // measure 62
0130
0000
0000
0100
,  // measure 63
0001
0010
1000
0000
,  // measure 64
0001
0010
1000
0000
,  // measure 65
0001
0010
1000
0010
,  // measure 66
0001
0010
0100
0000
,  // measure 67
1000
0010
0001
0000
,  // measure 68
1000
0010
0001
0000
,  // measure 69
1000
0010
0200
0000
,  // measure 70
0301
0010
0100
0010
,  // measure 71
0100
1000
0100
1000
,  // measure 72
0001
0100
0010
0100
,  // measure 73
0010
1000
0010
1000
,  // measure 74
0001
0001
1000
1000
,  // measure 75
0001
0001
1000
1000
,  // measure 76
0100
0010
0100
0010
,  // measure 77
0200
0000
0000
0310
,  // measure 78
1001
1000
0100
0110
,  // measure 79
1001
0001
0100
0010
,  // measure 80
2000
0001
3002
1000
,  // measure 81
2003
0001
3002
1000
,  // measure 82
1003
0010
0001
0010
,  // measure 83
1000
0100
0001
0100
,  // measure 84
1001
0100
1000
0100
,  // measure 85
0001
0000
0010
0200
,  // measure 86
0000
0000
0000
0000
,  // measure 87
0000
0000
0000
0000
,  // measure 88
0000
0300
0000
0000
;
