#TITLE:平衡世界;
#SUBTITLE:;
#ARTIST:daisan;
#TITLETRANSLIT:Sekai no baransuwotoru;
#SUBTITLETRANSLIT:;
#ARTISTTRANSLIT:;
#GENRE:;
#CREDIT:;
#BANNER:bn.png;
#BACKGROUND:bg.png;
#LYRICSPATH:;
#CDTITLE:;
#MUSIC:music.mp3;
#OFFSET:1.480001;
#SAMPLESTART:98.619995;
#SAMPLELENGTH:12.599998;
#LASTBEATHINT:1.200002;
#SELECTABLE:YES;
#BPMS:0.000000=150.000000
;
#STOPS:
;
#BGCHANGES:3.667=bga.avi=1.000=0=0=1=====,
99999=-nosongbg-=1.000=0=0=0 // don't automatically add -songbackground-
;
#KEYSOUNDS:;
#ATTACKS:;

//---------------dance-single - ----------------
#NOTES:
     dance-single:
     :
     Hard:
     7:
     0.382965,0.488431,0.028071,0.070177,0.140354,368.000000,4.000000,10.000000,0.000000,0.000000,0.000000,0.382965,0.488431,0.028071,0.070177,0.140354,368.000000,4.000000,10.000000,0.000000,0.000000,0.000000:
// measure 0
0000
0000
0000
0000
,  // measure 1
0000
0000
0000
0000
,  // measure 2
0000
0000
0000
0000
,  // measure 3
0000
0000
0000
0000
,  // measure 4
0000
0000
0000
0000
,  // measure 5
0000
0000
0000
0000
,  // measure 6
0000
0000
0000
0000
,  // measure 7
0000
0000
0000
0000
,  // measure 8
0000
0000
0000
0000
,  // measure 9
0000
0000
0000
0000
,  // measure 10
0000
0000
0000
0000
,  // measure 11
1000
0000
0000
0100
0000
0000
0000
0000
0100
0000
0000
1000
0000
0000
0000
0000
,  // measure 12
0001
0000
0000
0100
0000
0000
0000
0000
0100
0000
0000
0001
0000
0000
0000
0000
,  // measure 13
0001
0000
0000
1000
0000
0000
0000
0000
1000
0000
0000
0001
0000
0000
0000
0000
,  // measure 14
0001
0000
0000
1000
0000
0000
0000
0000
0010
0000
0000
0100
0000
0000
0010
0000
,  // measure 15
0100
0000
0000
0001
0000
0000
1000
0000
0100
0000
0000
0010
0000
0000
0100
0000
,  // measure 16
1000
0000
0000
0010
0000
0000
0100
0000
0001
0000
0000
0010
0000
0000
0100
0000
,  // measure 17
1000
0000
0000
0001
0000
0000
1000
0000
0100
0000
0000
0010
0000
0000
0001
0000
,  // measure 18
0100
0000
0000
0010
0000
0000
1000
0000
0001
0000
0010
0000
0000
0000
0000
0000
,  // measure 19
0000
0000
0000
0000
,  // measure 20
0000
0000
0000
0000
,  // measure 21
0100
0000
0010
0000
0100
1000
0001
0000
,  // measure 22
0100
0000
0010
0000
0100
0001
1000
0000
,  // measure 23
0100
0000
0010
0000
0100
1000
0001
0000
,  // measure 24
0100
0010
0100
0001
0010
0100
1000
0000
,  // measure 25
0001
0000
0100
0000
0010
0100
0001
0000
,  // measure 26
0010
0000
0100
0000
1000
0010
0100
0000
,  // measure 27
0010
0000
1000
0000
0100
0010
0001
0000
,  // measure 28
0010
0100
1000
0001
0100
0010
0100
0000
,  // measure 29
0001
0000
0010
0000
1000
0010
0001
0000
,  // measure 30
0100
0000
1000
0000
0100
0001
1000
0000
,  // measure 31
0100
0000
0010
0000
0001
0100
0010
0000
,  // measure 32
1000
0100
0001
0100
1000
0010
0100
0000
,  // measure 33
0001
0000
0010
0000
0100
1000
0001
0000
,  // measure 34
0100
0000
0010
0000
0100
0001
0010
0000
,  // measure 35
0100
0000
1000
0000
0010
0100
0001
0000
,  // measure 36
0010
0100
1000
0001
0100
0010
1000
0000
,  // measure 37
0001
0000
0000
0100
0000
0000
1000
0000
0001
0000
0000
0010
0000
0000
1000
0000
,  // measure 38
0001
0000
0000
0000
0000
0000
0010
0100
0010
0000
0000
0001
0000
0000
1000
0000
,  // measure 39
0010
0000
0100
0001
0000
0100
0001
0000
,  // measure 40
0020
0030
0200
0300
,  // measure 41
1000
0000
0000
0010
0000
0000
1000
0000
0001
0000
0000
0010
0000
0000
0001
0000
,  // measure 42
0100
0000
0000
0000
0000
0000
0010
0000
1000
0000
0000
0010
0000
0000
0100
0000
,  // measure 43
0001
0000
0000
0000
0010
0000
0001
0000
0000
0000
0000
0010
0000
0000
0100
0000
,  // measure 44
1000
0001
0100
0010
,  // measure 45
1000
0000
0000
0100
0000
0000
1000
0000
0001
0000
0000
0100
0000
0000
0001
0000
,  // measure 46
0010
0000
0000
0000
0000
0000
0100
0000
1000
0000
0000
0001
0000
0000
0100
0000
,  // measure 47
0020
0000
0000
0000
1030
0000
0000
0001
,  // measure 48
0010
0000
0000
0001
0000
0000
0100
0000
0010
0000
0000
0000
1000
0000
0000
0000
,  // measure 49
0100
0000
0000
1000
0000
0000
0001
0000
0100
0000
0000
0000
0010
0000
0000
0000
,  // measure 50
1000
0000
0000
0000
0001
0000
0000
0000
0010
0000
0000
0100
0000
0000
1000
0000
,  // measure 51
0001
0000
0000
0000
0100
0000
0000
0000
0010
0000
0000
1000
0000
0000
0001
0000
,  // measure 52
0010
0100
1000
0001
,  // measure 53
0100
0000
0010
0000
,  // measure 54
1000
0000
0100
0000
,  // measure 55
0010
0000
0001
0000
,  // measure 56
1000
0000
0010
0000
,  // measure 57
0110
0100
0001
1000
,  // measure 58
0100
0010
0001
0100
,  // measure 59
0010
1000
0010
1000
0001
0010
0001
0010
,  // measure 60
0100
1000
0100
1000
0001
0100
0001
0100
,  // measure 61
0010
1000
0001
0010
0100
1000
0001
0100
,  // measure 62
0020
0000
0000
0030
,  // measure 63
1000
0000
0000
0100
0000
0000
1000
0000
0001
0000
0000
0000
0100
0000
0000
0000
,  // measure 64
0010
0000
0000
0000
1000
0000
0001
0000
1000
0000
0000
0100
0000
0000
0010
0000
,  // measure 65
0100
0000
0000
1000
0000
0000
0001
0000
0100
0000
0000
0000
0010
0000
0000
0000
,  // measure 66
0100
0000
0001
1000
0000
1000
0100
0000
,  // measure 67
0010
0001
0100
0010
0100
0001
1000
0000
,  // measure 68
0100
1000
0001
0100
0010
0100
0001
0000
,  // measure 69
0010
0100
1000
0001
0100
0010
0100
0000
,  // measure 70
0001
0000
0010
0000
0100
0001
1000
0010
,  // measure 71
0100
0000
0000
0100
1000
0000
0000
0000
0010
0000
0000
0100
0000
0000
0001
0000
,  // measure 72
1000
0000
0100
1000
0000
1001
0000
0001
,  // measure 73
0200
0310
0200
0301
,  // measure 74
0010
0000
0000
0011
0000
0000
0010
0000
0100
0000
0000
1100
0000
0000
1000
0000
,  // measure 75
0010
0000
0100
0000
0001
0100
0010
0100
,  // measure 76
0001
0000
1000
0000
0100
1000
0001
1000
,  // measure 77
0010
0100
0001
0010
0001
0100
0010
1000
,  // measure 78
0001
0000
0000
0000
0010
0000
0000
0000
0100
1000
0100
1000
0001
0000
0100
0000
,  // measure 79
0010
0000
1000
0010
0000
0000
0000
0000
,  // measure 80
0100
0000
0001
0100
0000
0000
0000
0000
,  // measure 81
0001
0000
1000
0001
0000
0000
0000
0000
,  // measure 82
0010
0000
0000
0100
0000
0000
0010
0000
0000
0000
0000
0000
0000
0000
0000
0000
,  // measure 83
0001
0010
0100
2000
0000
0000
3000
0000
,  // measure 84
1000
0010
0100
0002
0000
0000
0003
0000
,  // measure 85
0001
0010
0100
2000
0000
0000
3000
0000
,  // measure 86
0020
0000
0000
0000
,  // measure 87
0030
0000
0000
0000
;

//---------------dance-single - ----------------
#NOTES:
     dance-single:
     :
     Challenge:
     10:
     0.533345,0.854755,0.105265,0.189478,0.445623,490.000000,15.000000,27.000000,0.000000,0.000000,0.000000,0.533345,0.854755,0.105265,0.189478,0.445623,490.000000,15.000000,27.000000,0.000000,0.000000,0.000000:
0000
0000
0000
0000
,
0000
0000
0000
0000
,
0000
0000
0000
0000
,
0000
0000
0000
0000
,
0000
0000
0000
0000
,
0000
0000
0000
0000
,
0000
0000
0000
0000
,
0000
0000
0000
0000
,
0000
0000
0000
0000
,
0000
0000
0000
0000
,
0000
0000
0000
0000
,
0001
1000
0001
1000
0100
1000
0100
1000
,
0001
0010
0001
0010
0001
0100
0001
0100
,
0010
1000
0010
1000
0010
0100
0010
0100
,
0010
0001
0010
0001
0010
1000
0010
1000
,
0100
0000
0000
1000
0000
0000
0100
0000
0010
0000
0000
0100
0000
0000
1000
0000
,
0001
0000
0000
0100
0000
0000
0010
0000
0100
0000
0000
0001
0000
0000
0010
0000
,
0100
0000
0000
1000
0000
0000
0001
0000
0100
0000
0000
0010
0000
0000
1000
0000
,
0100
0000
0000
0010
0000
0000
0001
0000
1000
0000
0020
0000
0000
0000
0000
0000
,
0130
0000
0000
0000
,
0000
0000
0000
0000
,
0001
0000
0000
0001
0010
0000
0000
0001
0000
0000
0100
0000
0110
0000
0000
0000
,
1000
0000
0001
0000
0010
0000
0000
0100
0000
0000
0100
0000
0001
0100
0000
0000
,
0010
0000
0000
0010
0001
0000
0000
1000
0000
0000
1000
0000
1010
0000
0000
0000
,
0010
0100
0000
0010
0100
0000
0001
1000
0000
0001
1000
0000
0100
0010
0000
0100
,
0010
0000
0000
0001
0010
0000
0000
0100
0000
0000
1000
0000
1010
0000
0000
0000
,
0010
0000
1000
0000
0010
0000
0000
0100
0000
0000
0001
0000
0010
0100
0000
0000
,
1000
0000
0000
1000
0010
0000
0000
0100
0000
0000
0001
0000
0101
0000
0000
0000
,
0001
0010
0000
0001
0010
0000
0100
1000
0000
0100
1000
0000
0010
0100
0000
0001
,
1000
0100
0010
0001
0100
0010
0100
0001
,
0010
0000
0100
0000
1000
0000
0001
0000
0100
0000
0010
0000
1000
0001
0000
0000
,
0001
0010
0100
1000
0010
0100
0001
0010
,
0100
1000
0000
0100
1000
0000
0001
0100
0000
0001
0100
0000
0010
1000
0000
0010
,
1000
0001
0010
0001
0100
0010
0100
0001
,
1000
0000
0100
0000
0010
0000
0001
0000
1000
0000
0010
0000
0100
0001
0000
0000
,
0001
0010
0100
0010
0001
0100
0010
1000
,
0001
0010
0000
0001
0010
0000
0100
1000
0000
0100
1000
0000
0001
0100
0000
0010
,
1000
0000
0000
0100
0000
0000
1000
0000
0001
0000
0000
0100
0000
0000
0001
0000
,
2000
0000
0000
0000
3000
0000
0001
0010
0001
0000
0000
0100
0000
0000
0010
0000
,
2000
0000
0000
0000
0000
0000
0000
0000
0000
0000
0000
0000
3000
0000
0010
0100
,
0020
0000
0230
0000
,
0301
0000
0000
0010
0000
0000
0001
0000
1000
0000
0000
0010
0000
0000
2000
0000
,
0000
0000
0000
0000
3000
0000
0001
1000
0001
0000
0000
0010
0000
0000
0100
0000
,
2000
0000
0000
0000
0000
0000
0000
0000
3000
0000
0000
0001
0000
0000
1000
0000
,
0002
0000
0000
0000
,
1003
0000
0000
0010
0000
0000
1000
0000
0001
0000
0000
0010
0000
0000
0001
0000
,
2000
0000
0000
0000
3000
0000
0001
0100
0001
0000
0000
0100
0000
0000
0010
0000
,
2000
0000
0000
0000
0000
0000
0000
0000
0000
0000
0000
0000
3000
0000
0100
0010
,
0100
0000
0000
1000
0000
0000
0002
0000
0100
0000
0000
0000
1003
0000
0000
0000
,
0010
0000
0000
1000
0000
0000
0001
0000
0020
0000
0000
0000
0100
0000
0000
0000
,
0032
0000
0000
0000
0000
0000
0000
0000
1003
0000
0000
0010
0000
0000
0100
0000
,
0002
0000
0000
0000
0000
0000
0000
0000
0013
0000
0000
0100
0000
0000
1000
0000
,
0020
0000
0230
0000
,
0301
0000
0010
0000
,
0100
0000
1000
0000
,
0001
0000
0100
0000
,
0010
0000
1000
0000
,
1001
0001
0010
0100
,
1000
0010
0100
0001
,
1000
0100
0001
0100
1000
0010
0001
0010
,
1000
0100
0010
0001
1000
0010
0100
0001
,
0010
0100
0010
0100
1000
0001
1000
0001
1000
0010
0100
0001
0010
0100
1000
0001
,
0100
0000
0000
0000
0000
0000
0000
0000
0000
0010
1000
0001
0100
0010
0100
0001
,
1000
0000
0000
0010
0000
0000
0100
0000
0102
0000
0000
0000
0013
0000
0000
0000
,
0100
0000
0000
0000
1000
0000
0001
0010
0001
0000
0000
0100
0000
0000
0010
1000
,
0010
0000
0000
0100
0000
0000
0001
0000
1000
0000
0000
0000
0100
0000
0000
0000
,
0010
0001
0000
0010
0001
0000
1000
0010
0000
1000
0010
0000
0100
0001
0000
1000
,
0100
0000
0010
0000
0001
0000
0100
0000
1000
0000
0100
0000
0001
1000
0001
1000
,
0001
0000
0010
0000
0100
0000
1000
0000
0010
0000
0100
0000
0010
0001
0010
0001
,
0010
0000
1000
0000
0100
0000
1000
0000
0001
0000
0010
0000
0100
1000
0100
1000
,
0002
0000
0000
0000
0000
0000
0000
0000
0103
0000
0010
1000
0001
0010
0100
1000
,
0020
0000
0000
0000
0130
0000
0000
0000
0001
0000
0000
0010
0000
0000
0100
0000
,
2000
0000
0000
0000
3001
0000
0200
0000
0000
0000
0310
0000
0100
0000
0001
0100
,
0002
0013
0200
1300
,
1010
0000
0000
0110
0000
0000
0101
0000
1100
0000
0000
0110
0000
0000
0011
0000
,
1000
0000
0100
0000
0010
0000
0001
0000
1000
0010
1000
0010
0100
0001
0100
0001
,
1000
0000
0010
0000
0100
0000
0001
0000
0010
0001
0010
0001
1000
0100
1000
0100
,
1000
0010
0100
0001
1000
0010
0100
0001
1000
0100
0010
0001
1000
0100
0010
0001
,
1000
0010
0100
0001
0010
0100
1000
0010
0100
0001
0010
0100
1000
0001
0100
0010
,
1000
0100
0010
0001
2000
0000
3020
0000
,
0130
0000
0001
0000
0010
0000
0100
0000
1000
0010
0000
0000
0100
0001
0000
0000
,
0010
0001
0100
0010
2000
0000
3001
0000
,
0101
0000
0000
1001
0000
0000
1100
0000
0000
0000
0000
0000
0000
0000
0000
0000
,
1000
0100
0010
0001
0000
0000
0000
0000
,
1000
0010
0100
0001
0000
0000
0000
0000
,
0010
0100
1000
0001
0000
0000
0000
0000
,
0200
0000
0000
0000
,
0300
0000
0000
0000
;

//---------------dance-single - ----------------
#NOTES:
     dance-single:
     :
     Medium:
     5:
     0.288728,0.427377,0.007018,0.084212,0.007018,275.000000,1.000000,12.000000,0.000000,0.000000,0.000000,0.288728,0.427377,0.007018,0.084212,0.007018,275.000000,1.000000,12.000000,0.000000,0.000000,0.000000:
0000
0000
0000
0000
,
0000
0000
0000
0000
,
0000
0000
0000
0000
,
0000
0000
0000
0000
,
0000
0000
0000
0000
,
0000
0000
0000
0000
,
0000
0000
0000
0000
,
0000
0000
0000
0000
,
0000
0000
0000
0000
,
0000
0000
0000
0000
,
0000
0000
0000
0000
,
2000
3000
0002
0003
,
0200
0300
0020
0030
,
2000
3000
0200
0300
,
0020
0030
0002
0003
,
1000
0100
0010
0001
,
1000
0010
0100
0001
,
0010
0100
1000
0001
,
0100
0000
0010
0000
1000
0001
0000
0000
,
0000
0000
0000
0000
,
0000
0000
0000
0000
,
0010
0100
1000
0001
,
0100
0010
0100
0001
,
1000
0100
0010
0001
,
1000
0000
0010
0000
0100
0000
0001
1000
,
0100
0010
0100
1000
,
0010
0100
0001
0010
,
0001
1000
0100
0010
,
0001
0000
0100
0000
0010
0000
0100
0001
,
1000
0100
0001
1000
,
0010
0001
0100
0010
,
0100
0001
0010
0001
,
1000
0000
0010
0000
0100
0000
0001
0100
,
0010
1000
0100
1000
,
0001
0100
0010
0100
,
0001
0010
0100
1000
,
0001
0000
0100
0010
0000
0010
0100
0000
,
0001
0000
0000
0010
0001
0000
0000
0010
,
0001
0000
0000
1000
0100
0000
1000
0000
,
0010
0000
0100
0000
0001
0000
0010
0001
,
0100
0010
1000
0100
,
1000
0000
0000
0010
1000
0000
0000
0010
,
0100
0000
0000
0001
0010
0000
0100
0000
,
1000
0000
0001
0000
0100
0000
0000
0010
,
0100
0001
1000
0100
,
0010
0000
0000
0001
0010
0000
0000
0100
,
1000
0000
0000
0001
0100
0000
0010
0000
,
1000
0000
0000
0000
0100
0000
0000
0010
,
0001
0000
0100
0010
,
0100
0000
0001
0000
,
1000
0000
0100
0000
0010
0000
0000
0100
,
0010
0000
0001
0000
0100
0000
0000
0010
,
0100
0001
1000
0100
,
0010
0000
0001
0000
,
0100
0000
1000
0000
,
0001
0000
0010
0000
,
1000
0000
0100
0000
,
0110
0010
0001
1000
,
0010
0100
0001
1000
,
0100
1000
0100
0000
0010
0001
0010
0000
,
0001
0100
0001
0000
1000
0010
1000
0000
,
0010
0100
0010
0100
0001
1000
0001
1000
,
0002
0000
0000
0003
,
0010
0000
0001
0000
0000
0010
0001
0000
,
1000
0000
0100
0000
1000
0100
1000
0000
,
0010
0100
0010
0100
,
0001
0000
0000
1000
0000
0000
0100
0000
,
0010
0001
1000
0010
,
0100
0000
0001
0000
0010
0100
0010
0000
,
0001
1000
0010
0100
,
0001
0000
0010
0000
0100
1000
0100
0000
,
0010
0001
0100
0010
,
0100
0001
0010
0100
,
2000
3000
0002
0003
,
0100
0000
0000
0001
0000
0000
0100
0000
0010
0000
0000
1000
0000
0000
0010
0000
,
0100
0001
0010
0100
,
1000
0010
0100
0001
,
0010
0001
0010
0000
0100
1000
0100
0000
,
1000
0010
0100
0001
,
0010
0000
0001
0000
,
1000
0000
0100
0000
,
0010
0000
0001
0000
,
1000
0000
0000
0000
,
0010
0000
1000
0010
0000
0000
0000
0000
,
0100
0000
0001
0100
0000
0000
0000
0000
,
0001
0000
1000
0001
0000
0000
0000
0000
,
2000
0000
0000
0000
,
3000
0000
0000
0000
;

//---------------dance-single - ----------------
#NOTES:
     dance-single:
     :
     Easy:
     2:
     0.155392,0.181056,0.014035,0.049124,0.000000,146.000000,2.000000,7.000000,0.000000,0.000000,0.000000,0.155392,0.181056,0.014035,0.049124,0.000000,146.000000,2.000000,7.000000,0.000000,0.000000,0.000000:
0000
0000
0000
0000
,
0000
0000
0000
0000
,
0000
0000
0000
0000
,
0000
0000
0000
0000
,
0000
0000
0000
0000
,
0000
0000
0000
0000
,
0000
0000
0000
0000
,
0000
0000
0000
0000
,
0000
0000
0000
0000
,
0000
0000
0000
0000
,
0000
0000
0000
0000
,
0001
0000
0001
0000
,
1000
0000
1000
0000
,
0010
0000
0010
0000
,
0100
0000
0100
0000
,
0001
0000
0010
0000
,
0100
0000
1000
0000
,
0010
0000
0100
0000
,
0001
0000
1000
0000
,
0000
0000
0000
0000
,
0000
0000
0000
0000
,
0100
1000
0000
1000
,
0000
0010
0000
0100
,
0001
1000
0000
0100
,
0000
1000
0000
0010
,
0100
0001
0000
0010
,
0000
0100
0000
1000
,
0100
0010
0000
0001
,
0000
0100
0000
0010
,
1000
0000
0100
0000
,
1000
0100
1000
0000
,
0001
0000
0100
0000
,
0001
0100
0001
0000
,
0010
0000
0001
0000
,
0010
0001
0010
0000
,
0001
0000
1000
0000
,
0010
1000
0010
0000
,
0100
0000
0001
0000
,
0010
0000
0100
1000
,
0001
0000
0100
0000
,
0010
0000
1000
0000
,
0100
0000
0010
0000
,
0100
1000
0001
0000
,
0100
0000
0010
0000
,
1000
0000
0001
0000
,
0010
0000
0100
0000
,
1000
0100
1000
0000
,
0001
0000
0100
0000
,
0010
0000
1000
0000
,
0001
0000
0010
0000
,
0100
0000
1000
0001
,
0100
0000
0010
0000
,
1000
0000
0001
0000
,
0010
0000
0000
0000
,
0100
0000
0000
0000
,
1000
0000
0000
0000
,
0001
0000
0000
0000
,
0100
0000
0100
0000
,
0010
0000
0010
0000
,
1000
0000
0001
0000
,
0010
0000
0100
0000
,
1000
0010
0100
0001
,
0010
0000
0000
0000
,
0100
0000
1000
0000
,
0010
0000
0100
0000
,
0001
0000
0010
0000
,
0001
0000
0000
0000
,
0100
0000
0010
0000
,
1000
0000
0100
0000
,
0010
0000
0001
0000
,
1000
0000
0000
0000
,
0010
0000
0100
0000
,
0001
0000
0010
0000
,
0100
0000
1000
0000
,
1001
0000
0110
0000
,
0010
0000
1000
0000
,
0100
0000
0001
0000
,
0100
0000
1000
0000
,
0010
0000
0000
0000
,
0200
0000
0300
0000
,
0002
0000
0003
0000
,
0020
0000
0030
0000
,
0200
0000
0300
0000
,
2000
0000
3000
0000
,
0002
0000
0003
0000
,
0200
0000
0300
0000
,
0010
0000
0000
0000
;

//---------------dance-single - ----------------
#NOTES:
     dance-single:
     :
     Beginner:
     1:
     0.073184,0.120704,0.000000,0.042106,0.000000,67.000000,0.000000,6.000000,0.000000,0.000000,0.000000,0.073184,0.120704,0.000000,0.042106,0.000000,67.000000,0.000000,6.000000,0.000000,0.000000,0.000000:
0000
0000
0000
0000
,
0000
0000
0000
0000
,
0000
0000
0000
0000
,
0000
0000
0000
0000
,
0000
0000
0000
0000
,
0000
0000
0000
0000
,
0000
0000
0000
0000
,
0000
0000
0000
0000
,
0000
0000
0000
0000
,
0000
0000
0000
0000
,
0000
0000
0000
0000
,
0001
0000
0000
0000
,
1000
0000
0000
0000
,
0010
0000
0000
0000
,
0100
0000
0000
0000
,
0001
0000
0000
0000
,
0010
0000
0000
0000
,
0100
0000
0000
0000
,
1000
0000
0000
0000
,
0000
0000
0000
0000
,
0000
0000
0000
0000
,
1000
0000
0000
0000
,
0010
0000
0000
0000
,
0100
0000
0000
0000
,
0001
0000
0000
0000
,
0010
0000
0000
0000
,
0100
0000
0000
0000
,
1000
0000
0000
0000
,
0001
0000
0000
0000
,
0100
0000
0000
0000
,
0010
0000
0000
0000
,
1000
0000
0000
0000
,
0100
0000
0000
0000
,
0010
0000
0000
0000
,
0001
0000
0000
0000
,
1000
0000
0000
0000
,
0010
0000
0000
0000
,
0100
0000
0000
0000
,
0100
0000
0000
0000
,
0100
0000
0000
0000
,
0000
0000
0000
0000
,
0010
0000
0000
0000
,
0010
0000
0000
0000
,
0010
0000
0000
0000
,
0000
0000
0000
0000
,
1000
0000
0000
0000
,
1000
0000
0000
0000
,
1000
0000
0000
0000
,
0000
0000
0000
0000
,
0001
0000
0000
0000
,
0001
0000
0000
0000
,
0001
0000
0000
0000
,
0000
0000
0000
0000
,
0010
0000
0000
0000
,
0100
0000
0000
0000
,
1000
0000
0000
0000
,
0010
0000
0000
0000
,
0100
0000
0000
0000
,
0100
0000
0000
0000
,
0001
0000
0000
0000
,
0001
0000
0000
0000
,
2000
0000
0000
0000
,
3000
0000
0000
0000
,
1000
0000
0000
0000
,
0100
0000
0000
0000
,
1000
0000
0000
0000
,
0100
0000
0000
0000
,
0010
0000
0000
0000
,
0001
0000
0000
0000
,
0010
0000
0000
0000
,
0001
0000
0000
0000
,
1000
0000
0000
0000
,
0010
0000
0000
0000
,
1000
0000
0000
0000
,
0010
0000
0000
0000
,
0100
0000
0000
0000
,
0001
0000
0000
0000
,
0010
0000
0000
0000
,
1000
0000
0000
0000
,
0200
0000
0000
0000
,
0300
0000
0000
0000
,
0002
0000
0000
0000
,
0003
0000
0000
0000
,
0020
0000
0030
0000
,
0200
0000
0300
0000
,
2000
0000
3000
0000
,
0001
0000
0000
0000
;
