#TITLE:聖人の塔;
#SUBTITLE:;
#ARTIST:Beridzebeth;
#TITLETRANSLIT:Seijin no tou;
#SUBTITLETRANSLIT:;
#ARTISTTRANSLIT:;
#CREDIT:Blinded_No_More;
#BANNER:Seijin no tou.png;
#BACKGROUND:Seijin no tou-bg.png;
#LYRICSPATH:;
#CDTITLE:;
#MUSIC:Seijin no tou.mp3;
#OFFSET:-0.105;
#SAMPLESTART:19.870;
#SAMPLELENGTH:17.220;
#SELECTABLE:YES;
#BPMS:0.000=97.000,32.000=194.000,224.000=97.000,240.000=194.000,304.000=97.000;
#STOPS:;
#BGCHANGES:;

//---------------dance-single - ----------------
#NOTES:
     dance-single:
     :
     Hard:
     9:
     0.752,0.830,0.042,0.668,0.144: // measure 1
0000
0000
0000
0000
,  // measure 2
0000
0000
0000
0000
,  // measure 3
0000
0000
0000
0000
,  // measure 4
0000
0000
0000
0000
,  // measure 5
1100
0100
0010
0001
0010
0100
1000
0001
,  // measure 6
1000
0010
0100
0001
0100
0010
1000
0001
,  // measure 7
1000
0100
0010
0001
0100
0010
1000
0001
,  // measure 8
1000
0100
0001
0100
1000
1000
1000
1000
,  // measure 9
0001
0100
0010
1000
0001
0010
0100
1000
,  // measure 10
0001
0010
1000
0010
0001
0100
1000
0100
,  // measure 11
0001
0010
0100
0010
0001
0100
0010
0100
,  // measure 12
0001
0010
0100
1000
0100
0010
0001
1000
,  // measure 13
0001
0100
0010
1000
0001
0010
0100
1000
,  // measure 14
0001
0010
1000
0010
0001
0100
1000
0100
,  // measure 15
0010
1000
0100
0010
0100
1000
0010
0100
,  // measure 16
0001
0100
0010
1000
0010
0100
0001
1000
,  // measure 17
0002
0000
0013
0001
0100
0010
1000
0100
,  // measure 18
0010
0000
0000
0010
0001
0000
0100
0000
0010
0000
0000
0010
1000
0000
0001
0000
,  // measure 19
1000
0000
0000
1000
0100
0000
0010
0000
0001
0000
0100
0000
0010
0000
1000
0000
,  // measure 20
0002
0203
0320
1030
,  // measure 21
0001
0000
0010
0000
1000
0000
0010
0000
0001
1000
0001
0000
0100
0000
0010
0000
,  // measure 22
1000
0000
0100
0000
0001
0000
0100
0000
1000
0001
1000
0000
0010
0000
0100
0000
,  // measure 23
0001
0000
0000
0010
0000
0001
0100
0000
0001
0000
0010
0000
0100
0000
1000
0000
,  // measure 24
0001
0100
0010
1000
0001
1000
0100
0010
,  // measure 25
0001
0100
0010
0100
1000
0100
0010
0100
,  // measure 26
0001
0010
0100
0010
1000
0010
0100
0010
,  // measure 27
0001
0100
0001
0010
0001
0100
0001
1000
,  // measure 28
0010
1000
0100
1000
0001
1000
0100
1000
,  // measure 29
0010
0100
0001
0100
0010
1000
0100
0010
,  // measure 30
0001
0100
1000
0100
0001
0010
1000
0010
,  // measure 31
0001
0100
0010
1000
0100
0010
0001
0100
,  // measure 32
0001
0010
0100
1000
0010
0100
0001
1000
,  // measure 33
0002
0000
0013
0001
0100
0010
1000
0100
,  // measure 34
0010
0000
0000
0010
0001
0000
0100
0000
0010
0000
0000
0010
1000
0000
0001
0000
,  // measure 35
1000
0000
0000
1000
0100
0000
0010
0000
0001
0000
0100
0000
0010
0000
1000
0000
,  // measure 36
0002
0203
0320
1030
,  // measure 37
0001
0000
0010
0000
1000
0000
0010
0000
0001
1000
0001
0000
0100
0000
0010
0000
,  // measure 38
1000
0000
0100
0000
0001
0000
0100
0000
1000
0001
1000
0000
0010
0000
0100
0000
,  // measure 39
0001
0000
0000
0010
0000
0001
0100
0000
0001
0000
0010
0000
0100
0000
1000
0000
,  // measure 40
0001
0100
0010
1000
0001
1000
0100
0010
,  // measure 41
0012
0000
0103
0200
0000
0310
0020
0000
,  // measure 42
1030
2000
0000
3100
0200
0000
0310
0020
,  // measure 43
0000
0031
0002
0000
0103
0200
0000
0310
,  // measure 44
0020
0000
1030
2000
0000
3001
0001
0000
,  // measure 45
0102
0000
1003
2000
0000
3100
0200
0000
,  // measure 46
0310
0020
0000
0031
0002
0000
0103
0200
,  // measure 47
0000
1300
2000
0000
3100
0200
0000
0301
,  // measure 48
0002
0000
0013
0020
0000
0130
0100
0000
,  // measure 49
2100
0000
3010
0020
0000
0031
0002
0000
,  // measure 50
0103
0200
0000
1300
2000
0000
3010
0020
,  // measure 51
0000
0031
0002
0000
0103
0200
0000
1300
,  // measure 52
2000
0000
3010
0020
0000
0130
0100
0000
,  // measure 53
0102
0000
0013
0020
0000
1030
2000
0000
,  // measure 54
3100
0200
0000
0301
0002
0000
0013
0020
,  // measure 55
0000
1030
2000
0000
3100
0200
0000
0301
,  // measure 56
0002
0000
1003
2000
0000
3010
0020
0030
,  // measure 57
2000
0000
0000
3002
0000
0000
0203
0000
0000
0320
0000
0000
0230
0000
0302
0000
,  // measure 58
2003
0000
0000
3200
0000
0000
0320
0000
0000
0230
0000
0000
2300
0000
3001
0100
,  // measure 59
0020
0000
0000
0000
0130
0000
0000
0000
0002
0000
0000
0203
0000
0000
0320
0000
,  // measure 60
2030
0000
0000
3200
0000
0000
0320
0000
0032
0000
0003
0000
1000
0010
0100
0000
,  // measure 61
0001
0010
0100
0010
1000
0010
0100
0010
,  // measure 62
0001
0100
0010
0100
1000
0100
0010
0100
,  // measure 63
0001
0010
0100
1000
0001
0100
0010
1000
,  // measure 64
0001
0010
1000
0010
0001
0100
1000
0100
,  // measure 65
0001
0010
0100
1000
0100
0010
0001
0100
,  // measure 66
0010
1000
0010
0100
0001
0010
1000
0010
,  // measure 67
0001
0100
0010
1000
0100
0001
0100
1000
,  // measure 68
0010
0100
0001
0010
0100
1000
0001
1000
,  // measure 69
0010
0020
0000
0130
0200
0000
0301
0002
,  // measure 70
0000
1003
2000
0000
3100
0200
0000
0310
,  // measure 71
0020
0000
0031
0002
0000
0103
0200
0000
,  // measure 72
0310
0020
0000
1030
2000
0000
3001
0001
,  // measure 73
1000
0010
0010
1000
0001
0001
1000
0100
,  // measure 74
0100
1000
0001
0001
1000
0010
0010
0100
,  // measure 75
0001
0001
0010
0001
0001
1000
0010
0010
,  // measure 76
1000
0010
1000
0000
0001
0010
0001
0000
1000
0100
1000
0000
0001
0100
0001
0000
,  // measure 77
1000
0000
1000
0000
0010
0000
0010
0000
0100
0001
0100
0001
1000
0010
1000
0010
,  // measure 78
0100
0000
0100
0000
0010
0000
0010
0000
1000
0100
1000
0100
0010
0001
0010
0001
,  // measure 79
2000
0000
3000
0000
;

//---------------dance-single - ----------------
#NOTES:
     dance-single:
     :
     Easy:
     5:
     0.340,0.365,0.008,0.051,0.000: // measure 1
0000
0000
0000
0000
,  // measure 2
0000
0000
0000
0000
,  // measure 3
0000
0000
0000
0000
,  // measure 4
0000
0000
0000
0000
,  // measure 5
1000
0100
0010
0001
,  // measure 6
0010
0100
1000
0001
,  // measure 7
1000
0010
0100
0001
,  // measure 8
0100
0000
0010
0000
1000
1000
1000
1000
,  // measure 9
0001
0010
0100
1000
,  // measure 10
0100
0010
0001
1000
,  // measure 11
0001
0100
0010
1000
,  // measure 12
0010
0100
0001
1000
,  // measure 13
0001
0010
1000
0010
,  // measure 14
0100
1000
0001
1000
,  // measure 15
0001
0100
1000
0100
,  // measure 16
0010
1000
0001
1000
,  // measure 17
0002
0003
0010
0100
,  // measure 18
1000
1000
0010
0010
,  // measure 19
0100
0001
1000
0001
,  // measure 20
0010
0010
0100
0100
,  // measure 21
1000
0100
0010
0001
,  // measure 22
1000
0010
0100
0001
,  // measure 23
1000
0100
0001
0100
,  // measure 24
1000
0010
0001
0010
,  // measure 25
1000
1000
0010
0010
,  // measure 26
0100
0100
0001
0001
,  // measure 27
1000
1000
0100
0100
,  // measure 28
0010
0010
0001
0001
,  // measure 29
1000
1000
0100
0100
,  // measure 30
0001
0001
0100
0100
,  // measure 31
1000
1000
0010
0010
,  // measure 32
0001
0001
0010
0010
,  // measure 33
2000
3000
0100
0010
,  // measure 34
0001
0001
0100
0100
,  // measure 35
0010
1000
0001
1000
,  // measure 36
0100
0100
0010
0010
,  // measure 37
0001
0010
0100
1000
,  // measure 38
0001
0100
0010
1000
,  // measure 39
0001
0010
1000
0010
,  // measure 40
0001
0100
1000
0100
,  // measure 41
0001
0000
0000
0010
0000
0000
0100
0000
,  // measure 42
0000
1000
0000
0000
0010
0000
0000
0100
,  // measure 43
0000
0000
0001
0000
0000
1000
0000
0000
,  // measure 44
0100
0000
0000
0010
0000
0000
0001
0000
,  // measure 45
1000
0000
0000
0010
0000
0000
0100
0000
,  // measure 46
0000
0001
0000
0000
0100
0000
0000
0010
,  // measure 47
0000
0000
1000
0000
0000
0100
0000
0000
,  // measure 48
0010
0000
0000
0001
0000
0000
1000
0000
,  // measure 49
0001
0000
0000
0100
0000
0000
1000
0000
,  // measure 50
0000
0100
0000
0000
0001
0000
0000
1000
,  // measure 51
0000
0000
0010
0000
0000
0001
0000
0000
,  // measure 52
0010
0000
0000
1000
0000
0000
0001
0000
,  // measure 53
1000
0000
0000
0100
0000
0000
0001
0000
,  // measure 54
0000
0100
0000
0000
0010
0000
0000
0001
,  // measure 55
0000
0000
1000
0000
0000
0010
0000
0000
,  // measure 56
0001
0000
0000
0010
0000
0000
0100
0000
,  // measure 57
0001
0100
0010
1000
,  // measure 58
0001
0010
0100
1000
,  // measure 59
0002
0003
1000
1000
,  // measure 60
0010
0000
0010
0000
0200
0000
0001
0301
,  // measure 61
1000
0100
0001
0100
,  // measure 62
1000
1000
1000
1000
,  // measure 63
0001
0100
1000
0100
,  // measure 64
0001
0001
0001
0001
,  // measure 65
1000
0010
0001
0010
,  // measure 66
1000
1000
1000
1000
,  // measure 67
0001
0010
1000
0010
,  // measure 68
0001
0001
0001
0001
,  // measure 69
1000
0000
0000
1000
0000
0000
0010
0000
,  // measure 70
0000
0010
0000
0000
0100
0000
0000
0100
,  // measure 71
0000
0000
0001
0000
0000
0001
0000
0000
,  // measure 72
1000
0000
0000
1000
0000
0000
1000
0000
,  // measure 73
0001
0010
0100
1000
,  // measure 74
0100
0010
0001
1000
,  // measure 75
0001
0100
0010
1000
,  // measure 76
0010
0000
0100
0000
0001
1000
0001
1000
,  // measure 77
0001
0100
0010
1000
,  // measure 78
0001
0010
0100
1000
,  // measure 79
2002
0000
3003
0000
;

//---------------dance-single - ----------------
#NOTES:
     dance-single:
     :
     Medium:
     7:
     0.545,0.598,0.008,0.102,0.025: // measure 1
0000
0000
0000
0000
,  // measure 2
0000
0000
0000
0000
,  // measure 3
0000
0000
0000
0000
,  // measure 4
0000
0000
0000
0000
,  // measure 5
1000
1000
0100
0100
0010
0010
0001
0001
,  // measure 6
1000
1000
0010
0010
0100
0100
0001
0001
,  // measure 7
1000
1000
0100
0100
0001
0001
0100
0100
,  // measure 8
1000
1000
0010
0010
0001
0001
0001
0001
,  // measure 9
0010
1000
0100
0010
,  // measure 10
0001
0100
0001
0000
1000
0100
1000
0000
,  // measure 11
0001
0010
0100
1000
,  // measure 12
0001
0010
0001
0000
1000
0010
1000
0000
,  // measure 13
0001
0010
0100
1000
,  // measure 14
0001
0100
0010
0000
1000
0010
0100
0000
,  // measure 15
0001
0010
0100
1000
,  // measure 16
0001
0100
0010
1000
0010
0100
0001
1000
,  // measure 17
0002
0000
1003
0000
0100
0000
0010
0001
,  // measure 18
0010
0000
0010
0100
0010
0000
0010
1000
,  // measure 19
0010
0000
0010
0100
0010
0001
0100
0010
,  // measure 20
2000
3020
0230
0301
,  // measure 21
1000
0100
1000
0000
1000
1000
1000
0000
,  // measure 22
0001
0100
0001
0000
0001
0001
0001
0000
,  // measure 23
1000
0010
1000
0010
0100
0001
0100
0001
,  // measure 24
1000
0100
1000
0100
0010
0001
0010
0001
,  // measure 25
1000
0010
0000
0010
0000
0100
0000
0100
,  // measure 26
0000
0001
0000
0001
0000
1000
0100
1000
,  // measure 27
0000
0001
0000
0001
0000
0010
0000
0010
,  // measure 28
0000
0100
0000
0100
0000
1000
0010
1000
,  // measure 29
0000
0010
0000
0010
0000
0100
0000
0100
,  // measure 30
0000
0001
0000
0001
0000
0010
0001
0010
,  // measure 31
0000
0001
0000
0001
0000
0100
0000
0100
,  // measure 32
0000
0010
0000
0010
0000
1000
0100
1000
,  // measure 33
0002
0000
1003
0000
0100
0000
0010
0001
,  // measure 34
0010
0000
0010
0100
0010
0000
0010
1000
,  // measure 35
0010
0000
0010
0100
0010
0001
0100
0010
,  // measure 36
2000
3020
0230
0301
,  // measure 37
1000
0100
1000
0000
1000
1000
1000
0000
,  // measure 38
0001
0100
0001
0000
0001
0001
0001
0000
,  // measure 39
1000
0010
1000
0010
0100
0001
0100
0001
,  // measure 40
1000
0100
1000
0100
0010
0001
0010
0001
,  // measure 41
1000
0000
1000
0100
0000
0100
0010
0000
,  // measure 42
0010
0001
0000
0001
0100
0000
0100
0010
,  // measure 43
0000
0010
1000
0000
1000
0001
0000
0001
,  // measure 44
0100
0000
0100
0010
0000
0010
1000
0000
,  // measure 45
0001
0000
0001
0010
0000
0010
0100
0000
,  // measure 46
0100
1000
0000
1000
0010
0000
0010
0100
,  // measure 47
0000
0100
0001
0000
0001
1000
0000
1000
,  // measure 48
0100
0000
0100
0010
0000
0010
0001
1000
,  // measure 49
0001
0000
0001
0100
0000
0100
1000
0000
,  // measure 50
1000
0100
0000
0100
0001
0000
0001
0010
,  // measure 51
0000
0010
1000
0000
1000
0010
0000
0010
,  // measure 52
0001
0000
0001
0100
0000
0100
0010
0000
,  // measure 53
1000
0000
1000
0100
0000
0100
0001
0000
,  // measure 54
0001
0100
0000
0100
1000
0000
1000
0010
,  // measure 55
0000
0010
0001
0000
0001
0010
0000
0010
,  // measure 56
1000
0000
1000
0001
0000
0001
0100
0000
,  // measure 57
0010
0000
0000
0100
0000
0000
0001
0000
0000
1000
0000
0000
0100
0000
0010
0000
,  // measure 58
0100
0000
0000
1000
0000
0000
0010
0000
0000
0100
0000
0000
0001
0000
1000
0000
,  // measure 59
0200
0000
0000
0000
0310
0000
0000
0000
0100
0000
0000
1000
0000
0000
0010
0000
,  // measure 60
0100
0000
0000
0001
0000
0000
1000
0000
0200
0000
0000
0000
0010
0000
0310
0000
,  // measure 61
0100
1000
0100
1000
0100
1000
0100
0000
,  // measure 62
0010
0001
0010
0001
0010
0001
0010
0000
,  // measure 63
0001
0100
0001
0100
0001
0100
0001
0000
,  // measure 64
1000
0010
1000
0010
1000
0010
1000
0000
,  // measure 65
0001
0010
0100
0010
0001
0010
0100
0000
,  // measure 66
1000
0010
0100
0010
1000
0010
0100
0000
,  // measure 67
0001
1000
0100
1000
0001
1000
0100
0000
,  // measure 68
0010
0001
1000
0001
0010
0001
1000
0000
,  // measure 69
0001
0100
0000
0100
0010
0000
0010
0100
,  // measure 70
0000
0100
0001
0000
0001
0010
0000
0010
,  // measure 71
0100
0000
0100
0010
0000
0010
0001
0000
,  // measure 72
0001
0100
0000
0100
0010
0000
0010
1000
,  // measure 73
0000
1000
0100
0000
0100
0010
0000
0010
,  // measure 74
0001
0000
0001
0100
0000
0100
0010
0000
,  // measure 75
0010
1000
0000
1000
0100
0000
0100
0010
,  // measure 76
0001
0100
1000
0100
0001
0010
1000
0010
,  // measure 77
0001
0100
0010
1000
0010
0100
0001
0001
,  // measure 78
1000
0100
0010
0001
0010
0100
1000
1000
,  // measure 79
2002
0000
3003
0000
;
