#VERSION:0.81;
#TITLE:凍える水晶の海;
#SUBTITLE:;
#ARTIST:阿部 公弘;
#TITLETRANSLIT:Sea of Frozen Crystals;
#SUBTITLETRANSLIT:;
#ARTISTTRANSLIT:Kimihiro Abe;
#GENRE:;
#ORIGIN:;
#CREDIT:;
#BANNER:[Moon Runes] - Sea of Frozen Crystals-bn.png;
#BACKGROUND:[Moon Runes] - Sea of Frozen Crystals-bg.png;
#PREVIEWVID:;
#JACKET:[Moon Runes] - Sea of Frozen Crystals-jacket.png;
#CDIMAGE:;
#DISCIMAGE:;
#LYRICSPATH:;
#CDTITLE:cdtitle.png;
#MUSIC:[Moon Runes] - Sea of Frozen Crystals.ogg;
#OFFSET:-0.344;
#SAMPLESTART:93.675;
#SAMPLELENGTH:13.000;
#SELECTABLE:YES;
#BPMS:0.000=144.000,
172.000=72.000,
188.000=144.000;
#STOPS:;
#DELAYS:;
#WARPS:;
#TIMESIGNATURES:0.000=4=4;
#TICKCOUNTS:0.000=4;
#COMBOS:0.000=1;
#SPEEDS:0.000=1.000=0.000=0;
#SCROLLS:0.000=1.000;
#FAKES:;
#LABELS:0.000=Song Start;
#BGCHANGES:;
#KEYSOUNDS:;
#ATTACKS:
;

//---------------dance-single - ----------------
#NOTEDATA:;
#CHARTNAME:;
#STEPSTYPE:dance-single;
#DESCRIPTION:;
#CHARTSTYLE:;
#DIFFICULTY:Hard;
#METER:8;
#RADARVALUES:0.524,0.525,0.052,0.411,0.134,429.000,7.000,55.000,0.000,0.000,0.000,0.000,0.000,0.524,0.525,0.052,0.411,0.134,429.000,7.000,55.000,0.000,0.000,0.000,0.000,0.000;
#CREDIT:;
#NOTES:
0000
0000
0000
0000
,
0000
0000
0000
0000
,
1000
0001
1000
0001
,
1000
0001
1000
0001
,
1000
0010
0100
0000
0001
0010
0100
0000
,
0010
0001
0100
0000
0010
1000
0100
0000
,
0220
0000
0000
0000
,
0000
0000
0000
0000
,
0330
0000
0000
0000
,
0012
0000
0000
0000
1003
0000
0010
0000
0100
0000
0000
0001
0000
0000
1000
0000
,
0200
0000
0010
0000
1300
0001
0100
0010
,
0100
0000
0001
0000
0010
0000
1000
0000
0020
0000
0000
0130
1000
0000
0002
0000
,
0000
1003
0020
0000
0000
0000
0000
1030
0002
0000
0000
0000
1003
0000
0100
0000
,
2100
0000
0000
0000
3001
0000
0100
0000
0010
0000
0000
1000
0000
0000
0001
0000
,
0020
0000
0100
0000
0031
1000
0010
0100
,
0010
0000
1000
0000
0100
0000
0001
0000
0200
0000
0000
0310
0001
0000
2000
0000
,
0000
3001
0200
0000
0320
0000
1030
0001
,
2000
0000
0000
0000
3010
0000
0100
0000
0001
0000
0000
1000
0000
0000
0001
0000
,
0020
0000
0100
0000
0031
0010
1000
0010
,
0001
0000
0100
0000
0010
0000
0100
0000
0002
0000
0000
1003
0100
0000
0020
0000
,
0000
0130
2000
0000
0000
0000
0000
3001
2000
0000
0000
0000
3010
0000
1000
0000
,
0002
0000
0000
0000
0103
0000
0010
0000
1000
0000
0000
0001
0000
0000
1000
0000
,
0200
0000
0000
0000
0010
0000
0000
0000
1300
0001
1000
0010
0100
0000
0010
0000
,
0100
0000
0001
0000
0010
0000
0100
0000
0020
0000
0000
0031
0100
0000
0020
0000
,
0000
0230
0000
0301
2000
0000
3001
0010
,
0100
1000
0001
0000
0100
0001
1000
0000
,
0100
1000
0001
0000
0100
0010
0100
0001
,
0010
0001
1000
0000
0010
1000
0001
0000
,
0010
0001
1000
0000
0010
1000
0100
0010
,
0100
1000
0010
0000
0100
0001
0010
0000
,
0100
1000
0010
0000
0100
0010
1000
0100
,
0010
0001
0100
0000
0010
1000
0100
0000
,
0010
0001
0100
1000
0100
0010
1000
0100
,
0020
0000
0000
0000
0031
0000
1000
0000
0010
0000
0000
0110
0000
0000
0100
0000
,
0002
0000
1000
0000
0103
0010
1000
0100
,
0010
0000
0001
0000
0100
0000
1000
0000
0100
0000
0000
0010
0100
0000
0020
0000
,
0000
1030
0200
0000
0000
0000
0000
0310
0002
0000
0000
0000
1003
0000
0010
0000
,
2000
0000
0000
0000
3100
0000
0010
0000
0001
0000
0000
0101
0000
0000
0100
0000
,
0020
0000
1000
0000
0130
0010
1000
0001
,
0010
0000
1000
0000
0010
0000
0001
0000
2000
0000
0000
3010
0100
0000
0010
0000
,
0000
1000
0001
0000
0010
0000
0001
0100
,
0220
0000
0000
0000
,
0000
0000
0000
0330
,
0010
0000
1000
0000
0001
0000
0100
0010
2000
0000
0000
3001
0020
0000
0000
0000
,
0031
0000
0100
0000
0020
0000
0000
1030
0002
0000
0000
1003
0010
0000
0100
0000
,
0001
0000
0010
0000
0100
0000
1000
0000
0001
0000
0000
0100
0000
0000
0001
0000
,
1000
0100
0010
0001
1000
0010
0100
0001
,
1000
0100
0010
0100
0000
0010
0001
0000
,
1000
0010
0100
0001
0010
0100
0010
0000
,
0002
0000
0100
0000
0103
0010
1000
0001
,
0010
1000
0010
0001
0100
0010
1000
0100
,
0010
0001
0010
0100
1000
0010
0001
0010
,
1000
0000
0000
0001
0100
0000
0001
0000
0010
0100
0000
0000
0010
0000
0100
0000
,
1000
0000
0000
0010
0000
0000
0200
0000
0000
0000
0302
0000
0000
0000
1003
0000
,
0001
0000
0000
0010
0100
0000
1000
0000
0010
0100
0000
0000
0010
0000
1000
0000
,
0001
0010
0100
0000
1000
0010
0100
0000
,
0001
0000
0000
1000
0100
0000
0010
0000
0001
0100
0000
0000
0010
0000
0100
0000
,
0001
0000
0010
0100
0000
1100
0000
1000
,
0001
0000
0000
0000
0100
0000
0010
0000
0000
0000
1000
0000
0001
0000
1000
0100
,
2000
3020
0230
0302
,
1003
0100
0010
0001
0100
0010
0100
0000
,
0001
0000
0000
0010
0000
0000
0001
0000
1000
0000
0000
0000
0010
0000
0000
0000
,
0100
0001
0010
0100
1000
0010
0100
0010
,
1000
0000
0000
0100
0010
0000
0001
0000
0100
0000
0000
0000
0010
0000
1000
0000
,
0001
0000
1000
0010
2000
0000
3200
0000
,
0320
0032
0023
0230
,
2300
0000
0000
0000
3010
0000
0100
0000
0000
0000
0001
0000
1000
0100
1000
0000
,
0010
0100
0001
0000
0010
0100
1000
0000
,
0001
0100
0010
0100
0001
1000
0100
1000
,
0001
0010
1000
0010
0001
1000
0100
0010
,
0100
1000
0010
0100
0001
0010
0100
1000
,
0010
0100
0001
1000
0100
0010
0001
0100
,
0020
0000
0000
0000
,
0000
0000
0000
0000
,
0030
0000
0000
0000
;

//---------------dance-single - ----------------
#NOTEDATA:;
#CHARTNAME:;
#STEPSTYPE:dance-single;
#DESCRIPTION:;
#CHARTSTYLE:;
#DIFFICULTY:Medium;
#METER:5;
#RADARVALUES:0.353,0.359,0.142,0.142,0.000,293.000,19.000,19.000,0.000,0.000,0.000,0.000,0.000,0.353,0.359,0.142,0.142,0.000,293.000,19.000,19.000,0.000,0.000,0.000,0.000,0.000;
#CREDIT:;
#NOTES:
0000
0000
0000
0000
,
0000
0000
0000
0000
,
1000
0001
1000
0001
,
1000
0001
1000
0001
,
1000
0010
1000
0000
0010
0100
0010
0000
,
0100
0001
0100
0000
0001
1000
0001
0000
,
2002
0000
0000
0000
,
0000
0000
0000
0000
,
3003
0000
0000
0000
,
0002
0000
0000
0000
0103
0000
0010
1000
,
0200
0000
0000
0000
1300
0010
1000
0001
,
0010
0000
0100
0000
1000
0000
0001
0100
,
0000
0010
0000
0000
0100
0000
0010
0000
,
2000
0000
0000
0000
3010
0000
0100
0001
,
0020
0000
0000
0000
0031
0100
0001
0010
,
0100
0000
1000
0010
0100
0000
0001
1000
,
0000
0001
0100
0000
0110
0000
1010
0000
,
1002
0000
0000
0000
0103
0000
0010
1000
,
0200
0000
0000
0000
0310
0100
1000
0001
,
1000
0000
0010
0100
0001
0000
1000
0100
,
0000
0010
0000
0000
0110
0000
0011
0000
,
2001
0000
0000
0000
3100
0000
0010
0001
,
0200
0000
0000
0000
0310
1000
0010
0100
,
0001
0000
1000
0100
0010
0000
0100
1000
,
0000
1001
0000
0000
0001
0000
0100
0000
,
0001
0010
1000
0100
,
0001
0010
0100
1000
,
0001
0100
1000
0010
,
0001
0100
0010
1000
,
0001
0010
0100
1000
,
0100
0010
0001
1000
,
0001
0100
0010
1000
,
0010
0100
0001
1000
,
2001
0000
0000
0000
3010
0000
0100
0001
,
0020
0000
0000
0000
0130
1000
0100
0010
,
0001
0000
1000
0000
0010
0000
0100
0001
,
0000
1000
0000
0000
1010
0000
0101
0000
,
1002
0000
0000
0000
0013
0000
0100
1000
,
0020
0000
0000
0000
1030
0001
0100
0010
,
0100
0000
0001
0010
0100
0000
1000
0001
,
0000
1000
0010
0000
0110
0000
0101
0000
,
2002
0000
0000
0000
,
0000
0000
0000
3003
,
0001
0010
0100
0000
1000
0000
0001
0000
,
1000
0010
0100
0000
0001
0000
1000
0001
,
1000
0100
0010
0001
1000
0000
1001
0000
,
0001
0100
0001
0100
0010
1000
0010
1000
,
0001
0000
0000
0011
0000
0000
1001
0000
,
0000
1010
0010
1000
,
0200
0000
0000
0000
,
0310
0001
1000
0001
,
0100
0010
1000
0100
,
0010
0000
0001
0100
0000
0010
1000
0000
,
0001
0000
0010
0000
0100
1000
0001
0000
,
1000
0000
0010
0100
0000
0010
0000
0100
,
0001
1000
0001
0100
,
0010
0000
1000
0100
0000
0010
0001
0000
,
1000
0000
0010
0100
0000
0020
0000
0000
,
1030
0000
0001
0100
0000
0001
1000
0000
,
0001
0010
0100
1000
,
0001
0000
1000
0010
0000
0000
1000
0000
,
0001
0010
0001
0100
,
0010
0000
1000
0100
0000
0010
0000
0100
,
1000
0000
0010
0000
0100
0000
0001
1000
,
0001
0010
0001
1000
,
0001
0100
0010
1000
,
0001
0000
1000
0100
0000
0000
1000
0001
,
1000
0010
0100
0001
,
1000
0000
0100
0000
1000
0010
0100
0000
,
0001
1000
0100
1000
,
0001
0000
0100
0000
0001
0010
0100
0000
,
1000
0001
0100
0001
,
2000
0000
0000
0000
,
0000
0000
0000
0000
,
3000
0000
0000
0000
;

//---------------dance-single - ----------------
#NOTEDATA:;
#CHARTNAME:;
#STEPSTYPE:dance-single;
#DESCRIPTION:;
#CHARTSTYLE:;
#DIFFICULTY:Easy;
#METER:3;
#RADARVALUES:0.248,0.221,0.015,0.142,0.000,211.000,2.000,19.000,0.000,0.000,0.000,0.000,0.000,0.248,0.221,0.015,0.142,0.000,211.000,2.000,19.000,0.000,0.000,0.000,0.000,0.000;
#CREDIT:;
#NOTES:
0000
0000
0000
0000
,
0000
0000
0000
0000
,
1000
0001
1000
0001
,
1000
0001
1000
0001
,
1000
0010
1000
0010
,
0100
0001
0100
0001
,
2002
0000
0000
0000
,
0000
0000
0000
0000
,
3003
0000
0000
0000
,
2000
0000
3100
0100
,
0020
0000
0030
0001
,
1000
1000
0001
0001
,
0100
0000
0100
0000
,
0002
0000
0013
0010
,
0200
0000
0300
1000
,
0001
0001
1000
1000
,
0010
0000
0100
0100
,
0002
0000
1003
0010
,
2000
0000
3000
0001
,
0010
0010
0100
0100
,
1000
0000
0001
0001
,
2000
0000
3001
0010
,
0001
0000
0000
1000
,
0001
0001
0100
0100
,
0001
0000
1000
0001
,
1000
1000
0100
0100
,
1000
1000
0100
0010
,
0001
0001
0010
0010
,
0001
0001
0010
0001
,
1000
1000
0010
0010
,
1000
1000
0010
0100
,
0001
0001
0100
0100
,
0001
0100
0001
1000
,
0002
0000
1003
1000
,
0200
0000
0300
1000
,
0010
0100
0010
0100
,
0001
0000
0001
0000
,
2000
0000
3001
0001
,
0200
0000
0300
0001
,
0010
0100
0010
0100
,
1000
0001
1000
0000
,
2002
0000
0000
0000
,
0000
0000
0000
3003
,
0001
0001
2000
3000
,
1000
1000
0002
0003
,
1000
0100
1000
0001
,
1000
0010
0100
0001
,
1000
0000
1000
0000
,
0001
0100
0001
0000
,
2000
0000
0000
3000
,
0001
0100
0001
0000
,
1000
0100
1000
0000
,
0001
0001
0100
0000
,
0001
0010
0001
0010
,
0100
0000
1000
0100
,
1000
0000
0001
0000
,
1000
1000
0010
0000
,
1000
0100
1000
0100
,
0010
0000
0001
0000
,
1000
0010
0100
0001
,
1000
0000
0001
0000
,
1000
0100
1000
0000
,
0001
0000
0001
0100
,
0001
0000
1000
0000
,
0100
0000
0010
0100
,
0010
0001
0010
0001
,
1000
0000
0001
0000
,
1000
0100
0010
0001
,
1000
1000
0010
0010
,
1000
1000
0010
1000
,
0001
0001
0100
0100
,
0001
0001
0100
0001
,
0002
0000
0000
0000
,
0000
0000
0000
0000
,
0003
0000
0000
0000
;

//---------------dance-single - ----------------
#NOTEDATA:;
#CHARTNAME:;
#STEPSTYPE:dance-single;
#DESCRIPTION:;
#CHARTSTYLE:;
#DIFFICULTY:Challenge;
#METER:7;
#RADARVALUES:0.478,0.442,0.560,0.344,0.026,327.000,75.000,46.000,0.000,0.000,0.000,0.000,0.000,0.478,0.442,0.560,0.344,0.026,327.000,75.000,46.000,0.000,0.000,0.000,0.000,0.000;
#CREDIT:;
#NOTES:
// measure 0
0000
0000
0000
0000
,  // measure 1
0000
0000
0000
0000
,  // measure 2
1000
0001
1000
0001
,  // measure 3
1000
0001
1000
0001
,  // measure 4
1000
0001
0100
0000
0001
1000
0100
0000
,  // measure 5
1000
0001
0010
0000
0001
1000
0010
0000
,  // measure 6
0220
0000
0000
0000
,  // measure 7
0000
0000
0000
0000
,  // measure 8
0330
0000
0000
0000
,  // measure 9
2010
0000
0000
0000
0000
0000
3010
0000
0100
0000
0000
0001
0000
0000
1000
0000
,  // measure 10
2100
0000
0000
0000
0000
3001
0100
0010
,  // measure 11
0100
0001
1000
0100
0010
0000
0001
0100
,  // measure 12
0000
0010
0000
0000
1000
0000
0001
0000
,  // measure 13
0102
0000
0000
0000
0000
0000
0103
0000
0010
0000
0000
1000
0000
0000
0001
0000
,  // measure 14
0012
0000
0000
0000
0000
1003
0010
0100
,  // measure 15
0010
1000
0100
0010
0100
0000
0010
0001
,  // measure 16
0000
1000
0010
0000
0110
0000
1010
0000
,  // measure 17
1002
0000
0000
0000
1003
0000
0100
0000
0010
0000
0000
0100
0000
0000
1000
0000
,  // measure 18
0002
0000
0100
0000
1003
0100
0010
0001
,  // measure 19
0100
0010
1000
0001
0010
0000
0100
0010
,  // measure 20
0000
0001
0000
0000
0101
0000
1010
0000
,  // measure 21
2001
0000
0000
0000
3001
0000
0100
0000
0010
0000
0000
0100
0000
0000
0001
0000
,  // measure 22
2000
0000
0100
0000
3001
1000
0001
0100
,  // measure 23
0010
1000
0100
0010
0100
0000
1000
0100
,  // measure 24
0000
0010
0000
0000
0011
0000
1001
0000
,  // measure 25
2010
3001
0012
1003
,  // measure 26
2010
3001
0011
0110
,  // measure 27
2100
3001
0102
1003
,  // measure 28
2100
3001
0101
0110
,  // measure 29
1020
0130
0021
0130
,  // measure 30
1020
0130
0011
1010
,  // measure 31
0201
0310
1200
0310
,  // measure 32
0011
0101
0110
1010
,  // measure 33
1002
0000
0000
0000
0103
0000
0000
0000
0010
0000
0000
1010
0000
0000
1000
0000
,  // measure 34
1200
0000
0000
0000
0000
1300
0010
0100
,  // measure 35
0001
0010
0100
0010
0001
0000
1000
0010
,  // measure 36
0000
0100
0000
0000
0110
0000
0101
0000
,  // measure 37
2001
0000
0000
0000
3100
0000
0000
0000
0010
0000
0000
0011
0000
0000
0001
0000
,  // measure 38
0201
0000
0000
0000
0000
0301
0010
0100
,  // measure 39
1000
0001
0100
0001
0010
0000
0100
1000
,  // measure 40
0000
0001
0100
0000
1010
0000
1100
0000
,  // measure 41
0220
0000
0000
0000
,  // measure 42
0000
0000
0000
0330
,  // measure 43
0010
0001
0010
0100
1000
0000
1001
0000
,  // measure 44
0001
0100
0010
0000
1010
0000
1001
1000
,  // measure 45
0001
0000
0010
0000
0100
0000
1000
0000
0010
0000
0000
0100
0000
0000
0010
0000
,  // measure 46
1000
0100
0010
0001
0100
0010
1000
0001
,  // measure 47
0010
0001
0100
0010
0000
0000
1010
0000
,  // measure 48
1000
0100
0010
0000
0100
1000
0001
0000
,  // measure 49
2002
0000
0000
3003
,  // measure 50
0201
0310
2001
3100
,  // measure 51
0012
1003
1020
0130
,  // measure 52
0010
0000
1000
0001
0000
1000
0100
0010
,  // measure 53
0100
0000
1000
0010
0000
1000
0000
0001
,  // measure 54
0010
0000
0011
0000
0001
0100
0010
0000
,  // measure 55
2010
3100
0012
0103
,  // measure 56
0010
0000
1000
0100
0000
0010
0100
1000
,  // measure 57
0001
0000
0100
0010
0000
1010
0000
1000
,  // measure 58
0001
0000
0001
0010
0000
0010
0001
0100
,  // measure 59
0201
0310
1200
0310
,  // measure 60
1002
0000
0103
0000
0001
0010
0100
0000
,  // measure 61
2100
3001
0102
1003
,  // measure 62
0001
0000
1000
0010
0000
0100
0000
0010
,  // measure 63
2010
3100
0012
0103
,  // measure 64
0010
1000
0001
0000
0010
0001
1000
0000
,  // measure 65
0101
0110
1010
1001
,  // measure 66
0012
0000
0013
0100
0000
0100
1000
0001
,  // measure 67
1000
1010
0110
0101
,  // measure 68
2001
0000
3100
0000
0010
0001
0100
0000
,  // measure 69
0010
1000
0100
0000
0010
0100
1000
0001
,  // measure 70
1002
0000
0103
0000
0010
1000
0100
0000
,  // measure 71
0010
0001
0100
0000
0010
1000
0001
0010
,  // measure 72
0200
0000
0000
0000
,  // measure 73
0000
0000
0000
0000
,  // measure 74
0300
0000
0000
0000
;
