#TITLE:龍と少女とデコヒーレンス;
#SUBTITLE:;
#ARTIST:黒猫ダンジョン;
#TITLETRANSLIT:Ryuu to shoujo to decoherence;
#SUBTITLETRANSLIT:;
#ARTISTTRANSLIT:Kuroneko Dungeon;
#GENRE:;
#CREDIT:;
#MENUCOLOR:;
#METERTYPE:DDR;
#BANNER:[Moon Runes] - Ryuu to shoujo to decoherence.png;
#BACKGROUND:[Moon Runes] - Ryuu to shoujo to decoherence-bg.png;
#LYRICSPATH:;
#CDTITLE:cdtitle.png;
#MUSIC:[Moon Runes] - Ryuu to shoujo to decoherence.mp3;
#OFFSET:-0.028;
#SAMPLESTART:93.109;
#SAMPLELENGTH:15.000;
#SELECTABLE:YES;
#LISTSORT:;
#BPMS:0.000=165.000;
#STOPS:;
#BGCHANGES:0.000=[Moon Runes] - Ryuu to shoujo to decoherence.avi=1.000=1=0=0,
99999=-nosongbg-=1.000=0=0=0 // don't automatically add -songbackground-
;
#ATTACKS:;

//---------------dance-single - ----------------
#NOTES:
     dance-single:
     :
     Hard:
     10:
     0.705,0.896,0.172,0.250,0.543:
0000
0000
0000
0000
,
0000
0000
0000
0000
,
0000
0000
0000
0000
,
0000
0000
0000
0000
,
0010
1000
0100
1000
0010
0100
0001
0010
,
0100
1000
0001
0100
0010
0100
0001
0000
,
0010
0100
1000
0100
0010
0001
0100
0010
,
1000
0100
0001
0100
1000
0010
0100
0000
,
1001
0100
0000
0100
,
0000
0100
0000
0100
,
0001
0010
0000
0010
,
0000
0010
0000
0010
,
0101
1000
0000
1000
,
0110
0001
0000
0001
,
1100
0001
0110
1000
,
0001
0000
0001
0000
1000
0000
1000
0000
0010
0100
0010
0100
0002
0000
0000
0000
,
1003
0000
0100
0010
0001
0000
0010
0000
0100
1000
0000
1000
0001
0000
0100
0000
,
0001
0000
0010
0100
1000
0000
0001
0000
0100
0010
0000
0010
1000
0000
0010
0000
,
0100
0000
0001
1000
0100
0000
0010
0000
0100
1000
0000
1000
0001
0000
0100
0000
,
0010
0000
0100
0001
1000
0000
0100
0000
0010
0001
0000
0001
1000
0000
0010
0000
,
0100
0000
0001
1000
0100
0000
0001
0000
0100
1000
0000
1000
0001
0000
0100
0000
,
0010
0000
1000
0010
0100
0000
1000
0000
0100
0001
0000
0001
1000
0000
0100
0000
,
0010
0000
0001
0100
0010
0000
0001
0000
0010
1000
0000
1000
0001
0000
0010
0000
,
0100
0000
1000
0010
0100
0000
1000
0000
0100
0001
0000
0001
0010
0000
0100
0000
,
1001
0000
0001
0000
0010
0000
0100
1000
0000
1000
0100
0000
0010
0000
0001
0000
,
0100
0000
0010
0000
1000
0000
0001
0010
0000
0010
0001
0000
0100
0010
0100
0000
,
0001
0000
0010
0000
0100
0000
1000
0001
0000
0001
0100
0000
0010
0000
1000
0000
,
0001
0000
0010
0000
0100
0000
0010
0001
0000
0001
1000
0000
0010
0100
0010
0000
,
1000
0000
0100
0000
0010
0000
0001
1000
0000
1000
0010
0000
0100
0000
0001
0000
,
0010
0000
0100
0000
1000
0000
0010
0100
0000
0100
0010
0000
1000
0001
1000
0000
,
0001
0000
1000
0000
0100
0000
0010
0100
0000
0100
1000
0000
0001
1000
0001
0000
,
0100
0000
0010
0000
1000
0000
0100
0010
0000
0010
0001
0000
1000
0010
1000
0010
,
0200
0010
0000
0010
,
0000
0010
0000
0010
,
0320
1000
0000
1000
,
0000
1000
0000
1000
,
2030
0100
0000
0100
,
0000
0100
0000
0100
,
3200
0010
0000
0010
,
0000
0010
0000
0010
,
0310
0001
0100
0000
0010
0000
0110
0000
,
0100
0001
1000
0000
0100
0000
0110
0000
,
0010
0001
1000
0000
0010
0000
1010
0000
,
1000
0100
0010
0000
0001
0000
1001
0000
,
1000
0100
0010
0000
0001
0000
0101
0000
,
0100
0001
0010
0000
0100
0000
1100
0000
,
1000
0010
0100
0000
0001
0010
0100
0000
,
1000
0100
0001
0100
0010
1000
0010
0001
,
2000
3200
0320
0032
,
0023
0230
2300
3002
,
0203
0320
2030
3020
,
0230
0302
0023
0230
,
1300
0010
0100
0001
0000
0000
1000
0010
0100
0001
0000
0000
,
0001
0010
0100
1000
0000
0000
0001
0010
0100
1000
0000
0000
,
0100
1000
0010
0100
0000
0100
0001
0010
0100
1000
0000
1000
,
0100
0001
0100
1000
0000
0001
0100
1000
0100
0001
0000
0100
,
0110
0001
0100
0001
1000
0100
1000
0100
,
0010
0000
0001
0000
0010
0000
0100
0000
1000
0000
0001
0000
0100
0010
0100
0000
,
0101
1000
0001
0010
0100
1000
0100
1000
,
0010
0000
0100
0000
0010
0000
0100
0000
0001
0000
0010
0000
0100
1000
0100
0000
,
0110
0000
0001
0000
0010
0000
0001
0000
1000
0000
0010
0000
0100
0001
0100
0000
,
0010
0000
1000
0000
0001
0000
0010
0000
0100
0000
1000
0000
0001
1000
0001
0000
,
1001
0000
1000
0000
0100
0000
0001
0000
0100
0000
1000
0000
0001
0100
0010
0000
,
1000
0100
1000
0000
0001
0100
0001
0000
1000
0100
1000
0100
0010
0001
0010
0001
,
1000
0000
0000
0000
0001
0100
0001
0000
1000
0100
1000
0000
0001
0010
0100
1000
,
0002
0010
1003
1100
,
0102
0000
0000
0000
1003
0010
1000
0000
0001
0010
0001
0000
1000
0010
0100
0001
,
2000
0010
3001
0101
,
2010
0000
0000
0000
3001
0100
0010
0000
1000
0100
0010
0000
0001
0100
0010
1000
,
0200
0010
1300
0011
,
2100
0000
0000
0000
3001
0010
0100
0000
1000
0010
0100
0000
0001
0100
0010
1000
,
0100
0010
0100
0000
1000
0001
1000
0000
0001
0100
0001
0100
0010
1000
0100
1000
,
0002
0000
0000
0000
1003
0100
1000
0100
1000
0000
0001
0010
0100
0010
0001
1000
,
0010
0000
0010
0100
0010
0000
0010
0100
0010
0000
1000
0000
0001
0100
0010
1000
,
0002
0000
0000
0000
1003
0010
1000
0010
1000
0000
0001
0100
0010
0100
0001
1000
,
0100
0000
0100
0010
0100
0000
0100
0010
0100
0000
1000
0000
0001
0100
0010
1000
,
0200
0000
0000
0000
1300
0100
1000
0010
0100
0000
0001
1000
0100
0010
0100
1000
,
0001
0000
0001
0100
0001
0000
0001
0010
0001
0000
0100
0000
0010
1000
0001
0010
,
0200
0000
0000
0000
1300
0010
0100
0010
1000
0000
0001
0100
0010
0100
0001
1000
,
0100
0010
0001
0000
0010
0100
1000
0000
0001
0100
0010
1000
0100
0010
0001
0100
,
0020
0000
0000
0000
,
0000
0000
0000
0000
,
0130
0000
0000
0000
;

//---------------dance-single - ----------------
#NOTES:
     dance-single:
     :
     Medium:
     7:
     0.461,0.576,0.109,0.102,0.031:
0000
0000
0000
0000
,
0000
0000
0000
0000
,
0000
0000
0000
0000
,
0000
0000
0000
0000
,
0010
0001
0000
0001
0100
0001
0000
0001
,
0010
0001
0000
0001
0100
0001
0000
1000
,
0100
1000
0000
1000
0010
1000
0000
1000
,
0100
1000
0000
1000
0010
1000
0000
1000
,
0100
0010
0000
0010
,
0000
0010
0000
0010
,
0000
0010
0000
0010
,
0000
0010
0000
0010
,
1001
0100
0000
0100
,
1001
0010
0000
0010
,
1001
0100
1010
0100
,
0010
0001
0100
1000
0100
0001
0020
0000
,
0130
1000
0100
0000
1000
0010
1000
0000
,
0001
0100
0010
0100
0001
0010
0100
0000
,
1000
0001
1000
0000
0001
0100
0001
0000
,
0100
0010
1000
0100
0010
0100
1000
0000
,
0001
0100
0001
0000
0010
0100
0010
0000
,
0100
1000
0010
1000
0100
0010
0001
0000
,
1000
0100
1000
0000
0001
0100
0001
0000
,
1000
0010
0001
0010
1000
0100
0010
0000
,
0001
0001
0100
0000
1000
1000
0100
0000
,
0001
0010
0100
1000
0010
0100
0020
0000
,
1030
1000
0100
0000
0001
0001
0100
0000
,
1000
0010
0100
0001
0010
0100
2000
0000
,
3001
0001
0010
0000
1000
1000
0010
0000
,
0001
0100
1000
0100
0010
1000
0200
0000
,
1300
1000
0010
0000
0001
0001
0010
0000
,
0100
0001
0010
1000
0010
0001
0200
0000
,
0301
0100
1000
0000
0000
0000
1000
0000
,
0000
1000
0000
1000
,
0100
0010
0001
0000
0000
0000
0001
0000
,
0000
0001
0000
0001
,
0010
1000
0100
0000
0000
0000
0100
0000
,
0000
0100
0000
0100
,
1000
0001
0010
0000
0000
0000
0010
0000
,
0000
0010
0000
0010
,
0100
1000
0001
0100
,
0010
1000
0100
0010
,
0001
0100
1000
0100
,
0001
0010
0100
1000
,
0010
0100
0010
0000
1000
0001
1000
0000
,
0001
0100
1000
0100
,
0001
0010
0001
0000
1000
0010
1000
0000
,
0001
0010
1000
0100
,
0002
0103
2000
3100
,
0001
0010
0100
1000
,
2000
3010
0002
0013
,
1000
0100
0010
0001
,
0001
0101
1000
1100
,
0001
0010
0100
1000
,
0001
0100
0001
0100
0000
0000
0001
1000
0001
1000
0000
0000
,
1000
0100
1000
0100
0000
0000
0010
0100
0010
0100
0000
0000
,
2001
0100
0001
3010
,
0100
0000
0001
0000
1000
0000
0100
1000
,
1002
0010
1000
0103
,
0010
0000
1000
0000
0100
0000
0010
0001
,
2001
0100
0010
3100
,
0010
0001
0100
1000
,
0100
0010
0100
0000
0001
1000
0001
0000
,
1000
0100
0001
0010
1000
0000
1001
0000
,
0110
0000
0100
0000
0001
0010
1000
0000
,
0010
0001
0100
0010
,
1001
0000
1000
0000
0001
0100
1000
0000
,
0100
0010
1000
0100
,
0110
0000
0001
0000
1000
0100
0001
0000
,
0100
1000
0010
0100
,
0110
0000
1000
0000
0001
0100
1000
0000
,
1000
0100
0001
0000
0001
0010
0100
1000
,
0001
0000
1000
0100
1000
0000
0001
0100
,
0001
0100
0001
0000
0010
0100
1000
0001
,
0100
0000
0010
0100
0010
0000
1000
0001
,
1000
0001
1000
0000
0001
0010
0100
1000
,
0010
0000
0100
0001
0100
0000
0001
0010
,
0001
0010
0001
0000
0010
0100
1000
0010
,
0100
0000
0001
0100
0001
0000
1000
0100
,
0001
0100
1000
0010
0001
0010
1000
0100
,
0020
0000
0000
0000
,
0000
0000
0000
0000
,
0130
0000
0000
0000
;

//---------------dance-single - ----------------
#NOTES:
     dance-single:
     :
     Easy:
     4:
     0.292,0.384,0.016,0.094,0.000:
0000
0000
0000
0000
,
0000
0000
0000
0000
,
0000
0000
0000
0000
,
0000
0000
0000
0000
,
1000
0100
0010
0001
,
0010
0100
1000
0000
,
0001
0100
0010
1000
,
0010
0100
0001
0000
,
1000
0100
0000
0100
,
0000
0100
0000
0100
,
0000
0010
0000
0010
,
0000
0010
0000
0010
,
0001
0100
0000
0100
,
0010
1000
0000
1000
,
0100
0010
0001
0100
,
0001
1000
0001
1000
0010
0000
0110
0000
,
1000
0100
0010
0100
,
1000
0010
0100
0010
,
1000
0100
0010
0100
,
1000
0010
0100
0000
,
0001
0010
0100
0010
,
0001
0100
0010
0100
,
0001
0010
0100
0010
,
0001
0100
0010
0000
,
1000
0100
1000
1000
,
0001
0100
0001
0001
,
0010
0100
1000
0010
,
0100
0001
0010
0000
,
0001
0100
0001
0001
,
1000
0100
1000
1000
,
0010
0100
0001
0010
,
0100
1000
0010
0100
,
0210
0000
0000
0000
,
0300
0000
0000
0000
,
0002
0000
0000
0000
,
0003
0000
0000
0000
,
2000
0000
0000
0000
,
3000
0000
0000
0000
,
0200
0000
0000
0000
,
0300
0000
0000
0000
,
0020
0001
0000
0001
,
0030
0001
0000
0001
,
2000
0010
0000
0010
,
3000
0010
0000
0010
,
0200
0001
0000
0001
,
0300
0001
0000
0001
,
2000
0100
0000
0100
,
3000
0100
0000
0100
,
0010
0000
0001
0000
,
1000
0000
0010
0000
,
0100
0000
0001
0000
,
1000
0000
0100
0000
,
0010
0010
0001
0001
,
1000
1000
0010
0010
,
0100
0100
0001
0001
,
1000
1000
0100
0100
,
0010
0001
0010
0100
,
1000
0100
0010
0001
,
0100
0010
1000
0010
,
0100
0001
0100
0010
,
1000
0100
0010
0001
,
0010
0100
1000
0001
,
0100
0010
0100
0010
,
1000
0000
0001
0000
1000
0001
1000
0000
,
0010
0000
0100
0001
0100
0000
0001
0000
,
1000
0000
0000
0001
,
0100
0000
0010
0100
0010
0000
0100
0000
,
0010
0000
0000
0010
,
1000
0000
0001
0010
0001
0000
0010
0000
,
0100
0000
0000
0100
,
1000
0000
0001
1000
0001
0000
1000
0000
,
0010
0100
0001
0000
,
0100
0000
0010
1000
0010
0000
1000
0000
,
0001
0001
0020
0130
,
1000
0000
0001
0100
0001
0000
0100
0000
,
0010
0010
0200
0301
,
0010
0000
0100
1000
0100
0000
0010
0000
,
0001
0001
2000
3010
,
0100
0000
0001
1000
0010
0000
0100
0000
,
0001
0010
1000
0100
,
0002
0000
0000
0000
,
0000
0000
0000
0000
,
1003
0000
0000
0000
;

//---------------dance-single - ----------------
#NOTES:
     dance-single:
     :
     Beginner:
     2:
     0.113,0.160,0.000,0.008,0.000:
0000
0000
0000
0000
,
0000
0000
0000
0000
,
0000
0000
0000
0000
,
0000
0000
0000
0000
,
1000
0000
1000
0000
,
0001
0000
0001
0000
,
1000
0000
1000
0000
,
0001
0000
0001
0000
,
1000
0000
0000
0000
,
0001
0000
0000
0000
,
1000
0000
0000
0000
,
0001
0000
0000
0000
,
0100
0000
0000
0000
,
0100
0000
0000
0000
,
0100
0000
0100
0000
,
0100
0000
0100
0000
,
0001
0000
0001
0000
,
1000
0000
1000
0000
,
0001
0000
0001
0000
,
1000
0000
0001
0000
,
1000
0000
1000
0000
,
0001
0000
0001
0000
,
1000
0000
1000
0000
,
0001
0000
1000
0000
,
0001
0000
0001
0000
,
1000
0000
1000
0000
,
0001
0000
0001
0000
,
1000
0000
0001
0000
,
1000
0000
1000
0000
,
0001
0000
0001
0000
,
1000
0000
1000
0000
,
0001
0000
1000
0000
,
0100
0000
0000
0000
,
0000
0000
0000
0000
,
0100
0000
0000
0000
,
0000
0000
0000
0000
,
0100
0000
0000
0000
,
0000
0000
0000
0000
,
0100
0000
0000
0000
,
0000
0000
0000
0000
,
1000
0000
0000
0000
,
1000
0000
0000
0000
,
0001
0000
0000
0000
,
0001
0000
0000
0000
,
1000
0000
0000
0000
,
0001
0000
0000
0000
,
1000
0000
0000
0000
,
0001
0000
0000
0000
,
1000
0000
0000
0000
,
0000
0000
0000
0000
,
0100
0000
0000
0000
,
0000
0000
0000
0000
,
0001
0000
0000
0000
,
0000
0000
0000
0000
,
0100
0000
0000
0000
,
0000
0000
0000
0000
,
1000
0000
0000
0000
,
0000
0000
0000
0000
,
0100
0000
0000
0000
,
0000
0000
0000
0000
,
0001
0000
0000
0000
,
0000
0000
0000
0000
,
0100
0000
0000
0000
,
0000
0000
0000
0000
,
1000
0000
1000
0000
,
1000
0000
0000
0000
,
0001
0000
0001
0000
,
0001
0000
0000
0000
,
1000
0000
1000
0000
,
0001
0000
0000
0000
,
0001
0000
0001
0000
,
1000
0000
0000
0000
,
1000
0000
0001
0000
,
1000
0000
1000
0000
,
0001
0000
1000
0000
,
0001
0000
0001
0000
,
1000
0000
0001
0000
,
1000
0000
1000
0000
,
0001
0000
1000
0000
,
0001
0000
0001
0000
,
0200
0000
0000
0000
,
0000
0000
0300
0000
,
0100
0000
0000
0000
;

//---------------dance-double - ----------------
#NOTES:
     dance-double:
     :
     Hard:
     10:
     0.706,0.896,0.117,0.258,0.367:
00000000
00000000
00000000
00000000
,
00000000
00000000
00000000
00000000
,
00000000
00000000
00000000
00000000
,
00000000
00000000
00000000
00000000
,
11000000
01000000
00100000
00010000
01000000
00100000
00010000
00001000
,
00100000
00001000
00010000
00000100
00001000
00000010
00000100
00000000
,
00000101
00000100
00000010
00001000
00000100
00000010
00001000
00010000
,
00000010
00010000
00001000
01000000
00010000
00100000
01000000
00000000
,
20000000
01000000
00000000
31000000
,
00020000
00001000
00000000
00031000
,
00000200
00000001
00000000
00000301
,
00000020
00000100
00000000
00000130
,
00001100
00010000
00000000
00010000
,
01001000
00010000
00000000
00010000
,
11000000
00100000
01010000
00100000
,
00011000
00000000
00010000
00000000
00000100
00000000
00000010
00000000
00000001
00000100
00000001
00000100
00000020
00000000
00000000
00000000
,
00001030
00000000
00000100
00000000
00010000
00000000
00001000
00000000
00100000
00010000
00000000
00010000
01000000
00000000
00000000
00000000
,
00100000
00000000
10000000
00000000
01000000
00000000
00100000
00000000
00001000
00010000
00000000
00010000
00001000
00000000
00000000
00000000
,
00010000
00000000
00000100
00000000
00001000
00000000
00000010
00000000
00000100
00000001
00000000
00000001
00000100
00000000
00000000
00000000
,
00000010
00000000
00010000
00000000
00001000
00000000
01000000
00000000
00010000
00100000
00000000
00100000
00010000
00000000
00000000
00000000
,
00010000
00000000
01000000
00000000
00001000
00000000
00010000
00000000
00000010
00001000
00000000
00001000
00000100
00000000
00000100
00000000
,
00000010
00000000
00000001
00000000
00000100
00000000
00000010
00000000
00010000
00001000
00000000
00001000
00010000
00000000
00010000
00000000
,
00001000
00000000
01000000
00000000
00010000
00000000
00100000
00000000
01000000
10000000
00000000
10000000
01000000
00000000
01000000
00000000
,
00100000
00000000
00001000
00000000
00010000
00000000
00000100
00000000
00001000
00000010
00000000
00000010
00001000
00000000
00000100
00000000
,
00010000
00000000
00010000
00000000
00001000
00000000
00001000
00000000
01000000
00010000
01000000
00000000
00010000
00000000
00010000
00000000
,
00100000
00100000
01000000
10000000
01000000
00001000
00000100
00000000
,
00000010
00000000
00000010
00000000
00000001
00000000
00000001
00000000
00000100
00000010
00000100
00000000
00000010
00000000
00000010
00000000
,
00010000
00010000
00001000
00001000
01000000
00010000
00100000
00000000
,
00001000
00000000
00001000
00000000
00010000
00000000
00010000
00000000
00000100
00001000
00000100
00000000
00001000
00000000
00001000
00000000
,
00000010
00000010
00000100
00000001
00000100
00010000
01000000
00000000
,
00100000
00000000
00100000
00000000
10000000
00000000
10000000
00000000
01000000
00100000
01000000
00000000
00100000
00000000
00100000
00000000
,
00001000
00000000
00001000
00000000
00010000
00000000
00010000
00000000
00000100
00000000
00001000
00000000
00000010
00010000
00001000
00000000
,
00010000
01000000
10000000
00000000
10000000
00100000
00010000
00000000
,
00001000
00000100
00000001
00000000
00000001
00000010
00001000
00000000
,
00010000
00100000
10000000
00000000
10000000
01000000
00010000
00000000
,
00001000
00000100
00000001
00000000
00000001
00000010
00001000
00000000
,
00010000
01000000
10000000
00000000
10000000
00100000
00010000
00000000
,
00001000
00000100
00000001
00000000
00000001
00000010
00001000
00000000
,
00010000
00100000
10000000
00000000
10000000
01000000
00010000
00000000
,
00001000
00000010
00000001
00000000
00000001
00000100
00001000
00000000
,
00010000
00001000
00010000
00001000
01000000
00001000
01000000
00001000
,
01000000
00010000
01000000
00010000
00100000
00010000
00100000
00000000
,
00100000
01000000
00100000
01000000
10000000
01000000
10000000
01000000
,
10000000
00100000
10000000
00100000
00010000
00100000
00010000
00000000
,
00010000
00001000
00010000
00001000
00000100
00001000
00000100
00001000
,
00000100
00000010
00000100
00000010
00001000
00000010
00001000
00000000
,
00000001
00000100
00000001
00000100
00000010
00000100
00000010
00000100
,
00000010
00001000
00000010
00001000
00000100
00001000
00000100
00001000
,
00000002
00002003
00023000
20030000
,
30020000
00032000
00003002
00000023
,
00000230
00020300
00230000
20300000
,
32000000
03020000
00030200
00000320
,
00000032
00000203
00002300
00203000
,
02300000
03020000
00032000
00003020
,
00000031
00000100
00000010
00001000
00000000
00000000
00010000
01000000
00100000
10000000
00000000
00000000
,
10000000
01000000
00100000
00010000
00000000
00000000
00001000
00000100
00000010
00000001
00000000
00000000
,
00001000
00000100
00001000
00000100
00000010
00000001
00000010
00000001
,
00000100
00001000
00010000
00100000
10000000
01000000
10000000
00100000
,
01000000
00010000
01000000
00010000
10000000
01000000
10000000
01000000
,
00100000
00001000
00000100
00000010
00001000
00000100
00000010
00000001
,
00000100
00000010
00000100
00000010
00001000
00000100
00001000
00000100
,
00010000
00001000
01000000
00100000
01000000
10000000
01000000
00010000
,
00100000
01000000
00100000
01000000
10000000
00010000
10000000
00010000
,
10000000
00000000
01000000
00000000
00010000
00000000
00001000
00000000
00000010
00000000
00000001
00000000
00000100
00001000
00010000
00000000
,
00011000
00000000
00000000
00000000
00010000
00001000
00010000
00000000
00001000
01000000
00001000
00000000
01000000
00010000
00100000
01000000
,
20000000
01000000
30010000
11000000
,
01010000
00000000
00000000
00000000
01000000
00001000
01000000
00000000
00001000
00010000
00001000
00000000
00010000
00000100
00000010
00000001
,
00000200
00000010
00000301
00001100
,
00000011
00000000
00000000
00000000
00000010
00000100
00000010
00000000
00000001
00001000
00000001
00000000
00000100
00000010
00001000
00000100
,
00020000
00000100
01030000
11000000
,
00110000
00000000
00000000
00000000
00010000
01000000
00010000
00000000
10000000
01000000
10000000
00000000
01000000
00100000
00010000
01000000
,
00001000
00010000
00001000
00000000
00010000
00000100
00010000
00000000
00000100
00000010
00000001
00001000
00000010
00000100
00000010
00000000
,
00000110
00000000
00001000
00000100
00001000
00000000
00000001
00000100
00000001
00000000
00001000
00000100
00001000
00000100
00010000
00001000
,
00010000
00000000
00001000
01000000
00001000
00000000
01000000
00100000
01000000
00000000
00100000
10000000
01000000
00100000
00010000
01000000
,
00100000
00000000
10000000
01000000
10000000
00000000
00010000
01000000
00010000
00000000
01000000
00001000
01000000
00001000
00010000
00001000
,
00010000
00000000
00000100
00001000
00000100
00000000
00001000
00000010
00001000
00000000
00000010
00000100
00000001
00000010
00000100
00001000
,
00000100
00000000
00010000
00001000
00010000
00000000
00001000
00100000
00001000
00000000
00100000
01000000
00100000
01000000
10000000
01000000
,
10000000
00000000
00010000
01000000
00010000
00000000
10000000
01000000
10000000
00000000
00010000
01000000
00100000
10000000
01000000
00100000
,
00001000
00000000
00010000
00001000
00010000
00000000
00000010
00001000
00000010
00000000
00000100
00000001
00000100
00000001
00000010
00000100
,
00001000
00000010
00001000
00000000
00000001
00000010
00000001
00000000
00001000
00000010
00000100
00001000
00010000
00100000
01000000
00001000
,
00020000
00000000
00000000
00000000
,
00000000
00000000
00000000
00000000
,
00031000
00000000
00000000
00000000
;

//---------------dance-double - ----------------
#NOTES:
     dance-double:
     :
     Medium:
     7:
     0.464,0.544,0.086,0.125,0.031: // measure 1
00000000
00000000
00000000
00000000
,  // measure 2
00000000
00000000
00000000
00000000
,  // measure 3
00000000
00000000
00000000
00000000
,  // measure 4
00000000
00000000
00000000
00000000
,  // measure 5
00010000
00001000
01000000
00000000
01000000
00001000
00010000
00000000
,  // measure 6
00001000
00010000
00000100
00000000
00000100
00010000
00001000
00000000
,  // measure 7
00010000
01000000
00010000
00000000
00001000
00010000
00001000
00000000
,  // measure 8
00001000
00000100
00001000
00000000
00010000
00001000
00010000
00000000
,  // measure 9
00100000
10000000
00000000
10000000
,  // measure 10
01000000
00010000
00000000
00010000
,  // measure 11
00001000
00000010
00000000
00000010
,  // measure 12
00000001
00000100
00000000
00000100
,  // measure 13
00002000
00013000
00000000
00010000
,  // measure 14
00200000
10300000
00000000
10000000
,  // measure 15
02000000
03100000
00002000
00013000
,  // measure 16
00000100
00010000
00000100
00010000
00001000
00001000
00011000
00000000
,  // measure 17
00010000
00000100
00001000
00000000
00000010
00000100
00000001
00000000
,  // measure 18
00000010
00000100
00001000
00000000
00000100
00010000
00001000
00000000
,  // measure 19
01000000
00010000
00100000
00000000
01000000
10000000
00100000
00000000
,  // measure 20
01000000
00001000
00010000
00000000
00001000
00000100
00000010
00000000
,  // measure 21
00001000
00000100
00010000
00000000
00001000
01000000
00100000
00000000
,  // measure 22
10000000
01000000
00010000
00000000
01000000
00100000
00001000
00000000
,  // measure 23
00010000
00000100
00001000
00000000
00000100
00000010
00000001
00000000
,  // measure 24
00000100
00001000
00010000
00000000
00100000
10000000
00010000
00000000
,  // measure 25
10000000
01000000
00100000
00100000
01000000
10000000
00010000
00000000
,  // measure 26
01000000
00001000
00010000
00010000
00001000
00010000
00000100
00000000
,  // measure 27
00001000
00000010
00000100
00000100
00000010
00001000
00000001
00000000
,  // measure 28
00000010
00000100
00010000
00010000
00001000
01000000
00010000
00000000
,  // measure 29
00100000
01000000
00100000
00100000
00010000
01000000
00001000
00000000
,  // measure 30
00010000
00000100
00001000
00001000
00000010
00000100
00000001
00000000
,  // measure 31
00000010
00000100
00001000
00001000
00000010
00000100
00000001
00001000
,  // measure 32
00000100
00010000
00001000
00001000
01000000
00010000
00100000
00000000
,  // measure 33
01000000
10000000
00000000
10000000
,  // measure 34
00000000
10000000
00000000
10000000
,  // measure 35
01000000
00010000
00000000
00010000
,  // measure 36
00000000
00010000
00000000
00010000
,  // measure 37
00001000
00000100
00000000
00000100
,  // measure 38
00000000
00000100
00000000
00000100
,  // measure 39
00000010
00001000
00000000
00001000
,  // measure 40
00000000
00001000
00000000
00001000
,  // measure 41
00000001
00000010
00000100
00001100
,  // measure 42
00001000
00000010
00010000
00011000
,  // measure 43
00001000
01000000
00010000
10010000
,  // measure 44
10000000
01000000
00100000
00110000
,  // measure 45
00010000
01000000
00001000
00011000
,  // measure 46
00010000
00000100
00001000
00001010
,  // measure 47
00000010
00000100
00000001
00000011
,  // measure 48
00000010
00000100
00010000
00011000
,  // measure 49
00001000
01000000
00001000
01000000
,  // measure 50
00010000
00100000
00010000
00100000
,  // measure 51
01000000
10000000
01000000
10000000
,  // measure 52
00100000
01000000
00100000
01000000
,  // measure 53
00001000
00010000
00001000
00010000
,  // measure 54
00000100
00001000
00000100
00001000
,  // measure 55
00000010
00000100
00000010
00000100
00000000
00000000
00000001
00001000
00000001
00001000
00000000
00000000
,  // measure 56
00000100
00010000
00000100
00010000
00000000
00000000
00001000
01000000
00001000
01000000
00000000
00000000
,  // measure 57
00010000
00100000
00010000
00000000
00100000
00000000
01000000
00000000
,  // measure 58
10000000
01000000
00010000
00001000
,  // measure 59
00000100
00000010
00000100
00000000
00001000
00000000
00010000
00000000
,  // measure 60
00100000
10000000
00010000
00100000
,  // measure 61
01000000
00100000
01000000
00000000
00010000
00000000
00001000
00000000
,  // measure 62
00000010
00000001
00000100
00000010
,  // measure 63
00001000
00000100
00001000
00000000
00000100
00010000
00000100
00000000
,  // measure 64
00010000
00001000
00010000
00000000
00001000
01000000
00001000
01000000
,  // measure 65
01200000
00000000
01300000
01000000
00100000
01000000
00010000
00100000
,  // measure 66
00001000
00010000
00000100
00002000
,  // measure 67
00003020
00000000
00000130
00000100
00000001
00000010
00000100
00001000
,  // measure 68
00000010
00000100
00010000
02000000
,  // measure 69
03200000
00000000
10300000
10000000
01000000
00100000
00001000
00010000
,  // measure 70
00001000
00000100
00000010
00002000
,  // measure 71
00003002
00000000
00000103
00000001
00000010
00000100
00001000
00000010
,  // measure 72
00000100
00000001
00000100
00000001
00001000
00000100
00001000
00000000
,  // measure 73
00001200
00000000
00010300
00001000
00010000
00001000
00010000
00000000
,  // measure 74
00001000
01000000
00010000
00000000
01000000
00100000
10000000
00000000
,  // measure 75
02000000
00000000
03100000
00001000
00100000
00001000
00100000
00000000
,  // measure 76
00001000
00010000
00000100
00000000
00001000
00000010
00000100
00000000
,  // measure 77
00000002
00000000
00000013
00000100
00000010
00000100
00000010
00000000
,  // measure 78
00000100
00010000
00001000
00000000
01000000
00010000
00100000
00000000
,  // measure 79
02000000
00000000
13000000
00100000
10000000
00100000
10000000
00000000
,  // measure 80
01000000
00100000
00001000
00010000
00000100
00000010
00000001
00000100
,  // measure 81
00000020
00000000
00000000
00000000
,  // measure 82
00000000
00000000
00000000
00000000
,  // measure 83
00000130
00000000
00000000
00000000
;

//---------------dance-double - ----------------
#NOTES:
     dance-double:
     :
     Easy:
     4:
     0.341,0.512,0.086,0.047,0.000: // measure 1
00000000
00000000
00000000
00000000
,  // measure 2
00000000
00000000
00000000
00000000
,  // measure 3
00000000
00000000
00000000
00000000
,  // measure 4
00000000
00000000
00000000
00000000
,  // measure 5
00010000
00001000
00010000
00001000
,  // measure 6
00010000
00000100
00010000
00000000
,  // measure 7
00000100
00001000
00000100
00001000
,  // measure 8
00000010
00001000
00000010
00000000
,  // measure 9
00000100
00000001
00000000
00000001
,  // measure 10
00000000
00000001
00000000
00000001
,  // measure 11
00001000
00010000
00000000
00010000
,  // measure 12
00000000
00010000
00000000
00010000
,  // measure 13
10000000
00000000
00000000
00000000
,  // measure 14
00010000
00000000
00000000
00000000
,  // measure 15
00001000
00000000
00000001
00000000
,  // measure 16
00000100
00000000
00000010
00000000
00000100
00000010
00000100
00000000
,  // measure 17
00000110
00000010
00000100
00010000
,  // measure 18
00001000
00100000
01000000
10000000
,  // measure 19
10000000
00100000
01000000
00001000
,  // measure 20
00010000
00000010
00000100
00000001
,  // measure 21
00000001
00000100
00000010
00010000
,  // measure 22
00001000
00100000
01000000
10000000
,  // measure 23
10000000
00100000
01000000
00001000
,  // measure 24
00010000
00000100
00000010
00000001
,  // measure 25
00000001
00000100
00000001
00000000
00000100
00000000
00001000
00000000
,  // measure 26
00010000
01000000
10000000
00010000
,  // measure 27
10000000
01000000
10000000
00000000
01000000
00000000
00010000
00000000
,  // measure 28
00001000
00000100
00000001
00001000
,  // measure 29
00000001
00000100
00000001
00000000
00000010
00000000
00001000
00000000
,  // measure 30
00010000
00100000
10000000
00010000
,  // measure 31
10000000
01000000
10000000
00000000
00100000
00000000
00010000
00000000
,  // measure 32
00001000
00000010
00000001
00001000
,  // measure 33
00000001
00000010
00000000
00000010
,  // measure 34
00000000
00000010
00000000
00000010
,  // measure 35
00001000
00010000
00000000
00010000
,  // measure 36
00000000
00010000
00000000
00010000
,  // measure 37
00100000
10000000
00000000
10000000
,  // measure 38
00000000
10000000
00000000
10000000
,  // measure 39
01000000
00100000
00000000
00100000
,  // measure 40
00000000
00100000
00000000
00100000
,  // measure 41
00001000
00010000
00001000
00010000
,  // measure 42
00000010
00010000
00000010
00001000
,  // measure 43
00000001
00000100
00000001
00000010
,  // measure 44
00000100
00010000
00001000
00100000
,  // measure 45
01000000
10000000
00100000
10000000
,  // measure 46
01000000
00100000
00001000
00010000
,  // measure 47
00000100
00001000
00000010
00000100
,  // measure 48
00000001
00000010
00000100
00010000
,  // measure 49
00001000
00001000
00100000
00100000
,  // measure 50
00010000
01000000
00100000
00000000
,  // measure 51
10000000
10000000
01000000
00100000
,  // measure 52
00001000
00010000
00000010
00000000
,  // measure 53
00000100
00000100
00000001
00000010
,  // measure 54
00000100
00010000
00001000
00000000
,  // measure 55
00100000
00100000
00010000
01000000
,  // measure 56
00100000
10000000
01000000
00000000
,  // measure 57
10000000
00100000
10000000
00100000
,  // measure 58
01000000
00001000
01000000
00001000
,  // measure 59
00010000
00000010
00010000
00000010
,  // measure 60
00001000
00000001
00001000
00000000
,  // measure 61
00000001
00000010
00000001
00000010
,  // measure 62
00000100
00010000
00000100
00010000
,  // measure 63
00001000
00100000
00001000
00100000
,  // measure 64
01000000
10000000
01000000
10000000
,  // measure 65
00100000
00000000
01000000
00000000
00010000
00100000
00010000
00100000
,  // measure 66
02000000
00000000
03000000
10100000
,  // measure 67
01010000
00000000
01000000
00000000
00010000
00100000
00010000
00100000
,  // measure 68
00002000
00000000
00003000
00011000
,  // measure 69
00010010
00000000
00000010
00000000
00000100
00000001
00000100
00000001
,  // measure 70
00000020
00000000
00000030
00001100
,  // measure 71
00010100
00000000
00010000
00000000
00001000
00100000
00001000
00100000
,  // measure 72
02000000
00000000
23000000
00000000
30100000
01000000
00010000
00000000
,  // measure 73
10010000
00000000
10000000
00100000
10000000
00100000
01000000
00000000
,  // measure 74
00010000
00100000
00001000
00010000
,  // measure 75
00010010
00000000
00000010
00001000
00000010
00001000
00000100
00000000
,  // measure 76
00000010
00000001
00001000
00000010
,  // measure 77
00010010
00000000
00010000
00001000
00010000
00001000
00100000
00000000
,  // measure 78
01000000
10000000
00100000
01000000
,  // measure 79
01010000
00000000
00010000
00100000
00010000
00100000
00001000
00000000
,  // measure 80
00010000
00000010
00000100
00000001
,  // measure 81
00000020
00000000
00000000
00000000
,  // measure 82
00000000
00000000
00000000
00000000
,  // measure 83
00000130
00000000
00000000
00000000
;
