#TITLE:· │ ☐ ❑;
#SUBTITLE:;
#ARTIST:sound piercer;
#TITLETRANSLIT:Point, Line, Surface, Solid;
#SUBTITLETRANSLIT:;
#ARTISTTRANSLIT:;
#GENRE:;
#CREDIT:Telperion;
#BANNER:[Moon Runes] - Point Line Surface Solid.png;
#BACKGROUND:[Moon Runes] - Point Line Surface Solid-bg.png;
#LYRICSPATH:;
#CDTITLE:cdtitle.png;
#MUSIC:[Moon Runes] - Point Line Surface Solid.ogg;
#OFFSET:-0.020000;
#SAMPLESTART:38.738998;
#SAMPLELENGTH:15.464000;
#SELECTABLE:YES;
#DISPLAYBPM:124.000000;
#BPMS:0.000000=124.000000
,31.000000=186.000000
,31.500000=93.000000
,32.000000=186.000000
,32.500000=124.000000
,32.833332=62.000000
,33.166668=124.000000
,33.500000=186.000000
,34.500000=124.000000
,34.833332=62.000000
,35.166668=124.000000
,35.500000=186.000000
,36.500000=124.000000
,36.833332=62.000000
,37.166668=124.000000
,37.500000=186.000000
,38.500000=124.000000
,38.833332=62.000000
,39.000000=211.363998
,40.000000=186.000000
,40.500000=124.000000
,40.833332=62.000000
,41.166668=124.000000
,41.500000=186.000000
,42.500000=124.000000
,42.833332=62.000000
,43.166668=124.000000
,43.500000=186.000000
,44.500000=124.000000
,44.833332=62.000000
,45.166668=124.000000
,45.500000=186.000000
,46.500000=124.000000
,46.833332=62.000000
,47.000000=93.000000
,47.500000=186.000000
,48.500000=124.000000
,48.833332=62.000000
,49.166668=124.000000
,49.500000=186.000000
,50.500000=124.000000
,50.833332=62.000000
,51.166668=124.000000
,51.500000=186.000000
,52.500000=124.000000
,52.833332=62.000000
,53.166668=124.000000
,53.500000=186.000000
,54.500000=124.000000
,54.833332=62.000000
,55.166668=124.000000
,55.500000=186.000000
,56.500000=124.000000
,56.833332=62.000000
,57.166668=124.000000
,57.500000=186.000000
,58.500000=124.000000
,58.833332=62.000000
,59.166668=124.000000
,59.500000=186.000000
,60.500000=124.000000
,60.833332=62.000000
,61.166668=124.000000
,61.500000=186.000000
,62.000000=124.000000
,63.000000=93.000000
,63.250000=186.000000
,63.750000=93.000000
,64.000000=124.000000
,79.000000=164.893997
,80.000000=124.000000
,83.000000=248.000000
,83.750000=49.599998
,84.000000=124.000000
,87.000000=248.000000
,87.750000=49.599998
,88.000000=124.000000
,90.000000=211.363007
,91.000000=124.000000
,95.000000=248.000000
,95.750000=49.599998
,96.000000=124.000000
,108.000000=484.375031
,111.000000=93.000000
,111.500000=186.000000
,112.000000=124.000000
,118.000000=211.363007
,119.000000=124.000000
,121.000000=164.893997
,121.500000=124.000000
,123.000000=164.893005
,123.500000=124.000000
,124.000000=484.375031
,127.000000=186.000000
,127.250000=93.000000
,127.500000=124.000000
,140.500000=484.375031
,141.000000=124.000000
,141.500000=484.375031
,142.000000=124.000000
,150.000000=484.375031
,151.000000=186.000000
,151.250000=93.000000
,151.500000=124.000000
,156.000000=484.375031
,159.000000=186.000000
,159.500000=93.000000
,160.000000=124.000000
,190.000000=484.375031
,191.000000=186.000000
,191.250000=93.000000
,191.500000=124.000000
,214.000000=484.375031
,215.000000=186.000000
,215.250000=93.000000
,215.500000=124.000000
,216.000000=211.363998
,216.500000=124.000000
,217.500000=211.363998
,218.000000=124.000000
,219.000000=211.363007
,219.500000=124.000000
,236.500000=484.375031
,237.000000=124.000000
,237.500000=484.375031
,238.000000=124.000000
,256.000000=62.000000
;
#STOPS:39.000000=0.200000,
79.000000=0.120000,
90.000000=0.025000,
90.125000=0.025000,
90.250000=0.025000,
90.375000=0.025000,
90.500000=0.025000,
90.625000=0.025000,
90.750000=0.025000,
90.875000=0.025000,
108.000000=0.090000,
108.250000=0.090000,
108.500000=0.090000,
108.750000=0.090000,
109.000000=0.090000,
109.250000=0.090000,
109.500000=0.090000,
109.750000=0.090000,
110.000000=0.090000,
110.250000=0.090000,
110.500000=0.090000,
110.750000=0.090000,
118.000000=0.025000,
118.125000=0.025000,
118.250000=0.025000,
118.375000=0.025000,
118.500000=0.025000,
118.625000=0.025000,
118.750000=0.025000,
118.875000=0.025000,
121.000000=0.030000,
121.250000=0.030000,
123.000000=0.030000,
123.250000=0.030000,
124.000000=0.090000,
124.250000=0.090000,
124.500000=0.090000,
124.750000=0.090000,
125.000000=0.090000,
125.250000=0.090000,
125.500000=0.090000,
125.750000=0.090000,
126.000000=0.060000,
126.166664=0.060000,
126.333336=0.060000,
126.500000=0.060000,
126.666664=0.060000,
126.833336=0.060000,
140.500000=0.060000,
140.666672=0.060000,
140.833328=0.060000,
141.500000=0.060000,
141.666672=0.060000,
141.833328=0.060000,
150.000000=0.060000,
150.166672=0.060000,
150.333328=0.060000,
150.500000=0.060000,
150.666672=0.060000,
150.833328=0.060000,
156.000000=0.360000,
157.000000=0.360000,
158.000000=0.360000,
190.000000=0.060000,
190.166672=0.060000,
190.333328=0.060000,
190.500000=0.060000,
190.666672=0.060000,
190.833328=0.060000,
214.000000=0.060000,
214.166672=0.060000,
214.333328=0.060000,
214.500000=0.060000,
214.666672=0.060000,
214.833328=0.060000,
216.000000=0.100000,
217.500000=0.100000,
219.000000=0.100000,
236.500000=0.060000,
236.666672=0.060000,
236.833328=0.060000,
237.500000=0.060000,
237.666672=0.060000,
237.833328=0.060000
;
#BGCHANGES:;
#KEYSOUNDS:;
#ATTACKS:;

//---------------dance-single - Telperion----------------
#NOTES:
     dance-single:
     Telperion:
     Challenge:
     10:
     0.579372,0.676577,0.254439,0.377804,0.474182,441.000000,33.000000,49.000000,95.000000,3.000000,2.000000,0.579372,0.676577,0.254439,0.377804,0.474182,441.000000,33.000000,49.000000,95.000000,3.000000,2.000000:
0000
0000
0000
0000
,
0000
0000
0000
0000
,
0000
0000
0000
0000
,
0000
0000
0000
000M
,
2200
3300
0000
0001
1000
0100
0010
0000
,
0220
0330
0000
1000
0001
0100
0010
0000
,
1010
1000
0110
0010
,
0101
0001
1001
10MM
,
21M0
30M0
21M0
30M1
,
12M0
03M0
12M0
0310
,
01M2
0000
00M0
00M3
00M0
0000
01M2
0000
00M0
10M3
00M0
0000
,
01M2
0000
00M0
00M3
00M0
0000
01M0
0000
0000
1M10
0000
0000
,
0102
0103
0102
1003
,
0201
0301
0201
0310
,
2100
3100
2100
3001
,
2100
0000
0000
0000
3100
0000
0000
0000
1000
0001
1000
0001
0100
0000
M020
0000
,
0130
0000
0000
0000
1M1M
0000
0000
0000
0100
0010
0100
0000
0001
0000
0000
0000
,
1000
0001
1000
0000
0100
0000
0000
0000
1000
0200
1000
0000
0310
0000
0000
0000
,
0100
0010
0100
0000
1000
0000
0000
0000
0001
1000
0001
0000
0100
0000
0000
0000
,
0010
0100
0010
0000
1000
0000
0000
0000
0001
0020
0001
0000
013M
0000
0000
0000
,
011M
0000
1000
0000
0001
0000
1000
0100
0010
0001
1000
0010
0200
0000
0000
0000
,
0301
0100
0001
0000
0010
0000
0100
1000
0001
0100
0010
0100
2000
0000
0000
0000
,
3100
0010
0100
0010
1000
0001
1000
0001
0020
0000
0000
0000
0130
1000
0100
0010
,
0001
0010
0100
1000
0001
0001
2M01
0000
,
310M
1000
0100
1000
0010
0000
1000
0001
0010
0001
0010
0001
0100
0000
0001
1000
,
0100
1000
0100
1000
0010
0000
1000
0001
0010
0000
0100
0000
1000
0100
1000
0100
,
001M
0000
M000
0010
0M00
0000
M010
0000
000M
0010
M000
0000
0M10
0000
M000
0010
,
0001
0010
0100
1000
0001
1000
0100
0010
0001
0010
0100
1000
002M
0000
0000
0000
,
M130
0001
0020
0000
0031
1000
0020
0000
,
0130
0000
1000
0000
0100
0001
0000
0001
0020
0000
0000
0000
0130
0010
0001
1000
,
0010
0000
0010
0000
4000
0010
0000
0000
3001
0000
0001
0000
0004
0010
0000
0000
,
1003
0000
0000
0010
0000
0000
1000
0000
0000
0010
0000
0000
0100
0000
0000
0001
0000
0000
0100
0000
0000
0001
0000
0000
1000
0000
0001
0000
1000
0000
0001
0000
1000
0000
0001
0000
1000
0000
0000
0000
0000
0000
0000
0000
0000
0000
0000
0000
,
010M
0000
0010
0000
0001
0000
0000
1000
0001
0000
0000
0000
0100
0000
0001
0000
,
0100
0000
0010
0000
1000
0000
0000
0001
1000
0000
1000
0000
0100
0000
0000
0000
,
0010
0010
1010
0000
0010
0010
0011
0000
,
10M0
0000
0000
0000
0000
0000
0001
0000
0100
0000
0001
0000
10M0
0000
0000
0000
0000
0000
0001
0000
0100
0000
0001
0000
10M0
0000
0000
0000
0000
0000
10M0
0000
0000
0000
0000
0000
020M
0000
0000
1000
0000
0000
0000
0000
0000
0000
0000
0000
,
0320
0100
0000
0130
,
0002
0000
0000
0000
0000
0000
1000
0000
0000
0000
0000
0000
0103
0001
0100
0001
0100
0001
1000
0000
0000
0000
0000
0000
,
1010
0001
0011
0100
,
100M
00MM
0MMM
MMM1
,
10M0
0000
1000
0000
0001
0010
0000
0000
0100
0000
1000
0000
0001
0100
0000
0000
,
0001
0000
0001
0000
1000
0010
0000
0000
0100
0000
0001
0000
0020
0100
0000
0000
,
0031
0000
0001
0000
1000
0010
0000
0000
0100
0000
0001
0000
0100
0010
0000
0000
,
1000
0000
1000
0000
0001
0010
0000
0000
0100
0000
0010
0000
0001
1000
0001
0010
,
0100
0000
0010
0000
0001
1000
0000
0000
0100
0000
1000
0000
0100
0010
0000
0000
,
0001
0000
0001
0000
1000
0010
0000
0000
0100
0000
0001
0000
1000
0010
0000
0000
,
0100
0000
0001
0000
1000
0100
M00M
0100
0001
0000
0010
0000
0001
0100
M00M
0100
,
10M0
0000
0000
0020
0000
0000
0100
0000
0000
0000
0000
0000
1030
0001
1000
0001
1000
0001
0100
0000
0000
0000
0000
0000
,
00M1
0000
1000
0100
0000
0010
0000
0000
0002
0000
0000
0000
0023
0000
0031
0010
,
0001
1000
0100
1000
0010
1000
0100
1000
0002
0000
0000
0000
0203
0000
0000
0000
,
0320
0000
0000
2030
0000
0000
3001
0100
0000
0010
0100
0001
0000
1000
0000
0100
,
0020
0000
0100
0032
1000
0000
0203
0000
,
0320
0000
1030
0002
1000
0003
0011
0000
,
0100
0000
0000
2000
0000
0000
0001
0000
0000
0000
0000
0000
3100
1000
0100
1000
0100
1000
00M1
0000
0000
0000
0000
0000
,
M111
0000
0000
11M1
0000
0000
111M
0000
,
1000
0000
0001
0000
1000
0000
0001
1000
0100
0000
0100
0000
M110
0000
0000
0000
,
MM01
0000
0001
0000
1000
0100
0000
0000
1000
0000
0001
0000
0100
0010
0000
0000
,
1000
0000
1000
0000
0001
0100
0000
0000
0010
0000
1000
0000
0001
0100
0000
0000
,
0001
0000
0001
0000
0010
0100
0000
0000
1000
0000
1000
0000
0010
0100
0000
0000
,
0001
0000
0000
0000
0000
0000
1000
0000
0100
0000
1000
0000
00M1
0000
0000
0000
0000
0000
1000
0000
0100
0000
1000
0000
00M1
0000
0000
0000
0000
0000
0001
0000
0000
0000
0000
0000
M200
0000
0000
0001
0000
0000
0000
0000
0000
0000
0000
0000
,
031M
0010
M100
0000
00M1
0100
M001
0000
,
1M00
1000
M001
0000
10M0
0100
001M
0000
,
0M01
1000
00M1
0000
M100
0001
01M0
0000
,
0M20
0000
1000
0200
,
033M
M000
00M0
0M00
000M
M000
00M0
0M00
,
000M
0000
0000
0000
;

//---------------dance-single - Telperion----------------
#NOTES:
     dance-single:
     Telperion:
     Hard:
     7:
     0.431776,0.419439,0.239019,0.277570,0.115654,325.000000,31.000000,36.000000,4.000000,0.000000,12.000000,0.431776,0.419439,0.239019,0.277570,0.115654,325.000000,31.000000,36.000000,4.000000,0.000000,12.000000:
0000
0000
0000
0000
,
0000
0000
0000
0000
,
0000
0000
0000
0000
,
0000
0000
0000
0000
,
1100
0000
0000
0001
1000
0000
0010
0000
,
0110
0000
0000
1000
0001
0000
0010
0000
,
0110
0000
1100
0000
,
1001
0000
0101
0010
,
0102
0003
0102
0003
,
0201
0300
0200
0310
,
2100
3000
2100
3000
,
1200
0300
0100
0011
,
0102
1003
0102
1003
,
0201
0301
0201
0310
,
2100
3001
2100
3001
,
1200
0000
1300
0000
0020
0000
0030
0100
,
0000
0000
0011
0001
1000
0100
0010
0000
,
0001
1000
0010
1000
0001
0100
0010
0000
,
1000
0001
0010
0100
1000
0100
0010
0000
,
0001
1000
0010
0100
1000
0100
0001
0000
,
1001
1000
0010
1000
0100
0010
0002
0000
,
1003
0001
0010
0001
0100
0010
2000
0000
,
3001
0000
0011
0000
2000
0000
3001
1000
,
0010
0010
0100
0000
0010
0010
0210
0000
,
0301
0001
0000
1000
1000
0100
0000
1000
,
0001
0001
0000
0100
0100
0010
1000
0010
,
0001
0000
0000
0010
0000
0000
0100
0000
0000
0010
0000
0000
1000
0000
0000
0000
,
0004
4000
0000
0000
0000
0000
0000
0000
0000
0000
0003
3000
0100
0000
0000
0000
,
0010
0200
1000
0000
0301
0200
1000
0000
,
0301
0000
0100
0000
1000
0001
0000
0001
0200
0000
0000
0000
0310
0000
0000
0000
,
1000
0000
1000
0000
0001
1000
0000
0000
0001
0000
0001
0000
1000
0001
0000
0000
,
4000
0004
0000
0000
0000
0000
3000
0003
0040
0000
0000
0000
0130
0000
0000
0000
,
1000
0000
0001
0000
0100
0000
0000
0010
0000
0000
0001
0000
0010
0000
1000
0000
,
0001
0010
0200
0000
0010
0000
1300
0000
,
0001
0001
0100
0000
1000
1000
0100
0000
,
0001
0000
0400
0000
0301
0000
0400
0000
0301
0000
0001
0000
1000
0100
0000
0000
,
0020
0100
0000
0130
,
0002
1000
0400
0303
,
0110
0100
0101
0001
,
100M
00M0
0M00
M001
,
1000
0000
0001
0000
0010
0100
0000
0000
1000
0000
0001
0000
0010
0100
0000
0000
,
1000
0000
0001
0000
1000
0100
0000
0000
1000
0000
0001
0000
0020
0000
0000
0000
,
0031
0000
1000
0000
0010
0100
0000
0000
0001
0000
1000
0000
0100
0010
0000
0000
,
0001
0000
1000
0000
0001
0100
0000
0000
0001
0000
0001
0000
1000
0000
0100
0000
,
0010
0000
0001
0000
1000
0001
0000
0000
0010
0000
0100
0000
1000
0010
0000
0000
,
1000
0000
0100
0000
1000
0001
0000
0000
1000
0000
0001
0000
0200
0000
0000
0000
,
0310
0000
0100
0000
0001
1000
0000
0000
0010
0000
0100
0000
0001
0010
0000
0000
,
0001
0001
1000
0000
0400
0000
0310
0000
,
0001
1000
0100
0010
2000
0000
3020
0000
,
0031
1000
0001
0100
2000
0000
3200
0000
,
0301
0000
0000
0010
0000
0000
0100
0000
0000
1000
0000
0000
0001
0000
1000
0000
,
0020
0000
0000
0230
0000
0000
0301
0000
,
1001
0000
1000
0010
1000
0000
1100
0000
,
0100
0010
0100
0000
0040
0000
0130
0000
,
0011
0000
0000
1010
0000
0000
0101
0000
,
1000
0000
0000
0000
0000
0000
0000
0001
1000
0000
0100
0000
0010
0000
0000
0000
,
0001
0000
1000
0000
0010
0100
0000
0000
0001
0000
1000
0000
0010
0100
0000
0000
,
0001
0000
1000
0000
0001
0100
0000
0000
0001
0000
1000
0000
0020
0000
0000
0000
,
1030
0000
0001
0000
0010
0100
0000
0000
1000
0000
0001
0000
0010
0100
0000
0000
,
1000
0000
0400
0000
1300
0000
0400
0000
1300
0000
1000
0000
0001
0100
0000
0000
,
0001
0001
0010
0000
1000
1000
0010
0000
,
0001
0100
0001
0000
1000
0100
1000
0100
,
0010
0010
0001
0000
0010
0010
1000
0000
,
0002
0000
1000
0200
,
0303
0000
0000
0000
;

//---------------dance-single - Telperion----------------
#NOTES:
     dance-single:
     Telperion:
     Medium:
     5:
     0.343658,0.345420,0.439486,0.061682,0.000000,247.000000,57.000000,8.000000,4.000000,0.000000,6.000000,0.343658,0.345420,0.439486,0.061682,0.000000,247.000000,57.000000,8.000000,4.000000,0.000000,6.000000:
0000
0000
0000
0000
,
0000
0000
0000
0000
,
0000
0000
0000
0000
,
0000
0000
0000
0000
,
1100
0000
1000
0001
,
1100
0000
0001
1000
,
0101
0000
0110
0000
,
1010
0000
1001
0010
,
0110
0000
0110
0000
,
0110
0000
0110
0001
,
0110
0000
0110
0000
,
0110
0000
0110
1000
,
1001
0000
1001
0000
,
1001
0000
1001
0010
,
1001
0000
1001
0000
,
1001
0000
0000
0000
2000
0000
3000
0001
,
0100
0110
0010
1010
,
1000
1001
0001
0011
,
1000
1100
0100
0110
,
0010
0011
1000
0010
,
0110
0101
0001
2000
,
3100
0110
1000
0002
,
0103
0000
0110
0000
0020
0000
1030
0001
,
0010
0100
0010
0000
0010
0100
0010
0000
,
0001
0000
1000
0000
0010
0100
0001
0000
,
1000
0000
0010
0000
1000
0100
0010
0000
,
0001
0001
0001
0001
,
4000
0000
0000
3001
,
1000
0000
0100
0000
1000
0001
0100
0000
,
0001
0010
0100
1000
0002
0000
0103
0000
,
0010
0010
0010
0000
0100
0100
0100
0000
,
0004
0000
4000
3003
,
1000
0000
0001
0000
0100
0010
1000
0000
,
0001
0000
0100
0000
0001
0010
0100
0000
,
1000
0001
1000
0000
0001
1000
0001
0000
,
0101
0000
0101
0000
0101
0001
1000
0000
,
0200
0010
0000
0310
,
1000
0001
4000
3001
,
0101
0100
0110
0010
,
100M
00M0
0M00
M001
,
0100
0000
0011
0000
0100
1000
0010
0000
,
0100
0000
1010
0000
0100
0001
0010
0000
,
0100
0000
0110
0000
1000
0100
0010
0000
,
0001
0000
0101
0000
0010
0100
0001
0000
,
1000
0000
0011
0000
1000
0010
0100
0000
,
0001
0000
1010
0000
0001
0010
0100
0000
,
1000
0100
0010
0000
0001
0100
0010
0000
,
0110
0000
0004
0003
,
1000
0000
0100
0000
0001
0000
0100
1000
,
0001
0100
0010
0100
1000
0000
0100
0000
,
0001
1000
0010
0001
,
0020
0000
0030
2000
0000
3000
0001
0000
,
1100
0000
0100
1000
0100
0000
0010
0000
,
0110
0100
4000
3001
,
0101
0000
0000
1001
0000
0000
1100
0000
,
0001
0000
0000
0000
1000
0100
0001
0000
,
0100
0000
1010
0000
0100
0001
0010
0000
,
0100
0000
0011
0000
0100
1000
0010
0000
,
0100
0000
0110
0000
0001
1000
0100
0000
,
1100
0000
1100
0000
1100
1000
0001
0000
,
1000
0000
1010
0000
0001
0010
0100
0000
,
1000
0000
0011
0000
1000
0010
0100
0000
,
0001
0100
0010
0000
1000
0100
0010
0000
,
0001
0000
1000
0001
,
0100
0000
0000
0000
;

//---------------dance-single - Telperion----------------
#NOTES:
     dance-single:
     Telperion:
     Easy:
     2:
     0.135481,0.123364,0.000000,0.000000,0.000000,123.000000,0.000000,0.000000,4.000000,0.000000,2.000000,0.135481,0.123364,0.000000,0.000000,0.000000,123.000000,0.000000,0.000000,4.000000,0.000000,2.000000:
0000
0000
0000
0000
,
0000
0000
0000
0000
,
0000
0000
0000
0000
,
0000
0000
0000
0000
,
1000
0000
0001
0000
,
1000
0000
0001
0000
,
1000
0000
1000
0000
,
1000
0000
1000
0000
,
0010
0000
0010
0000
,
0010
0000
0010
0100
,
0010
0000
0010
0000
,
0010
0000
0010
0100
,
0001
0000
0001
0000
,
0001
0000
1000
0001
,
1000
0000
1000
0000
,
1000
0000
0100
0000
,
0000
0010
0000
0010
,
0000
0010
0000
0100
,
0000
0010
0000
0010
,
0000
0010
0000
0001
,
0000
0100
0000
0100
,
0000
0100
0000
0010
,
0000
1000
0000
0001
,
0000
0010
0000
0010
,
0100
0000
0100
0000
,
0100
0000
0100
0000
,
1000
0000
1000
0000
,
0004
0000
0000
0003
,
0000
0100
0000
0100
,
0000
0010
0000
1000
,
0000
0001
0000
0001
,
4000
0000
0000
3000
,
0001
0000
0100
0000
,
0010
0000
0100
0000
,
0001
0000
0100
0000
,
0010
0000
0010
0000
,
0000
1000
0000
1000
,
0000
0001
0000
0001
,
0010
0000
0100
0000
,
100M
000M
000M
100M
,
0010
0000
0010
0000
,
1000
0000
0001
0000
,
0010
0000
0010
0000
,
0001
0000
1000
0000
,
0100
0000
0100
0000
,
1000
0000
0001
0000
,
0100
0000
0100
0000
,
0001
0000
1000
0000
,
0100
0000
0010
0000
,
0001
0000
1000
0000
,
0010
0000
0100
0000
,
0001
0000
0000
0000
,
1000
0000
0001
0000
,
0100
0000
0010
0000
,
1000
0000
0000
1000
0000
0000
1000
0000
,
0000
0000
0001
1000
,
0100
0000
0100
0000
,
1000
0000
0001
0000
,
0100
0000
0100
0000
,
0001
1000
0001
0000
,
0010
0000
0010
0000
,
0001
0000
1000
0000
,
0010
0000
0010
0000
,
1000
0000
0001
0000
,
0010
0000
0000
0000
;

//---------------dance-single - Telperion----------------
#NOTES:
     dance-single:
     Telperion:
     Beginner:
     1:
     0.077103,0.098692,0.007710,0.000000,0.000000,69.000000,1.000000,0.000000,0.000000,0.000000,0.000000,0.077103,0.098692,0.007710,0.000000,0.000000,69.000000,1.000000,0.000000,0.000000,0.000000,0.000000:
// measure 0
0000
0000
0000
0000
,  // measure 1
0000
0000
0000
0000
,  // measure 2
0000
0000
0000
0000
,  // measure 3
0000
0000
0000
0000
,  // measure 4
1000
0000
0000
0000
,  // measure 5
1000
0000
0000
0000
,  // measure 6
1000
0000
0000
0000
,  // measure 7
1000
0000
0000
0000
,  // measure 8
0001
0000
0000
0000
,  // measure 9
0100
0000
0000
0000
,  // measure 10
0001
0000
0000
0000
,  // measure 11
0100
0000
0000
0000
,  // measure 12
1000
0000
0000
0000
,  // measure 13
0100
0000
0000
0000
,  // measure 14
1000
0000
0000
0000
,  // measure 15
0100
0000
0000
0000
,  // measure 16
0001
0000
0000
0000
,  // measure 17
0010
0000
0000
0000
,  // measure 18
0001
0000
0000
0000
,  // measure 19
0010
0000
0000
0000
,  // measure 20
1000
0000
0000
0000
,  // measure 21
0010
0000
0000
0000
,  // measure 22
1000
0000
1000
0000
,  // measure 23
1000
0000
1000
0000
,  // measure 24
1000
0000
0000
0000
,  // measure 25
0100
0000
0000
0000
,  // measure 26
0000
0000
0000
0000
,  // measure 27
0001
0000
0000
0000
,  // measure 28
1000
0000
0000
0000
,  // measure 29
0010
0000
0000
0000
,  // measure 30
0100
0000
0100
0000
,  // measure 31
0001
0000
0000
0000
,  // measure 32
1000
0000
0000
0000
,  // measure 33
0001
0000
0000
0000
,  // measure 34
0100
0000
0000
0000
,  // measure 35
0001
0000
0001
0000
,  // measure 36
0001
0000
0000
0000
,  // measure 37
1000
0000
0000
0000
,  // measure 38
0100
0000
0100
0000
,  // measure 39
0100
0000
0000
0000
,  // measure 40
0100
0000
0100
0000
,  // measure 41
0100
0000
0000
0000
,  // measure 42
0010
0000
0010
0000
,  // measure 43
0010
0000
0000
0000
,  // measure 44
0001
0000
0001
0000
,  // measure 45
0001
0000
0000
0000
,  // measure 46
1000
0000
1000
0000
,  // measure 47
1000
0000
0000
0000
,  // measure 48
0010
0000
0000
0000
,  // measure 49
0100
0000
0000
0000
,  // measure 50
0001
0000
0000
0000
,  // measure 51
1000
0000
0000
0000
,  // measure 52
0100
0000
0000
0000
,  // measure 53
0010
0000
0000
0000
,  // measure 54
0110
0000
0000
0000
,  // measure 55
0000
0000
0000
0000
,  // measure 56
0001
0000
0000
0000
,  // measure 57
0001
0000
0000
0000
,  // measure 58
0100
0000
0000
0000
,  // measure 59
0100
0000
0100
0000
,  // measure 60
0100
0000
0000
0000
,  // measure 61
0100
0000
0000
0000
,  // measure 62
0010
0000
0000
0000
,  // measure 63
0010
0000
0000
0000
,  // measure 64
1000
0000
0000
0000
;

//---------------dance-double - Telperion----------------
#NOTES:
     dance-double:
     Telperion:
     Challenge:
     10:
     0.544125,0.651518,0.246729,0.308411,0.400934,419.000000,32.000000,40.000000,137.000000,11.000000,2.000000,0.544125,0.651518,0.246729,0.308411,0.400934,419.000000,32.000000,40.000000,137.000000,11.000000,2.000000:
00000000
00000000
00000000
00000000
,
00000000
00000000
00000000
00000000
,
00000000
00000000
00000000
00000000
,
00000000
00000000
00000000
000MM000
,
00011000
00000000
00000000
01000000
00010000
00100000
01000000
00000000
,
11000000
00000000
00000000
00100000
10000000
01000000
00100000
00000000
,
00110000
00001000
00011000
00000100
,
01001000
00010000
00021000
0000M200
,
00M00010
00M00000
00M00310
00M00200
,
00M00010
00M00000
00M30310
00M12M00
,
02100M00
00000000
00000M00
00000M00
00000M00
00000000
03100M00
00000000
00000M00
02000M00
00000M00
00000000
,
00100M00
00000000
00000M00
00000M00
00000M00
00000000
03103M00
00000000
00000000
01M01M00
00000000
00000000
,
00021000
00030100
00012000
01003000
,
00021000
00030100
00012000
10003000
,
00120000
01030000
00012000
01003000
,
00001200
00000000
00000000
00000000
00010300
00000000
00000000
00000000
00000001
00000010
00000100
00001000
00000001
00000000
M0M0M200
00000000
,
00000310
00000000
0000M1M1
00000000
00000001
00000100
0000100M
00000000
,
00100000
01000000
00M10000
00000000
00000010
00001000
000001M0
00000000
,
10000000
00100000
M0010000
00000000
00000100
00000010
00001M00
00000000
,
01000000
00100000
0M010000
00000000
10000000
01000000
M0010000
00000000
,
11000000
00000000
10000000
00000000
00010000
00000000
01000000
00010000
01000000
00001000
01000000
00001000
00M20000
00000000
00000000
00000000
,
00030001
00000000
00001000
00000000
00000100
00000000
00001000
00000100
00010000
00000100
00010000
00000100
0000M020
00000000
00000000
00000000
,
00000031
00000100
00000001
00000100
00000010
00001000
00000010
00001000
00000200
00000000
00000000
00000000
00010300
00000100
00010000
00001000
,
00100000
00010000
10000000
01000000
00010000
00001000
000002M0
00000000
,
0000M301
00000010
00000001
00000010
00000001
00000000
00000100
00000010
00001000
00000010
00001000
00000010
00001000
00000000
00000100
00010000
,
00001000
00010000
00001000
00010000
00001000
00000000
01000000
00000000
00010000
00000000
00100000
00000000
01000000
00100000
01000000
00100000
,
M00100M0
0000M000
00M00M00
0001000M
0M000000
0000M000
M00100M0
00000M00
00M0000M
0001M000
0M000M00
000000M0
M001M000
0000000M
00M00000
00000M00
,
100M0000
01000000
00100000
00010000
00100000
00001000
00010000
00000010
00001000
00000100
00000010
00000001
00MMM200
00000000
00000000
00000000
,
00000301
00001000
00000200
00000000
00010300
00001000
02000000
00000000
,
03010000
00000000
00100000
00000000
01000000
00100000
00000000
01000000
20000000
00000000
00000000
00000000
30010000
10000000
00010000
01000000
,
001M0000
00000000
001M0000
00000000
4000M000
00100000
00000000
00000000
30M01000
00000000
00M01000
00000000
M0040000
00001000
00000000
00000000
,
00030010
00000000
00000000
00001000
00000000
00000000
00000010
00000000
00000000
00001000
00000000
00000000
00000010
00000000
00000000
00010000
00000000
00000000
00000010
00000000
00000000
00010000
00000000
00000000
0MM01000
00000000
00010000
00000000
00001000
00000000
00010000
00000000
00001000
00000000
00010000
00000000
000001M0
00000000
00000000
00000000
00000000
00000000
00000000
00000000
00000000
00000000
00000000
00000000
,
00M10000
00000000
01000000
00000000
10000000
00000000
00000000
00100000
00000000
00000000
00010000
00000000
00100000
00000000
10000000
00000000
,
01000000
00010000
00002000
00000000
00000100
00000000
00010000
00000000
,
00003010
00000010
00000110
00000000
00001000
00001000
00001100
00000000
,
000001M0
00000000
00000000
00000000
00000000
00000000
00010000
00000000
00001000
00000000
00010000
00000000
000001M0
00000000
00000000
00000000
00000000
00000000
00010000
00000000
00001000
00000000
00010000
00000000
000001M0
00000000
00000000
00000000
00000000
00000000
000001M0
00000000
00000000
00000000
00000000
00000000
000020M0
00000000
00000000
00000100
00000000
00000000
00000000
00000000
00000000
00000000
00000000
00000000
,
00003002
00000103
00000200
00001300
,
00020000
00000000
00000000
00000000
00000000
00000000
01030000
00000000
00000000
00000000
00000000
00000000
00010MM0
00001000
00010000
00001000
00010000
00001000
M1000000
00000000
00000000
00000000
00000000
00000000
,
01100000
00010000
01001000
00000100
,
00M11M00
0M0000M0
M000000M
MM1MMMMM
,
00010010
00000000
00000010
00000000
00001000
00000001
00000000
00000000
00000010
00000000
00000100
00000000
00001000
00000001
00000000
00000000
,
00001000
00000000
00001000
00000000
00000100
00010000
00000000
00000000
00001000
00000000
01000000
00000000
00200000
01000000
00000000
00000000
,
10300000
00000000
10000000
00000000
00010000
01000000
00000000
00000000
00001000
00000000
01000000
00000000
00010000
00100000
00000000
00000000
,
00001000
00000000
00001000
00000000
00100000
00001000
00000000
00000000
00010000
00000000
00000100
00000000
00001000
00000100
00000010
00000001
,
00001000
00000000
00001000
00000000
00000001
00000100
00000000
00000000
00001000
00000000
00010000
00000000
00001000
00100000
00000000
00000000
,
00010000
00000000
00010000
00000000
10000000
01000000
00000000
00000000
00010000
00000000
00001000
00000000
00000200
00001000
00000000
00000000
,
00000310
00000000
00000010
00000000
00001000
00000001
00000000
00000000
00001000
00000000
00000100
00000000
00010000
00001000
00000000
00000000
,
00M10000
00000000
00000000
00010000
00000000
00000000
00001000
00000000
00000000
00000000
00000000
00000000
00010MM0
00001000
00010000
00001000
00010000
00001000
01M00000
00000000
00000000
00000000
00000000
00000000
,
00010000
10000000
01000000
00100000
00000020
00000000
00100030
01000000
,
00010000
00001000
00000010
00000100
00020000
00000000
00030002
00000000
,
00000103
00000001
00000100
00000010
00100000
00001000
00010000
00100000
,
20000000
00000000
00000000
30200000
00000000
00000000
01300000
00000000
,
01M10000
00000000
10000000
00200000
00010000
00300000
01010000
00000000
,
00010000
00000000
00000000
02000000
00000000
00000000
00001000
00000000
00000000
03000000
00000000
00000000
0MM01000
00010000
00001000
00010000
00001000
00010000
000001M0
00000000
00000000
00000000
00000000
00000000
,
000111M0
00000000
00000000
01M11000
00000000
00000000
M1110000
00000000
,
10000000
00000000
00000000
00000000
00000000
00000000
00000000
00010000
10000000
00000000
01000000
00000000
001M0000
00000000
00000000
00000000
,
0M110000
00000000
00100000
00000000
00010000
10000000
00000000
00000000
00100000
00000000
01000000
00000000
00010000
10000000
00000000
00000000
,
00010000
00000000
00010000
00000000
01000000
00001000
00000000
00000000
00010000
00000000
00000100
00000000
00000010
00000100
00001000
00000001
,
00001000
00000000
00000001
00000000
00001000
00000100
00000000
00000000
00010000
00000000
00001000
00000000
00010000
00000100
00000000
00000000
,
01M00000
00000000
00000000
00000000
00000000
00000000
00001000
00000000
00010000
00000000
00001000
00000000
01M00000
00000000
00000000
00000000
00000000
00000000
00001000
00000000
00010000
00000000
00001000
00000000
01M00000
00000000
00000000
00000000
00000000
00000000
01M00000
00000000
00000000
00000000
00000000
00000000
00M20000
00000000
00000000
01000000
00000000
00000000
00000000
00000000
00000000
00000000
00000000
00000000
,
10030000
00100000
00010000
0M000000
10000000
01000000
00100000
000M0000
,
10000000
00010000
01000000
00M00000
00001000
00010000
00000020
00000M30
,
00001000
00001000
00001100
000000M0
00000001
00001000
00001100
000000M0
,
00020000
00000000
00000010
00002000
,
M0033M00
00M0000M
0M00M000
000M0M00
00M00000
000000M0
M0000000
0000000M
,
0M000000
00000000
00000000
00000000
;
