#VERSION:0.81;
#TITLE:ニッポン笑顔百景;
#SUBTITLE:;
#ARTIST:Momokurotei Ichimon;
#TITLETRANSLIT:Nippon Egao Hyakkei;
#SUBTITLETRANSLIT:;
#ARTISTTRANSLIT:;
#GENRE:;
#ORIGIN:;
#CREDIT:;
#BANNER:[Moon Runes] - Nippon Egao Hyakkei-bn.png;
#BACKGROUND:[Moon Runes] - Nippon Egao Hyakkei-bg.png;
#PREVIEWVID:;
#JACKET:[Moon Runes] - Nippon Egao Hyakkei-jacket.png;
#CDIMAGE:;
#DISCIMAGE:;
#LYRICSPATH:;
#CDTITLE:cdtitle.png;
#MUSIC:[Moon Runes] - Nippon Egao Hyakkei.ogg;
#OFFSET:-0.026;
#SAMPLESTART:49.169;
#SAMPLELENGTH:12.000;
#SELECTABLE:YES;
#BPMS:0.000=160.000;
#STOPS:128.000=0.750;
#DELAYS:;
#WARPS:;
#TIMESIGNATURES:0.000=4=4;
#TICKCOUNTS:0.000=4;
#COMBOS:0.000=1;
#SPEEDS:0.000=1.000=0.000=0;
#SCROLLS:0.000=1.000;
#FAKES:;
#LABELS:0.000=Song Start;
#BGCHANGES:;
#KEYSOUNDS:;
#ATTACKS:
;

//---------------dance-single - ----------------
#NOTEDATA:;
#CHARTNAME:;
#STEPSTYPE:dance-single;
#DESCRIPTION:;
#CHARTSTYLE:;
#DIFFICULTY:Hard;
#METER:8;
#RADARVALUES:0.599,0.542,0.306,0.340,0.091,313.000,27.000,30.000,21.000,0.000,0.000,0.000,0.000,0.599,0.542,0.306,0.340,0.091,313.000,27.000,30.000,21.000,0.000,0.000,0.000,0.000;
#CREDIT:;
#NOTES:
0000
0000
0000
0000
,
0000
0000
0000
0000
,
0000
0000
0000
0000
,
0020
0000
0000
0030
,
1000
0100
1000
0010
0100
0001
0010
0100
,
0010
0001
1000
0010
1000
0100
0001
0100
,
1000
0010
0001
0010
1000
0010
0001
0010
,
1000
0100
0010
0001
0100
0010
1000
0000
,
0001
0100
0001
0010
0100
1000
0010
0000
,
0110
0000
1010
0000
1100
0000
1000
0001
,
0100
0000
0010
0000
0100
0000
0000
0000
0001
0000
0000
1000
02M0
00M0
00M0
00M0
,
00M0
00M0
00M0
00M0
00M0
00M0
00M0
00M0
00M0
00M0
00M0
00M0
03M0
0000
0000
0000
,
1000
0001
0100
0001
0010
0100
1000
0000
,
0001
0000
0100
0000
0001
0000
1000
0000
0010
0000
0100
0001
1000
0000
0100
0000
,
0010
0000
0100
1000
0001
0000
0100
0000
0010
0000
1000
0000
0100
0000
0010
0000
,
0011
0101
1010
1100
,
0002
0000
0103
0010
2000
0000
3200
0000
,
0320
0000
0000
0031
0200
0000
0320
0000
,
1030
0100
1000
0000
0001
0100
0010
0100
,
0000
0101
0000
1010
0000
1000
0100
1000
,
0002
0000
0103
0010
2000
0000
3200
0000
,
0320
0000
0000
0031
2000
0000
3020
0000
,
0200
0000
0000
0330
,
0101
1010
1100
MMMM
,
0001
0000
0000
0001
1000
0000
0010
0000
0100
0000
0000
0000
0010
0000
1000
0000
,
0001
0000
0000
0001
1000
0000
0100
0000
0010
0000
0000
0000
1001
0000
0000
0000
,
1000
0100
1000
0001
0100
0010
0100
0001
,
0010
0100
1000
0010
0100
0000
0110
0000
,
0010
1000
0100
0020
0000
0031
0100
0020
,
0000
1030
0001
0020
0000
0130
1000
0001
,
1000
0010
0100
0001
2000
0000
3001
1000
,
0001
0010
0100
2000
0000
0000
0000
0000
,
3000
0000
0001
0100
0110
0000
1000
0100
,
0110
0000
0001
0100
0001
0010
0001
0010
,
0100
0000
1000
0010
0110
0000
0001
0010
,
0110
0000
1000
0010
0100
0010
0100
0001
,
1000
0000
0001
0010
0100
0000
0110
0000
,
0110
0000
0000
0000
0010
0000
0001
0000
1000
0000
0000
0001
0100
0000
0010
0000
,
0100
0000
0010
1000
0002
0000
0023
0000
,
0230
0000
0000
0000
1300
0000
0001
0000
1000
0000
0010
0000
1000
0000
0001
0100
,
0001
1000
0001
0010
1100
0000
1000
0010
,
0101
0000
0001
0010
0001
0100
0001
0100
,
0010
0000
1000
0100
0011
0000
0001
0100
,
1010
0000
1000
0100
1000
0000
1001
0000
,
0110
0000
0010
0100
0002
0000
1000
1000
,
1003
0000
0000
0000
0001
0000
0010
0000
0100
0000
0000
0010
0001
0000
0100
0000
,
0010
0000
1000
0100
2000
0000
3020
0000
,
0230
0000
0301
2000
0200
0000
0000
0000
,
0000
0000
3300
0000
0001
0001
0001
0000
,
1000
1000
1000
0000
0001
0001
0001
0000
,
1000
1000
1000
0000
0001
0010
0001
0100
,
0010
1000
0100
0010
0001
1000
0010
0100
,
0001
0010
0010
0000
0001
0001
0001
0000
,
1000
1000
1000
0000
0001
0001
0001
0000
,
1000
1000
1000
0000
0001
0100
0010
0200
,
0000
0310
1000
0100
0001
0100
1000
0010
,
0100
0101
0000
0000
;

//---------------dance-single - ----------------
#NOTEDATA:;
#CHARTNAME:;
#STEPSTYPE:dance-single;
#DESCRIPTION:;
#CHARTSTYLE:;
#DIFFICULTY:Medium;
#METER:6;
#RADARVALUES:0.499,0.478,0.147,0.272,0.000,271.000,13.000,24.000,0.000,0.000,0.000,0.000,0.000,0.499,0.478,0.147,0.272,0.000,271.000,13.000,24.000,0.000,0.000,0.000,0.000,0.000;
#CREDIT:;
#NOTES:
// measure 0
0000
0000
0000
0000
,  // measure 1
0000
0000
0000
0000
,  // measure 2
0000
0000
0000
0000
,  // measure 3
0020
0000
0000
0030
,  // measure 4
1000
0100
1000
0000
0001
0100
0001
0000
,  // measure 5
1000
0000
0100
0000
0010
0001
1000
0000
,  // measure 6
0001
0100
0010
0000
0100
0010
1000
0000
,  // measure 7
0001
0000
1000
0000
0001
0100
0001
0000
,  // measure 8
1000
0100
0010
0000
0100
0000
1000
0000
,  // measure 9
1001
0000
1001
0000
0001
0000
0100
0001
,  // measure 10
0010
0000
0100
0000
1000
0001
2000
0000
,  // measure 11
0000
0000
0000
3000
,  // measure 12
0001
0100
0001
0000
1000
0100
1000
0000
,  // measure 13
0001
0100
0010
0100
0001
0001
0010
0100
,  // measure 14
1000
1000
0010
0100
0001
0010
0100
0000
,  // measure 15
1100
0011
1100
1001
,  // measure 16
2000
0000
3001
0100
0002
0000
0023
0000
,  // measure 17
0230
0000
0000
1300
0002
0000
2003
0000
,  // measure 18
3001
0000
0100
0000
0001
0000
0010
0100
,  // measure 19
0000
1000
0000
0001
0000
1000
0010
0100
,  // measure 20
0002
0000
1003
0100
2000
0000
3020
0000
,  // measure 21
0230
0000
0000
0301
2000
0000
3002
0000
,  // measure 22
0200
0000
0000
0303
,  // measure 23
0001
0001
1000
0001
,  // measure 24
1000
0000
0010
0100
0001
0000
0001
0000
,  // measure 25
0010
0100
1000
0100
0010
0000
0011
0000
,  // measure 26
0001
0000
0100
0010
0100
0000
0010
0100
,  // measure 27
0010
0000
0100
0000
0001
0000
1000
0001
,  // measure 28
1000
0000
0001
0100
0001
0000
1000
0100
,  // measure 29
1000
0000
0001
0100
0001
0000
1000
0100
,  // measure 30
2000
0000
3010
0100
0002
0000
2003
0000
,  // measure 31
3002
0000
0013
0200
0000
0000
0000
0000
,  // measure 32
0300
0000
1000
0010
0100
0000
0001
0010
,  // measure 33
0100
0000
0010
0001
1000
0010
1000
0000
,  // measure 34
0001
0000
1000
0100
0010
0000
0001
0100
,  // measure 35
0010
0000
1000
0100
1000
0000
0001
0000
,  // measure 36
0101
0000
0001
0010
0100
0000
0110
0000
,  // measure 37
0110
0000
0010
0100
1000
0000
0001
1000
,  // measure 38
0001
0000
1000
0010
0100
0000
0010
0000
,  // measure 39
1000
0000
0001
0010
0100
0010
0100
0010
,  // measure 40
0100
1000
0001
1000
0010
0000
1000
0001
,  // measure 41
0010
0000
0001
0100
0001
1000
0100
0000
,  // measure 42
0010
0000
0001
1000
0100
0000
1000
0001
,  // measure 43
0100
0000
0010
0100
0001
0000
1000
0000
,  // measure 44
1001
0000
0001
0010
0200
0000
0010
0000
,  // measure 45
0310
0000
0100
1000
0001
0000
1000
0001
,  // measure 46
0100
0000
0010
0100
0001
0000
0010
0000
,  // measure 47
0100
0000
1000
0001
2000
0000
0000
0000
,  // measure 48
0000
0000
3000
0000
0001
0100
0001
0000
,  // measure 49
1000
0100
1000
0000
0001
0100
0001
0000
,  // measure 50
1000
0100
1000
0000
0001
0100
0010
0000
,  // measure 51
0010
1000
0001
0000
1000
0000
0100
0000
,  // measure 52
2200
0000
3300
0000
0001
0010
0001
0000
,  // measure 53
1000
0010
1000
0000
0001
0010
0001
0000
,  // measure 54
1000
0010
1000
0000
0001
0100
0001
1000
,  // measure 55
0000
0001
1000
0000
0010
0100
0001
0000
,  // measure 56
1000
1100
0000
0000
;

//---------------dance-single - ----------------
#NOTEDATA:;
#CHARTNAME:;
#STEPSTYPE:dance-single;
#DESCRIPTION:;
#CHARTSTYLE:;
#DIFFICULTY:Easy;
#METER:4;
#RADARVALUES:0.324,0.255,0.034,0.102,0.000,188.000,3.000,9.000,0.000,0.000,0.000,0.000,0.000,0.324,0.255,0.034,0.102,0.000,188.000,3.000,9.000,0.000,0.000,0.000,0.000,0.000;
#CREDIT:;
#NOTES:
// measure 0
0000
0000
0000
0000
,  // measure 1
0000
0000
0000
0000
,  // measure 2
0000
0000
0000
0000
,  // measure 3
0020
0000
0000
0030
,  // measure 4
1000
1000
0100
1000
,  // measure 5
0010
0100
0001
0010
,  // measure 6
0001
0100
0001
0100
,  // measure 7
0001
0010
0100
1000
,  // measure 8
0001
0001
0100
0001
,  // measure 9
0010
0100
1000
0010
,  // measure 10
0100
0001
1000
0020
,  // measure 11
0000
0000
0000
0030
,  // measure 12
1000
0100
1000
0001
,  // measure 13
1000
0010
0100
0001
,  // measure 14
0100
0010
0100
0001
,  // measure 15
1000
0100
0010
0001
,  // measure 16
1000
0010
0100
0010
,  // measure 17
2000
0000
3001
1000
,  // measure 18
0001
0010
0100
1000
,  // measure 19
0100
0010
0001
1000
,  // measure 20
0001
0100
0010
0100
,  // measure 21
0002
0000
1003
0001
,  // measure 22
0020
0000
0000
0030
,  // measure 23
0001
0100
0010
1000
,  // measure 24
0100
0100
0010
0100
,  // measure 25
1000
0001
1000
0000
,  // measure 26
0010
0010
0100
0100
,  // measure 27
0010
1000
0001
0000
,  // measure 28
1000
0100
1100
0000
,  // measure 29
0001
0100
0101
0000
,  // measure 30
0001
0010
0100
1000
,  // measure 31
0001
2000
0000
0000
,  // measure 32
3000
0001
0100
0001
,  // measure 33
1000
0001
0010
0100
,  // measure 34
0010
0001
0100
0001
,  // measure 35
1000
0001
1000
0100
,  // measure 36
0010
0001
1000
0001
,  // measure 37
0001
1000
0100
1000
,  // measure 38
0001
1000
0010
0100
,  // measure 39
0001
1000
0200
0000
,  // measure 40
0300
1000
0010
1000
,  // measure 41
0001
1000
0100
0010
,  // measure 42
0100
1000
0010
1000
,  // measure 43
0001
1000
0100
0010
,  // measure 44
0001
0100
0020
0000
,  // measure 45
0030
1000
0001
1000
,  // measure 46
0100
1000
0010
0100
,  // measure 47
0001
0010
0200
0000
,  // measure 48
0000
0300
1000
1000
,  // measure 49
0001
0001
1000
1000
,  // measure 50
0001
0001
1000
0010
,  // measure 51
1000
0100
0010
0001
,  // measure 52
1000
0010
1000
1000
,  // measure 53
0001
0001
1000
1000
,  // measure 54
0001
0001
1000
0100
,  // measure 55
1000
0010
0100
0001
,  // measure 56
1000
1001
0000
0000
;
