#TITLE: 物凄いライヴでチルノがそこはかとなく物凄いうた;
#SUBTITLE:;
#ARTIST:Halozy;
#TITLETRANSLIT:Monosugoi Live de Cirno ga Soko wa Katonaku Monosugoi Uta;
#SUBTITLETRANSLIT:;
#ARTISTTRANSLIT:;
#GENRE:;
#CREDIT:;
#BANNER:[Moon Runes] - Monosugoi Live de Cirno ga Soko wa Katonaku Monosugoi Uta.png;
#BACKGROUND:[Moon Runes] - Monosugoi Live de Cirno ga Soko wa Katonaku Monosugoi Uta - bg.png;
#LYRICSPATH:;
#CDTITLE:chen.png;
#MUSIC:[Moon Runes] - Monosugoi Live de Cirno ga Soko wa Katonaku Monosugoi Uta.ogg;
#OFFSET:0.015;
#SAMPLESTART:30.729;
#SAMPLELENGTH:12.000;
#SELECTABLE:YES;
#BPMS:0.000=220.000;
#STOPS:;
#BGCHANGES:;
#KEYSOUNDS:;

//---------------dance-single - C. Yakumo----------------
#NOTES:
     dance-single:
     C. Yakumo:
     Challenge:
     13:
     1.000,1.000,0.472,1.000,0.632:
0000
0000
0000
0000
,
0000
0000
0000
0000
,
0000
0000
0000
0000
,
0000
0000
0000
0000
,
0000
0000
0000
0000
,
1001
0000
1001
0000
2000
3200
0320
0032
,
0203
0320
2030
3002
0023
0032
2003
3100
,
0110
0010
0011
0001
1001
0100
0010
1000
,
0002
0000
0100
0000
0100
0000
0100
0000
0100
0000
0100
0000
0100
0000
0103
0010
,
1000
0100
0010
0001
1000
0010
0100
0201
,
0000
0000
0310
0000
1000
0000
0001
0000
0010
0000
0100
0000
0010
0001
0010
0001
,
1000
0000
0010
0000
0100
0000
0001
1000
0100
0000
0010
0001
1000
0000
1001
0000
,
0000
1001
0000
0001
0021
0000
0130
0000
,
1000
0001
0010
0001
1000
0001
0010
0100
1000
0001
0100
0001
1000
0010
0100
0001
,
1000
0100
0010
0001
0010
0100
1000
0001
1000
0010
0100
0001
0100
0010
1000
0001
,
1000
0100
0010
0100
1000
0001
0010
0001
1000
0010
1000
0001
1000
0010
0100
0001
,
1000
0010
0100
0001
1000
0001
0010
0001
1000
0001
0010
0100
1000
0001
1000
0010
,
1000
0100
0010
0001
1000
0001
0100
0010
1000
0001
0100
0001
1000
0100
0010
0001
,
1000
0100
1000
0001
0100
0010
0100
0001
1000
0010
0100
0001
1000
0100
0010
0100
,
1000
0001
0010
0001
1000
0100
0010
0001
1000
0001
1000
0001
1000
0010
0100
0001
,
2000
0000
0000
3000
0012
0000
0000
0000
,
1003
0010
0100
0020
0000
0000
0030
0000
,
1000
0100
0010
0002
0000
1003
0010
0100
,
0001
0010
0001
2000
0000
0000
3000
0000
,
0100
0010
0001
0020
0000
0130
1000
0000
,
0001
1000
0010
0200
0000
0310
2000
0000
,
3100
0010
0001
0020
0000
0031
1000
0001
,
0100
0010
1000
0100
0010
0001
1000
0010
1000
0001
0100
0001
0010
0100
1000
0001
,
0200
0000
0302
0000
2003
3100
0120
0000
,
0032
0000
0103
0020
2030
3002
0023
0230
,
2300
0000
3001
0100
0001
2000
3200
0320
,
0032
0103
0001
2000
3020
2030
3002
0023
,
0230
0000
1300
0000
0010
0000
0100
0000
0001
0000
0010
0000
0100
1000
0100
1000
,
0002
0000
1003
0000
1100
1100
0100
0010
,
0011
0001
0100
0110
0000
0110
0000
1010
,
1002
0000
0023
0230
2300
0000
3200
0320
,
0031
0100
0001
0010
0100
1000
0001
0100
0010
1000
0100
0010
0001
1000
0001
1000
,
0020
0000
1030
0200
0320
0032
2003
3020
,
0230
0000
0310
1000
0001
0020
0230
2300
,
3020
0130
0001
0200
0320
2030
3002
2003
,
3200
0000
0310
0000
0001
0000
0100
0000
0001
0000
1000
0000
0010
0100
0010
0100
,
0002
0000
1003
0000
1010
1010
0010
0100
,
0101
0001
0010
0110
0000
1100
0000
0101
,
1002
0000
2003
3020
0230
0302
2003
3200
,
0320
0000
0000
0000
0031
1000
0000
0010
,
0100
0101
0011
0110
,
2100
0000
0000
3000
,
1001
0001
0100
0020
0000
0000
0030
0000
,
1000
0001
0010
0200
0000
0310
0001
1000
,
0001
0100
0010
2000
0000
0000
3000
0000
,
0100
0010
0001
0010
0000
0100
2000
0000
,
3002
0203
0320
2030
3100
0020
0230
1300
,
0002
0203
0320
0230
0301
2000
3200
0320
,
0031
0100
0001
1000
0010
1000
0001
0100
0001
1000
0100
0010
0001
1000
0100
1000
,
0020
0000
0230
0000
0301
1000
0200
0000
,
1300
0001
1000
0100
0010
0100
1000
0001
1000
0010
0100
0010
1000
0001
0100
0001
,
0010
0100
0010
0001
1000
0100
1000
0001
1000
0010
1000
0001
0100
0010
0100
0001
,
2000
0000
0000
0000
0000
0000
3200
0000
0000
0000
0320
0000
0000
003M
0000
0000
,
0000
0000
0000
0000
,
0000
0000
0000
0000
,
0000
0000
0000
0000
,
0000
0000
0000
0000
,
0000
0000
0000
0000
,
0000
0000
0000
0000
,
0000
0000
0000
0000
,
0000
0000
0000
0000
,
M000
M000
M000
M000
,
1100
0000
2010
0000
3001
0100
0110
0000
,
2000
0000
3010
0200
0302
2003
3002
0023
,
0230
0000
1300
0010
0100
0020
2030
3200
,
0320
0130
1000
0002
0203
0320
2030
3002
,
0023
0000
0130
0000
1000
0000
0001
0000
0100
0000
0010
0000
0100
0001
0100
0001
,
2000
0000
3100
0000
0110
0110
0010
0001
,
0101
0100
0010
1010
0000
1010
0000
0110
,
0201
0000
0320
0230
0302
0000
0023
0230
,
1300
0010
0100
0001
1000
0100
0010
0001
0100
0010
1000
0001
0010
0100
1000
0001
,
2000
0000
3001
0200
0320
2030
3200
0320
,
0230
0000
1300
0001
0100
0020
2030
3200
,
0320
0130
1000
0002
0203
0302
2003
3020
,
0230
0000
0301
0000
0100
0000
0010
0000
1000
0000
0100
0000
0010
0001
0010
0001
,
2000
0000
3010
0000
0110
0110
0100
0001
,
0011
0010
0100
1100
0000
2000
3002
2003
,
3020
0000
0230
0000
0320
0000
2030
0000
3200
0000
0320
0000
0130
1000
0100
1000
,
0002
0000
0000
0000
1003
0100
0000
0010
,
0110
0000
0000
0000
1100
0000
0000
0000
0100
0010
0001
1000
0010
0100
0001
1000
,
0020
0000
0000
0000
0000
0000
0000
0000
0130
0001
1000
0100
0010
0001
1000
0010
,
0100
0001
0010
0100
0020
0032
2003
3020
,
0230
0000
0302
0000
2003
0000
3002
0000
0023
0000
0230
0000
1300
0001
1000
0001
,
0100
0010
1000
0100
0020
0032
2003
3020
,
0230
0000
0320
0000
1030
0100
1000
0100
0010
0000
0001
0000
0001
0000
0001
0000
,
1000
0000
1010
0000
,
1110
0000
1111
0000
,
0002
0000
0000
0203
0000
0000
0320
0000
1030
0200
0000
1300
,
0020
0000
0000
0000
0000
0000
0000
0030
,
2002
0000
0000
0000
,
0000
0000
0000
0000
,
0000
0000
0000
0000
,
0000
3003
0000
0000
0000
0000
0000
0000
;

//---------------dance-single - C. Yakumo----------------
#NOTES:
     dance-single:
     C. Yakumo:
     Beginner:
     1:
     0.067,0.089,0.000,0.000,0.000:
0000
0000
0000
0000
,
0000
0000
0000
0000
,
0000
0000
0000
0000
,
0000
0000
0000
0000
,
0000
0000
0000
0000
,
0001
0000
0000
0000
,
0000
0000
0000
0000
,
0001
0000
0000
0000
,
0000
0000
0000
0000
,
1000
0000
0000
0000
,
0000
0000
0000
0000
,
0010
0000
0000
0000
,
0000
0000
0000
0000
,
0100
0000
0000
0000
,
0000
0000
0000
0000
,
0001
0000
0000
0000
,
0000
0000
0000
0000
,
1000
0000
0000
0000
,
0000
0000
0000
0000
,
0100
0000
0000
0000
,
0000
0000
0000
0000
,
1000
0000
0000
0000
,
1000
0000
0000
0000
,
0001
0000
0000
0000
,
0001
0000
0000
0000
,
0010
0000
0000
0000
,
0100
0000
0000
0000
,
0010
0000
0000
0000
,
0000
0000
0000
0000
,
0001
0000
0000
0000
,
0000
0000
0000
0000
,
1000
0000
0000
0000
,
0000
0000
0000
0000
,
0010
0000
0000
0000
,
0000
0000
0000
0000
,
0100
0000
0000
0000
,
0000
0000
0000
0000
,
0001
0000
0000
0000
,
0000
0000
0000
0000
,
1000
0000
0000
0000
,
0000
0000
0000
0000
,
0100
0000
0000
0000
,
0000
0000
0000
0000
,
0010
0000
0000
0000
,
0000
0000
0000
0000
,
0001
0000
0000
0000
,
0000
0000
0000
0000
,
1000
0000
0000
0000
,
1000
0000
0000
0000
,
0010
0000
0000
0000
,
0010
0000
0000
0000
,
0100
0000
0000
0000
,
0001
0000
0000
0000
,
0100
0000
0000
0000
,
0000
0000
0000
0000
,
0010
0000
0000
0000
,
1000
0000
0000
0000
,
0001
0000
0000
0000
,
0000
0000
0000
0000
,
0000
0000
0000
0000
,
0000
0000
0000
0000
,
0000
0000
0000
0000
,
0000
0000
0000
0000
,
0000
0000
0000
0000
,
0000
0000
0000
0000
,
0000
0000
0000
0000
,
0000
0000
0000
0000
,
0000
0000
0000
0000
,
1000
0000
0000
0000
,
0000
0000
0000
0000
,
0001
0000
0000
0000
,
0000
0000
0000
0000
,
0010
0000
0000
0000
,
0000
0000
0000
0000
,
0100
0000
0000
0000
,
0000
0000
0000
0000
,
0010
0000
0000
0000
,
0000
0000
0000
0000
,
0001
0000
0000
0000
,
0000
0000
0000
0000
,
1000
0000
0000
0000
,
0000
0000
0000
0000
,
0010
0000
0000
0000
,
0000
0000
0000
0000
,
0100
0000
0000
0000
,
0000
0000
0000
0000
,
0001
0000
0000
0000
,
0000
0000
0000
0000
,
0001
0000
0000
0000
,
0000
0000
0000
0000
,
1000
0000
0000
0000
,
1000
0000
0000
0000
,
1000
0000
0000
0000
,
0010
0000
0000
0000
,
0100
0000
0000
0000
;

//---------------dance-single - C. Yakumo----------------
#NOTES:
     dance-single:
     C. Yakumo:
     Easy:
     3:
     0.218,0.366,0.076,0.217,0.000:
0000
0000
0000
0000
,
0000
0000
0000
0000
,
0000
0000
0000
0000
,
0000
0000
0000
0000
,
0000
0000
0000
0000
,
0001
0000
0200
0000
,
0320
0000
2030
0000
,
3100
0000
0010
0000
,
0002
0000
0000
0000
,
1003
0000
0000
0000
,
0010
0000
0000
0000
,
0100
0000
0000
0000
,
0001
0000
1000
0000
,
0001
0000
0100
0000
,
0001
0000
0000
0000
,
1000
0000
0100
0000
,
1000
0000
0000
0000
,
0010
0000
0100
0000
,
0010
0000
1000
0000
,
0001
0000
0010
0000
,
0110
0000
1001
0000
,
1000
0000
0000
0000
,
0001
0000
0100
0000
,
0010
0000
0000
0000
,
1000
0000
0001
0000
,
0010
0000
0000
0000
,
0100
0000
0000
0000
,
2000
0000
0000
0000
,
3000
0000
0000
0000
,
0001
0000
0100
0000
,
0002
0000
0003
0000
,
0010
0000
0100
0000
,
2000
0000
3000
0000
,
0100
0000
0010
0000
,
0001
0000
1000
0000
,
0001
0000
0100
0000
,
0020
0000
0000
0000
,
1030
0000
0001
0000
,
0200
0000
0300
0000
,
0001
0000
1000
0000
,
0200
0000
0300
0000
,
0010
0000
0001
0000
,
1000
0000
0010
0000
,
0100
0000
0001
0000
,
2000
0000
0000
0000
,
3001
1000
0001
1000
,
0002
0000
0000
0003
,
0100
0000
0000
0000
,
0010
0000
0000
0000
,
1000
0000
0000
0000
,
0100
0000
0000
0000
,
0010
0000
0100
0000
,
1000
0000
0010
0000
,
0200
0000
0000
0000
,
0300
0001
1000
0001
,
0020
0000
0000
0000
,
0230
0000
0000
0000
,
2300
0000
0000
0000
,
3000
0000
0000
0000
,
0000
0000
0000
0000
,
0000
0000
0000
0000
,
0000
0000
0000
0000
,
0000
0000
0000
0000
,
0000
0000
0000
0000
,
0000
0000
0000
0000
,
0000
0000
0000
0000
,
0000
0000
0000
0000
,
0001
0100
0001
0100
,
0001
0000
0010
0000
,
0200
0000
0300
0000
,
1000
0000
0010
0000
,
0200
0000
0300
0000
,
0001
0000
1000
0000
,
0100
0000
0010
0000
,
0100
0000
1000
0000
,
0010
0000
0010
0000
,
0010
0000
0100
0000
,
0002
0000
0003
0000
,
0010
0000
0001
0000
,
2000
0000
3000
0000
,
0100
0000
0010
0000
,
0001
0000
0100
0000
,
0010
0000
1000
0000
,
0002
0000
0000
0000
,
0013
0000
0100
0000
,
1000
0000
0000
0000
,
1001
0000
0000
0000
,
0001
0000
0100
0000
,
0110
0000
0000
0000
,
0010
0000
1000
0000
,
1001
0000
0110
0000
,
1001
0000
0110
0000
,
0001
0010
0100
1000
,
0002
0000
0000
0000
,
2003
0000
0000
0000
,
0000
0000
0000
0000
,
0000
0000
0000
0000
,
3000
0000
0000
0000
;

//---------------dance-single - C. Yakumo----------------
#NOTES:
     dance-single:
     C. Yakumo:
     Medium:
     8:
     0.555,0.732,0.113,0.510,0.005:
0000
0000
0000
0000
,
0000
0000
0000
0000
,
0000
0000
0000
0000
,
0000
0000
0000
0000
,
0000
0000
0000
0000
,
0001
0000
0100
0000
0020
0000
0000
2030
,
0000
3100
0020
0000
,
0031
0000
0100
0000
0010
0000
0000
1000
,
0000
0100
0100
0100
,
0010
0000
0000
0000
0001
0000
1000
0020
,
0000
0030
0100
0001
,
0010
0000
0100
0000
1000
0001
1000
0001
,
0000
0001
0000
0100
0010
0000
0000
0000
,
1000
0010
1000
0010
,
0100
0001
0010
0100
,
1000
0010
1000
0010
,
0100
0001
1000
0100
,
0010
0001
0010
0001
,
1000
0010
0100
0001
,
0010
0100
0010
0100
,
2000
0000
3002
0000
,
1003
0010
0100
0020
0000
0000
0030
0000
,
1000
0001
1000
0200
0000
0310
0001
1000
,
0001
0100
0010
2000
0000
0000
3000
0000
,
0001
0100
0001
0020
0000
0130
2000
0000
,
3001
0100
0001
0200
0000
0301
2000
0000
,
3100
0010
0100
0020
0000
0031
1000
0010
,
0200
0000
0000
0000
,
0300
0010
1000
0001
,
0200
0000
0000
0310
1000
0010
0100
0001
,
2000
0000
0000
0000
3000
0100
1000
0001
,
0020
0000
0000
0031
1000
0100
0010
0001
,
2000
0000
3000
0001
,
0100
0000
0100
0000
0010
1000
0001
0010
,
0000
0100
1000
0001
0000
0001
0000
0001
,
0100
0000
0010
0100
0010
0000
0100
0001
,
1000
0000
1001
0000
0001
0100
0001
0010
,
0200
0000
0000
1300
0001
1000
0010
0100
,
0002
0000
0000
0003
0000
0010
0001
1000
,
0200
0000
0000
1300
0001
0010
0100
1000
,
0002
0000
0003
0100
,
0010
0000
0100
0000
0001
1000
0100
0010
,
0100
1000
0001
0100
0000
0001
0000
1000
,
0100
0000
0010
0001
0010
0001
1000
0010
,
0200
0000
0000
0000
0300
0000
0000
0010
,
1000
0001
0010
0100
,
2000
0000
0000
3000
,
0100
1000
0100
0020
0000
0000
0030
0000
,
0001
1000
0001
0200
0000
0310
1000
0010
,
0100
0001
1000
0200
0000
0000
0300
0000
,
0010
0001
0010
0200
0000
1300
0002
0000
,
1003
0010
1000
0002
0000
0013
0200
0000
,
1300
0001
1000
0200
0000
0310
0001
1000
,
0020
0000
0000
0000
,
0030
0100
0001
1000
,
0200
0000
0000
0310
0000
0001
0000
1000
,
0020
0000
0000
0130
0000
0001
0000
1000
,
0200
0000
0000
0000
0000
0000
1300
0000
0000
0000
0001
0000
0000
0M00
0000
0000
,
0000
0000
0000
0000
,
0000
0000
0000
0000
,
0000
0000
0000
0000
,
0000
0000
0000
0000
,
0000
0000
0000
0000
,
0000
0000
0000
0000
,
0000
0000
0000
0000
,
0000
0000
0000
0000
,
0000
0000
0000
0000
,
0000
1000
0100
0010
,
0012
0000
0000
1003
0010
1000
0001
0100
,
0020
0000
0000
0030
0000
0100
0001
1000
,
0200
0000
0000
0310
0100
1000
0001
0100
,
0020
0000
0030
0100
,
0001
0000
1000
0000
0100
1000
0001
0010
,
0100
0010
0001
1000
0000
1001
0000
0001
,
0100
0000
0010
0100
0010
0000
1000
0010
,
0100
0000
0001
0000
0001
0010
0001
1000
,
0200
0000
0000
1300
0001
0100
0010
1000
,
0002
0000
0000
0000
0003
0010
0001
0010
,
0200
0000
0000
1300
0001
0100
0020
1030
,
0200
0000
0300
0010
,
0001
0000
1000
0000
0010
0100
0010
1000
,
0001
0010
0100
1000
0000
0001
0100
0001
,
1000
0100
0010
0001
1000
0100
1000
0001
,
0200
0000
0000
0000
0300
0000
0000
0010
,
1000
1100
0110
0011
,
2001
0000
0000
0000
,
3001
0000
0100
0000
0002
0000
0000
0013
,
0000
0001
1000
0000
0200
0000
0000
0000
,
0310
0000
0100
0000
2000
0000
0000
3001
,
0000
0100
0010
0000
1000
0000
0100
0000
,
0110
0000
1001
0000
,
0011
0000
1100
0000
,
0001
0100
0010
1000
,
0020
0000
0000
0030
,
2002
0000
0000
0000
,
0000
0000
0000
0000
,
0000
0000
0000
0000
,
3003
0000
0000
0000
;

//---------------dance-single - C. Yakumo----------------
#NOTES:
     dance-single:
     C. Yakumo:
     Hard:
     9:
     0.677,0.824,0.340,0.462,0.000:
0000
0000
0000
0000
,
0000
0000
0000
0000
,
0000
0000
0000
0000
,
0000
0000
0000
0000
,
0000
0000
0000
0000
,
0101
0000
0101
0000
0110
0010
1000
0010
,
0100
0001
1000
0001
0010
0100
1000
0001
,
1001
0000
1001
0000
1000
0100
0010
0200
,
0000
1300
0001
1000
0010
0100
0001
0010
,
0210
0000
1300
0001
1000
0010
0100
0102
,
0000
0013
0001
1000
0001
0100
0010
1000
,
1200
0000
0310
0001
1000
0001
0100
0110
,
0000
1010
0000
1000
1001
0000
0000
0000
,
0001
0010
0001
0100
0010
1000
0100
1000
,
0100
0010
0100
1000
0001
0100
0010
1000
,
0001
0010
0100
0010
0001
1000
0001
1000
,
0100
0010
0001
0100
0010
1000
0001
1000
,
0010
0100
0001
0100
0010
1000
0001
1000
,
0100
0010
0001
0100
0010
1000
0001
0010
,
0100
1000
0001
0100
0010
1000
0100
0010
,
0012
0000
0000
0003
2010
0000
0000
3000
,
0001
1000
0100
0002
0000
0000
0003
0000
,
0100
1000
0001
0200
0000
0310
0100
0001
,
1000
0010
0100
2000
0000
0000
3000
0000
,
0100
0001
1000
0010
0000
0010
0100
0000
,
0001
1000
0100
0020
0000
0130
2000
0000
,
3001
0100
0010
0200
0000
0301
1000
0100
,
0040
0000
0000
0000
0000
0000
0000
0030
,
1001
0001
1000
0010
,
0210
0000
0000
0301
1000
0001
0010
0100
,
2000
0000
0000
3000
0000
0100
0010
0001
,
2000
0000
0000
3010
0100
0001
0100
0010
,
2000
0000
3000
0100
,
0010
0000
0001
0000
1000
0001
0100
0010
,
0000
0010
1000
0001
0000
1001
0000
1000
,
0200
0000
0310
0001
0200
0000
0310
1000
,
0001
0000
0011
0000
1100
1000
0001
0010
,
2000
0000
0000
3010
0001
0100
0001
1000
,
0020
0000
0000
0000
0030
0100
0001
0100
,
2000
0000
0000
3100
0010
1000
0001
0010
,
0200
0000
0300
1000
,
0001
0000
0100
0000
0001
0010
0001
0100
,
0010
1000
0100
0110
0000
0011
0000
0001
,
2001
0000
3010
0100
0010
1000
0001
0010
,
0200
0000
0000
0000
0300
0000
0000
0010
,
0001
0100
0010
1000
,
0002
0000
0000
0003
,
0010
0001
0010
0200
0000
0000
0300
0000
,
1000
0010
1000
0200
0000
0310
0001
1000
,
0001
0100
0010
2000
0000
0000
3000
0000
,
0010
0100
0001
0010
0000
0010
0100
0000
,
1000
0001
1000
0020
0000
0130
0002
0000
,
0013
0100
0010
0002
0000
1003
0001
0100
,
0040
0000
0000
0000
,
0030
1000
0100
0010
,
0002
0000
0000
0103
0000
0010
0000
0100
,
2000
0000
0000
3100
0000
0001
0000
0010
,
2000
0000
0000
3010
0000
0001
0000
0000
,
0000
0000
0000
0000
,
0000
0000
0000
0000
,
0000
0000
0000
0000
,
0000
0000
0000
0000
,
0000
0000
0000
0000
,
0000
0000
0000
0000
,
0000
0000
0000
0000
,
0000
0000
0000
0000
,
0000
0000
0000
0000
,
0000
1000
0100
0010
,
0012
0000
0000
1003
0010
1000
0001
0010
,
0200
0000
0000
0000
0300
0010
0001
1000
,
0020
0000
0000
0130
0001
0100
0010
1000
,
0200
0000
0300
0010
,
0001
0000
1000
0000
0010
0100
0010
1000
,
0001
1000
0100
0110
0000
0011
0000
0001
,
2001
0000
3010
0100
0002
0000
0013
0100
,
1000
0000
0001
0000
1000
0010
0100
0001
,
0020
0000
0000
0130
0010
0001
1000
0010
,
0002
0000
0000
0000
0003
0010
1000
0001
,
0200
0000
0000
0310
0100
0001
0010
0100
,
0002
0000
0003
0100
,
1000
0000
0001
0000
0100
0010
1000
0001
,
0010
0001
0100
0110
0000
0010
1000
0001
,
0010
0100
1000
0100
0010
0001
0100
0010
,
2000
0000
0000
0000
0000
3000
0000
0100
,
0110
0011
0101
1010
,
2100
0000
0000
0000
,
3001
0010
0001
0100
0001
0010
0100
1000
,
0010
0100
0001
0010
0100
0010
0001
0100
,
0010
1000
0001
0010
0001
1000
0100
1000
,
0010
0100
0001
0010
0100
1000
0010
0100
,
0101
0000
1001
0000
,
1010
0000
0110
0000
,
0100
0000
0001
0000
1000
0100
0010
0001
,
0200
0000
0000
0000
0000
0000
0000
0300
,
2002
0000
0000
0000
,
0000
0000
0000
0000
,
0000
0000
0000
0000
,
3003
0000
0000
0000
;
