#TITLE:밀크쉐이크;
#SUBTITLE:;
#ARTIST:Orange Caramel;
#TITLETRANSLIT:Milkshake;
#SUBTITLETRANSLIT:;
#ARTISTTRANSLIT:;
#GENRE:;
#CREDIT:;
#BANNER:[Moon Runes] - Milkshake.png;
#BACKGROUND:[Moon Runes] - Milkshake-bg.png;
#LYRICSPATH:;
#CDTITLE:;
#MUSIC:[Moon Runes] - Milkshake.ogg;
#OFFSET:-0.726;
#SAMPLESTART:57.540;
#SAMPLELENGTH:16.111;
#SELECTABLE:YES;
#BPMS:0.000=135.000
;
#STOPS:
;
#BGCHANGES:;
#KEYSOUNDS:;
#ATTACKS:;

//---------------dance-single - ----------------
#NOTES:
     dance-single:
     :
     Hard:
     7:
     0.531,0.441,0.453,0.492,0.059,282.000,46.000,50.000,0.000,0.000,0.000,0.531,0.441,0.453,0.492,0.059,282.000,46.000,50.000,0.000,0.000,0.000:
0000
0000
0000
0000
,
0000
0000
0000
0000
,
0000
0000
0000
0000
,
0000
0000
0000
0000
,
1000
0100
1000
0100
1000
0010
1000
0010
,
0100
0010
0100
0010
0100
0001
0100
0001
,
0010
0001
0010
0001
1000
0001
1000
0001
,
1000
0010
1000
0010
1000
0001
1001
0000
,
2000
0000
0000
0000
3020
0000
0000
0000
0230
0000
0000
0302
0000
0000
0013
0000
,
0001
0100
0010
1000
0001
0000
1001
0000
,
2000
0000
0000
0000
3200
0000
0000
0000
0320
0000
0000
0032
0000
0000
0103
0000
,
0001
0010
0100
1000
0001
0000
1001
0000
,
1000
0010
1000
0100
1000
0001
1000
0000
,
0010
0100
0010
0100
0010
0000
0110
0000
,
0001
0100
0001
0010
0001
1000
0001
0000
,
0010
0100
0010
0100
0010
0000
0110
0100
,
2100
0000
0000
0000
0010
0000
0000
0000
0100
0000
0000
0010
0000
0000
3001
0000
,
1002
0000
0000
0000
0100
0000
0000
0000
0010
0000
0000
0100
0000
0000
1003
0000
,
2001
0000
0000
0000
0100
0000
0000
0000
0010
0000
0000
0100
0000
0000
3001
0000
,
1002
0000
0000
0000
0100
0000
0000
0000
0010
0000
0000
0100
0000
0000
1003
0000
,
0001
0000
0000
0000
2001
0000
0000
0000
0001
0000
0000
0001
0000
0000
0001
0000
,
3001
0000
0000
0000
0201
0000
0000
0000
0010
0000
0000
0010
0000
0000
0010
0000
,
0310
0000
0000
0000
0120
0000
0000
0000
0100
0000
0000
0100
0000
0000
0100
0000
,
0130
0000
0000
0000
1002
0000
0000
0000
1000
0000
0000
1000
0000
0000
1000
0000
,
1003
1001
0001
1001
,
1000
0100
1000
0010
1000
0001
1000
0001
,
1000
1001
0001
1001
,
2000
3020
0200
0330
,
0010
0110
0100
0110
,
0020
2030
0002
3003
,
0010
0110
0100
0110
,
0010
0000
0001
0000
1000
0000
0010
0000
0100
0000
0010
0100
0000
0010
0100
0000
,
0001
0010
0001
0100
0001
1000
0001
0010
,
0011
1010
0011
1010
,
1000
0100
1000
0010
1000
0001
1000
0100
,
1100
0101
1100
0101
,
1000
0001
1000
0000
1001
0000
1001
0000
,
0010
0100
0010
0000
0110
0000
0110
0000
,
0100
0001
0100
0000
0001
1000
0001
0000
,
2000
3200
0020
0330
,
0010
1000
0010
0001
0010
1000
0010
0001
,
0011
0110
1100
1001
,
0100
1000
0100
0001
0100
1000
0100
0001
,
0101
0110
1010
1001
,
0001
1000
0001
0000
0011
0000
1010
0000
,
1000
0001
1000
0000
1100
0000
0101
0000
,
0001
0010
0001
0100
0001
1000
0001
1000
,
0002
1003
2002
3003
,
0002
0000
0023
0000
0032
0000
1003
0001
,
2000
0000
3020
0000
2030
0000
3010
1000
,
0200
0000
2300
0000
3200
0000
1300
0100
,
0020
0230
0320
0030
,
0002
0000
2003
0000
3002
0000
1003
0001
,
2000
0000
3020
0000
2030
0000
3010
1000
,
0020
0000
0230
0000
0310
0100
0001
0020
,
0200
0000
0000
0000
,
0330
0000
0000
0000
;

//---------------dance-single - ----------------
#NOTES:
     dance-single:
     :
     Medium:
     6:
     0.426,0.386,0.364,0.325,0.005,233.000,37.000,33.000,0.000,0.000,0.000,0.426,0.386,0.364,0.325,0.005,233.000,37.000,33.000,0.000,0.000,0.000:
0000
0000
0000
0000
,
0000
0000
0000
0000
,
0000
0000
0000
0000
,
0000
0000
0000
0000
,
2000
0100
3200
0010
,
0320
0001
0032
0100
,
0203
0010
0320
1000
,
2030
0000
0001
0000
3001
1000
0001
0000
,
1100
0000
0101
0000
1000
0001
1000
0000
,
0100
0010
0001
0100
,
0101
0000
1100
0000
1000
0100
1000
0000
,
0010
0000
0100
0000
0001
0000
1000
0001
,
1000
0000
1001
0000
0001
0010
0001
0000
,
0010
0110
0100
1100
,
1000
0000
1001
0000
0001
0100
0001
0000
,
0100
0000
0110
0000
0010
0000
1010
1000
,
1001
0000
0001
0000
0100
0000
0010
0100
,
0010
0000
1000
0000
0100
0000
0010
0100
,
0010
0000
0001
0000
1000
0000
0010
0100
,
0001
0000
1000
0000
0001
0000
0010
0100
,
2000
0000
0010
0000
0100
0000
0010
0010
,
3020
0000
0100
0000
1000
0000
0100
0100
,
0230
0000
0001
0000
0010
0000
0001
0001
,
0302
0000
0010
0000
0100
0000
1000
1000
,
1003
0001
0100
0101
,
0001
0000
1000
0000
0001
1000
0001
1000
,
0001
1000
0100
0110
,
0010
0001
2002
3003
,
1000
0001
0010
0010
,
0001
0100
0010
0010
,
1000
1000
0001
0001
,
1000
0000
0100
0000
1000
0000
0001
0000
1000
0000
0000
0001
0000
0000
0100
0000
,
0001
0010
0100
1000
,
1100
1100
1100
1100
,
1000
0010
0100
0001
,
0101
0101
0101
0101
,
0002
0010
0100
0100
,
2003
0010
0100
0100
,
3002
0100
2003
0100
,
3002
1003
2002
3003
,
0001
0010
0100
0000
1000
0010
0100
0000
,
0101
1001
1100
1001
,
1000
0100
0010
0000
0001
0100
0010
0000
,
1010
1001
0011
1001
,
0001
0010
0110
0110
,
0100
1000
1001
1001
,
0001
0000
0100
0000
0010
0100
0010
0000
,
1000
0001
2002
3003
,
2000
0000
0010
0000
0001
0000
0010
0010
,
3020
0000
0100
0000
1000
0000
0100
0100
,
0230
0000
0001
0000
0010
0000
0001
0001
,
0302
1003
2002
3003
,
0002
0000
0010
0000
0100
0000
0010
0010
,
0023
0000
0100
0000
0001
0000
0100
0100
,
0230
0000
1000
0000
1300
0010
0100
0002
,
2000
0000
0000
0000
,
3003
0000
0000
0000
;

//---------------dance-single - ----------------
#NOTES:
     dance-single:
     :
     Easy:
     4:
     0.313,0.303,0.069,0.226,0.000,193.000,7.000,23.000,0.000,0.000,0.000,0.313,0.303,0.069,0.226,0.000,193.000,7.000,23.000,0.000,0.000,0.000: // measure 0
0000
0000
0000
0000
,  // measure 1
0000
0000
0000
0000
,  // measure 2
0000
0000
0000
0000
,  // measure 3
0000
0000
0000
2000
,  // measure 4
0000
3020
0000
0230
,  // measure 5
0000
0302
0000
0023
,  // measure 6
0000
0230
0000
2300
,  // measure 7
0000
3001
1000
0001
,  // measure 8
0010
0001
0001
0100
,  // measure 9
0010
0100
0100
0010
,  // measure 10
1000
0100
0100
1000
,  // measure 11
0010
0100
0001
0001
,  // measure 12
0010
0100
0100
1000
,  // measure 13
0010
0100
0100
0010
,  // measure 14
1000
0001
0001
0010
,  // measure 15
0100
1000
0010
0010
,  // measure 16
1000
0100
0010
0010
,  // measure 17
0001
0100
0010
0010
,  // measure 18
1000
0001
1000
1000
,  // measure 19
0001
1000
0001
0002
,  // measure 20
0010
0100
0100
2003
,  // measure 21
0100
0010
0010
3002
,  // measure 22
0100
2003
0100
3002
,  // measure 23
0010
2000
3003
0001
,  // measure 24
0001
1000
1000
0001
,  // measure 25
1000
1001
1001
0100
,  // measure 26
0100
0010
0010
0100
,  // measure 27
0010
0110
0000
0001
,  // measure 28
0100
0010
0010
1000
,  // measure 29
0100
1000
1000
0002
,  // measure 30
0100
2003
0100
3002
,  // measure 31
0010
2003
0010
3001
,  // measure 32
0010
0001
1000
0010
,  // measure 33
0010
0010
0010
1000
,  // measure 34
0100
1000
0001
0010
,  // measure 35
0010
0010
0010
0100
,  // measure 36
1000
0001
0001
0100
,  // measure 37
0010
1000
1000
0100
,  // measure 38
1000
0010
0100
0001
,  // measure 39
0020
0200
0330
1000
,  // measure 40
0010
0100
0001
1000
,  // measure 41
0001
1000
1001
0001
,  // measure 42
0010
0100
1000
0001
,  // measure 43
1000
0001
1001
1000
,  // measure 44
0010
0100
0110
0010
,  // measure 45
0100
0001
0101
0100
,  // measure 46
0001
0010
0010
0100
,  // measure 47
2000
0002
3003
1000
,  // measure 48
1000
1000
1000
0100
,  // measure 49
0100
0100
0100
0010
,  // measure 50
0010
0010
0010
0001
,  // measure 51
0001
0002
0003
0001
,  // measure 52
0001
0001
0001
0100
,  // measure 53
0100
0100
0100
0010
,  // measure 54
0010
1000
0010
2000
,  // measure 55
0000
0000
0000
0000
,  // measure 56
3000
0000
0000
0000
;

//---------------dance-single - ----------------
#NOTES:
     dance-single:
     :
     Beginner:
     1:
     0.122,0.135,0.000,0.000,0.000,87.000,0.000,0.000,0.000,0.000,0.000,0.122,0.135,0.000,0.000,0.000,87.000,0.000,0.000,0.000,0.000,0.000:
0000
0000
0000
0000
,
0000
0000
0000
0000
,
0000
0000
0000
0000
,
0000
0000
0000
0000
,
1000
0000
1000
0000
,
0001
0000
0001
0000
,
0010
0000
0010
0000
,
0100
0000
0100
0000
,
1000
0000
0000
0000
,
0010
0000
0010
0000
,
0010
0000
0000
0000
,
0100
0000
0100
0000
,
0100
0000
0000
0000
,
0001
0000
0001
0000
,
0001
0000
0000
0000
,
1000
0000
1000
0000
,
1000
0000
0000
0000
,
0000
0000
0000
0000
,
0001
0000
0000
0000
,
0000
0000
0000
0000
,
0010
0000
0000
0000
,
0001
0000
0000
0000
,
0100
0000
0000
0000
,
0010
0000
0000
0000
,
1000
0000
1000
0000
,
1000
0000
0000
0000
,
0100
0000
0100
0000
,
0100
0000
0000
0000
,
0010
0000
0010
0000
,
0001
0000
0001
0000
,
1000
0000
1000
0000
,
0001
0001
0001
0000
,
1000
0000
1000
0000
,
0010
0000
0010
0000
,
0100
0000
0100
0000
,
0001
0000
0001
0000
,
0010
0000
0000
0000
,
0100
0000
0000
0000
,
1000
0000
0001
0000
,
1000
1000
1000
0000
,
0001
0000
0001
0000
,
0010
0000
0010
0000
,
0100
0000
0100
0000
,
1000
0000
1000
0000
,
0010
0000
0000
0000
,
0100
0000
0000
0000
,
0001
0000
1000
0000
,
0001
0001
0001
0000
,
1000
0000
1000
0000
,
0001
0000
0001
0000
,
0100
0000
0100
0000
,
0001
0001
0001
0000
,
0010
0000
0010
0000
,
0100
0000
0100
0000
,
1000
0000
0001
0000
,
1000
0000
0000
0000
;
