#TITLE:三毛猫ロック;
#SUBTITLE:;
#ARTIST:亜熱帯マジ-SKA爆弾;
#TITLETRANSLIT:MIKENEKO ROCK;
#SUBTITLETRANSLIT:;
#ARTISTTRANSLIT:Anettai Maji-SKA Bakudan;
#CREDIT:;
#BANNER:mikenekobn.png;
#BACKGROUND:mikenekobg.png;
#LYRICSPATH:;
#CDTITLE:cd.png;
#MUSIC:MIKENEKO ROCK.ogg;
#OFFSET:-0.285;
#SAMPLESTART:6.120;
#SAMPLELENGTH:11.640;
#SELECTABLE:YES;
#DISPLAYBPM:246.000;
#BPMS:0.000=246.000,328.000=250.000,370.000=190.000,372.000=164.000,374.000=149.500;
#STOPS:;
#BGCHANGES:;

//---------------dance-single - ----------------
#NOTES:
     dance-single:
     :
     Hard:
     10:
     0.968,0.971,0.506,0.860,0.101: // measure 1
0000
0000
0000
0000
,  // measure 2
0000
0000
0000
0000
,  // measure 3
1000
0100
0010
0100
1000
0100
0010
0001
,  // measure 4
1000
0010
0100
0010
1000
0010
0100
0001
,  // measure 5
1000
0100
0010
0100
1000
0100
0010
0001
,  // measure 6
1000
0010
0100
0010
1000
0010
0100
0001
,  // measure 7
2000
0000
3100
0020
0031
0000
0001
2000
,  // measure 8
0010
3000
0020
0030
0100
0002
1003
0200
,  // measure 9
0300
1100
0000
0000
0110
0000
0000
0000
,  // measure 10
0011
0000
0000
1001
0000
0101
0000
0000
,  // measure 11
0002
0000
0103
0020
1030
0000
1000
0002
,  // measure 12
0010
0003
0020
0030
0001
2000
3010
0200
,  // measure 13
0300
0101
0000
0000
0110
0000
0000
0000
,  // measure 14
1010
0000
0000
0101
0000
0110
0000
0000
,  // measure 15
0020
0000
1030
0002
0103
0000
0100
0020
,  // measure 16
1000
0030
2000
3000
0100
0020
0031
2002
,  // measure 17
3003
0000
0001
0000
1000
0100
0010
0001
,  // measure 18
1000
0000
0002
2000
0000
0000
0000
3003
,  // measure 19
0002
0000
0013
0200
1300
0000
1000
0002
,  // measure 20
0100
0003
0200
0300
0010
2000
3001
0020
,  // measure 21
0130
2000
0000
3001
0100
0010
1000
0002
,  // measure 22
0000
1003
0100
0010
0100
1000
0002
0000
,  // measure 23
2003
0000
3010
0200
0301
0000
0001
2000
,  // measure 24
0100
3000
0200
0300
1000
0002
0103
0020
,  // measure 25
1030
0001
1000
0001
0010
0100
1000
0100
,  // measure 26
0010
0100
1000
0001
1000
0001
0100
0001
,  // measure 27
2000
0000
3001
0200
0310
0000
0010
2000
,  // measure 28
0001
3000
0002
0003
1000
0200
0310
0022
,  // measure 29
0033
0000
0001
0000
0001
1000
0100
0010
,  // measure 30
0001
0000
2000
0002
0000
0000
0000
3003
,  // measure 31
1100
0000
0000
0110
0000
0000
0011
0000
,  // measure 32
0000
1001
0000
0000
1010
0000
0110
0000
,  // measure 33
0101
1001
1100
0110
,  // measure 34
0010
0001
0100
0010
1000
0100
0010
0001
,  // measure 35
0202
0003
0010
0000
1000
0000
0010
0000
,  // measure 36
0001
0000
0000
0310
0000
0000
1000
0001
1000
0001
1000
0001
,  // measure 37
1000
0010
0100
0001
,  // measure 38
1000
0000
0001
0100
0000
0100
0001
0000
,  // measure 39
1000
0000
0100
0000
0010
0001
1000
0001
,  // measure 40
0100
0000
0010
0000
1000
0001
0100
0000
,  // measure 41
0001
0000
1000
0000
0100
0000
0010
0001
,  // measure 42
0000
1000
0000
1001
0000
0001
1001
0000
,  // measure 43
0001
0101
0100
0110
,  // measure 44
0010
1010
1000
1001
,  // measure 45
0001
0011
0010
0110
,  // measure 46
0100
0000
1100
0000
1000
0001
0200
0000
,  // measure 47
0310
1000
0001
0010
0100
0010
0001
0010
,  // measure 48
0100
1000
0100
0010
0100
1000
0001
0100
,  // measure 49
0010
1000
0100
0020
0000
0130
1000
0001
,  // measure 50
0100
0010
1000
0002
0200
0000
0000
0303
,  // measure 51
0100
0010
1000
0001
0010
0100
0010
0001
,  // measure 52
1000
0000
0000
0100
0000
0000
0020
0000
0000
0000
0000
0000
0001
0000
0000
0000
0000
0000
0031
0000
1000
0000
0100
0000
,  // measure 53
1000
0001
0010
0100
1000
1001
0000
0110
,  // measure 54
0000
1001
0000
0110
0000
0100
1001
0000
,  // measure 55
1000
0000
0000
0001
0000
0000
0000
0000
0000
1000
0000
0000
0001
0000
0100
0000
0001
0000
0100
0000
0000
0010
0000
0000
,  // measure 56
0000
0000
0000
1000
0000
0000
0001
0000
0100
0000
0001
0000
0100
0000
0000
0010
0000
0000
1000
0000
0000
0001
0000
0000
,  // measure 57
1000
0000
0000
0010
0000
0000
0000
0000
0000
1000
0000
0000
0001
0000
0100
0000
0001
0000
0100
0000
0000
0010
0000
0000
,  // measure 58
0000
0000
0000
1000
0000
0000
0001
0000
0100
0000
0001
0000
0100
0000
0000
0010
0000
0000
1000
0000
0000
0001
0000
0000
,  // measure 59
1000
0000
0001
0100
0000
0010
1000
0000
,  // measure 60
0001
0100
0010
1000
0001
0100
0010
0000
,  // measure 61
1000
0000
0010
0000
0100
0000
0001
0000
0010
0000
0100
0000
,  // measure 62
1000
0000
0010
0000
0100
0000
0110
0000
0000
0010
0000
0000
,  // measure 63
1000
0000
0001
0100
0000
0010
1000
0001
,  // measure 64
0010
0000
0100
1000
0000
0001
0100
0010
,  // measure 65
1000
0000
0001
0100
0001
1000
0001
0100
,  // measure 66
0001
1000
0001
0100
0002
0003
1001
0000
,  // measure 67
1000
0100
0010
0100
1000
0100
0010
0001
,  // measure 68
1000
0010
0100
0010
1000
0010
0100
0001
,  // measure 69
1000
0100
0010
0100
1000
0100
0010
0001
,  // measure 70
1000
0010
0100
0010
1000
0010
0100
0001
,  // measure 71
2000
0000
3100
0020
0031
0000
0001
2000
,  // measure 72
0010
3000
0020
0030
0100
0002
1003
0200
,  // measure 73
0310
0002
1000
0003
1000
0002
1000
0003
,  // measure 74
1000
0010
0100
0001
1000
0100
0020
0000
,  // measure 75
0032
0000
0013
0200
1300
0000
1000
0002
,  // measure 76
0100
0003
0200
0300
0010
2000
3001
0020
,  // measure 77
0130
1000
0100
0010
0001
0010
0100
0010
,  // measure 78
0001
1000
0010
0100
0001
1000
0200
0000
,  // measure 79
2300
0000
3001
0020
0130
0000
0100
2000
,  // measure 80
0001
3000
0002
0003
0100
0020
1030
2002
,  // measure 81
3003
0000
1000
0000
0001
0010
0100
1000
,  // measure 82
0001
0000
2000
0002
0000
0000
0000
3003
,  // measure 83
1000
0001
0010
0100
0000
1000
0010
0000
,  // measure 84
0100
0001
0000
0010
0100
0000
1000
0001
,  // measure 85
0000
0100
0010
0000
1000
0100
0000
0010
,  // measure 86
0001
0000
2002
0000
3003
1000
0100
0000
,  // measure 87
1100
1000
0011
0001
,  // measure 88
1000
0010
1000
0001
1000
0001
0010
0100
,  // measure 89
1000
0100
0010
0100
1000
0001
1000
0010
,  // measure 90
0100
0001
1000
0100
0020
0000
0130
0000
,  // measure 91
1001
0000
0101
0000
0100
0010
0000
0110
,  // measure 92
0000
0100
0001
1000
0100
0000
2000
0002
,  // measure 93
0000
3003
0011
0000
,  // measure 94
0110
0000
2002
0000
,  // measure 95
0000
0000
0000
0000
,  // measure 96
0000
0000
0000
3003
,  // measure 97
0110
0000
0000
0000
;

//---------------dance-single - ----------------
#NOTES:
     dance-single:
     :
     Medium:
     8:
     0.722,0.825,1.000,0.152,0.030:
0000
0000
0000
0000
,
0000
0000
0000
0000
,
1000
0100
1000
0000
1000
0001
1000
0000
,
0001
0100
0001
0000
0001
1000
0001
0000
,
1000
0100
1000
0000
1000
0001
1000
0000
,
0001
0100
0001
0000
0001
1000
0001
0000
,
1001
0000
0000
0011
0000
0000
0000
0110
,
0000
0000
1100
0000
1000
0001
0000
0101
,
0000
0110
0000
0000
1001
0000
0000
0000
,
0011
0000
0000
0110
0000
1001
0000
0000
,
0101
0000
0000
0110
0000
0000
0000
1010
,
0000
0000
1001
0000
0001
0010
0000
0110
,
0000
1100
0000
0000
1001
0000
0000
0000
,
0101
0000
0000
0110
0000
1001
0000
0000
,
0011
0000
0000
1001
0000
0000
0000
1100
,
0000
0000
1010
0000
1000
0001
0000
0101
,
0000
0000
0001
0000
0001
1000
0010
0100
,
0001
0000
0002
2000
0000
0000
0000
3003
,
0110
0000
0000
1001
0000
0000
0000
1100
,
0000
0000
1001
0000
1000
0100
0000
0110
,
0000
0100
1000
0001
,
0100
0000
0010
0000
1000
0001
0010
0000
,
0110
0000
0000
0011
0000
0000
0000
0110
,
0000
0000
0011
0000
0001
1000
0000
1001
,
0000
0001
0100
0010
,
1000
0000
0001
0100
0000
0100
0001
0000
,
0101
0000
0000
1010
0000
0000
0000
1001
,
0000
0000
0101
0000
0001
1000
0000
1100
,
0000
0000
1000
0000
1000
0010
0100
0001
,
1000
0000
2000
0002
0000
0000
0000
3003
,
0101
0000
0000
0101
0000
0000
1001
0000
,
0000
1001
0000
0000
1100
0000
1100
0000
,
1100
0011
0011
0011
,
0001
1000
0001
1000
0001
1000
0001
1000
,
0002
1000
0000
1000
,
0000
1003
0010
0100
,
0001
1001
1000
1001
,
0000
0000
0001
0100
0000
0100
0001
0000
,
1000
0000
1100
0000
0100
0010
0001
0010
,
0100
0000
0110
0000
0010
0100
1000
0000
,
0001
0000
1001
0000
1000
0000
0010
0100
,
0000
0001
0000
1000
0000
1000
0100
0010
,
0001
0011
0010
0110
,
0100
1100
1000
1001
,
0001
0101
0100
0110
,
0010
0000
1010
0000
1000
0001
0100
0000
,
0001
0011
0010
0110
,
0100
1100
1000
1001
,
0001
0101
0100
0110
,
0010
1010
1000
1001
,
0001
0011
0010
0110
,
0100
1100
1000
1001
,
0001
0000
0101
0000
0100
0010
0000
1000
,
0000
0001
0000
0100
0000
0001
1000
0000
,
1000
0100
0000
0100
0010
0000
0010
0001
,
0000
0001
1000
0000
0001
0000
0100
0000
,
0001
1000
0000
1000
0100
0000
0100
0010
,
0000
0010
0001
0000
1000
0000
0010
0000
,
0100
0000
0001
1000
0000
0001
1000
0000
,
0001
0001
1000
1000
,
0010
0000
0100
0000
0010
0000
1000
0000
0001
0000
1000
0000
,
0010
0000
0100
0000
0010
0000
1000
0000
0000
0001
0000
0000
,
1000
0000
0001
0100
0000
0001
0100
0000
,
0010
0000
1000
0010
0000
1000
0010
0000
,
1000
0001
0001
0001
,
0001
0000
0001
0000
2002
0000
0000
3003
,
0001
0010
0001
0000
0001
1000
0001
0000
,
1000
0010
1000
0000
1000
0001
1000
0000
,
0001
0010
0001
0000
0001
1000
0001
0000
,
1000
0010
1000
0000
1000
0001
1000
0000
,
1100
0000
0000
0011
0000
0000
0000
0110
,
0000
0000
1001
0000
1000
0100
0000
0110
,
0000
0010
0001
1000
,
0010
0100
0001
1000
,
1001
0000
0000
0011
0000
0000
0000
0110
,
0000
0000
0011
0000
0001
1000
0000
1001
,
0000
0001
0100
0010
,
1000
0100
0010
0001
,
1001
0000
0000
0110
0000
0000
0000
1010
,
0000
0000
0101
0000
0001
1000
0000
1001
,
0000
0000
1000
0000
1000
0010
0100
0001
,
1000
0000
2000
0002
0000
0000
0000
3003
,
1000
0000
1000
0001
0000
0001
0100
0000
,
0100
0010
0000
0010
1000
0000
1000
0001
,
0000
0001
0100
0000
0100
0010
0000
0010
,
0100
0000
0200
0000
0300
0010
1000
0000
,
1010
0010
0101
0100
,
0001
0001
1000
1000
,
0001
0010
0100
1000
,
0001
1000
0002
0003
,
1001
0000
1001
0000
0001
0100
0000
0110
,
0000
0010
1000
0010
1000
0000
0002
2000
,
0000
3003
1010
0000
,
0101
0000
2002
0000
,
0000
0000
0000
0000
,
0000
0000
0000
3003
,
0110
0000
0000
0000
;

//---------------dance-single - ----------------
#NOTES:
     dance-single:
     :
     Easy:
     6:
     0.470,0.485,0.152,0.101,0.000:
0000
0000
0000
0000
,
0000
0000
0000
0000
,
1000
0010
1000
0010
,
0100
0001
0100
0001
,
1000
0001
1000
0001
,
1000
0010
1000
0010
,
0100
0000
0000
0100
0000
0000
0000
0001
,
0000
0000
1000
0000
1000
0000
0000
1001
,
0000
1000
0000
1000
,
0000
0001
0000
0001
,
1000
0000
0000
1000
0000
0000
0000
0001
,
0000
0000
0100
0000
0100
0000
0000
0110
,
0000
0010
0000
0010
,
0000
0100
0000
0100
,
0010
0000
0000
0010
0000
0000
0000
1000
,
0000
0000
0001
0000
0001
0000
0000
1001
,
0000
1000
1000
0010
,
0100
0000
0002
2000
0000
0000
3003
0000
,
0001
0000
0000
0001
0000
0000
0000
1000
,
0000
0000
0010
0000
0010
0000
0000
0100
,
0000
0001
0000
0001
,
0000
1000
0000
1000
,
0100
0000
0000
0100
0000
0000
0000
1000
,
0000
0000
0001
0000
0001
0000
0000
0100
,
0000
0010
0000
0010
,
0000
0100
0000
0100
,
0010
0000
0000
0010
0000
0000
0000
1000
,
0000
0000
0001
0000
0001
0000
0000
0100
,
0000
0010
0010
1000
,
0001
0000
2000
0002
0000
0000
3003
0000
,
1000
0000
0000
1000
0000
0000
0001
0000
,
0000
0001
0000
0000
1000
0000
1000
0000
,
1000
0001
0001
0001
,
1000
0001
1000
0001
,
2000
0001
0000
0001
,
0000
3001
1000
0001
,
0100
0010
1000
0010
,
0100
0001
1000
0001
,
1000
0100
1000
0001
,
0100
0001
1000
0001
,
1000
0010
0100
0001
,
0000
1000
0000
1000
0000
0000
0001
0000
,
0000
1000
0010
0100
,
0001
1000
0001
0100
,
0010
1000
0001
1000
,
0100
0010
0001
0010
,
0100
1000
0001
1000
,
0001
0100
0001
1000
,
0010
0100
0001
1000
,
0001
1000
0100
1000
,
0001
0100
0001
0100
,
0001
1000
0001
1000
,
0010
0000
1000
0000
0000
0001
0000
0001
,
0000
1000
0000
1000
0000
0000
0001
0000
,
1000
0001
0000
1000
0001
0000
1000
0001
,
0000
1000
0001
0000
0000
0000
0000
0000
,
1000
0001
0000
1000
0001
0000
1000
0001
,
0000
1000
0001
0000
0000
0000
0000
0000
,
1000
0000
1000
0000
,
0001
0000
0001
0000
,
1001
0000
1001
0000
,
1001
0000
1001
0000
,
1000
0001
0000
0001
,
0100
0010
0000
0010
,
1000
0001
0100
0010
,
1000
0001
0100
0010
,
1000
0001
1000
0001
,
0100
0001
0100
0001
,
0100
0010
0100
0010
,
1000
0010
1000
0010
,
0100
0000
0000
0100
0000
0000
0000
0001
,
0000
0000
1000
0000
1000
0000
0000
1001
,
0000
1000
0000
1000
,
0000
0001
0000
0001
,
1000
0000
0000
1000
0000
0000
0000
0001
,
0000
0000
0100
0000
0100
0000
0000
0110
,
0000
0010
0000
0010
,
0000
0100
0000
0100
,
0010
0000
0000
0010
0000
0000
0000
1000
,
0000
0000
0001
0000
0001
0000
0000
1001
,
0000
1000
1000
0010
,
0100
0000
0002
2000
0000
0000
3003
0000
,
0001
1000
0001
1000
,
0001
1000
0001
1000
,
0010
0100
0010
0100
,
0010
0100
0010
0100
,
0001
0100
0001
0100
,
0001
0100
0001
0100
,
0010
1000
0010
1000
,
0010
1000
0010
1000
,
0001
0000
0001
0000
0001
1000
0000
1001
,
0000
0000
1000
0000
1000
0000
1000
0002
,
0000
0003
0110
0000
,
1001
0000
0220
0000
,
0000
0000
0000
0000
,
0000
0000
0000
0330
,
1001
0000
0000
0000
;
