#TITLE:メイガスナイト;
#SUBTITLE:;
#ARTIST:ZUN;
#TITLETRANSLIT:Magus Night;
#SUBTITLETRANSLIT:;
#ARTISTTRANSLIT:;
#GENRE:;
#CREDIT:;
#BANNER:[Moon Runes] - Magus Night-bn.png;
#BACKGROUND:[Moon Runes] - Magus Night-bg.png;
#LYRICSPATH:;
#CDTITLE:cdtitle.png;
#MUSIC:[Moon Runes] - Magus Night.ogg;
#OFFSET:-0.060;
#SAMPLESTART:57.530;
#SAMPLELENGTH:13.000;
#SELECTABLE:YES;
#BPMS:0.000=167.000
;
#STOPS:
;
#BGCHANGES:;
#KEYSOUNDS:;
#ATTACKS:;

//---------------dance-single - ----------------
#NOTES:
     dance-single:
     :
     Challenge:
     10:
     1.000,0.930,0.340,0.725,1.000,887.000,45.000,96.000,0.000,0.000,0.000,1.000,0.930,0.340,0.725,1.000,887.000,45.000,96.000,0.000,0.000,0.000:
0000
0000
0000
0000
,
0000
0000
0000
0000
,
0000
0000
0000
0000
,
0000
0000
0000
0000
,
0001
0100
0001
0000
1000
0000
0100
0000
0010
0001
0010
0000
0001
0000
1000
0000
,
1000
0000
0010
0100
0001
1000
0001
0000
1000
0100
0010
0100
1000
0000
0010
0100
,
0001
0000
1000
0000
0100
0010
0100
0000
0010
0000
0001
0000
1000
0010
1000
0000
,
0110
0000
0000
0101
0000
0000
1010
0000
2200
0000
3300
0000
1000
0010
0100
0010
,
0200
0000
0000
0302
0000
0000
2003
0000
3200
0000
0000
0302
0000
0000
0203
0000
,
0320
0000
0000
0032
0000
0000
1003
0010
0200
0000
0302
0000
2003
0000
0000
0000
,
3002
0000
0000
0023
0000
0000
0130
1000
0002
0000
2003
0000
3020
0000
0230
0000
,
0302
0000
0000
0000
0000
0000
0000
0000
0000
0000
0000
1003
0200
0000
0000
0000
0000
0000
0000
0000
0000
0320
0000
0000
,
0032
0000
0000
0203
0000
0000
0320
0000
0230
0000
0000
2300
0000
0000
3200
0000
,
0320
0000
2030
0000
3002
0000
1003
0100
0020
0000
0032
0000
0203
0000
0320
0000
,
2030
0000
0000
3002
0000
0000
0023
0000
0230
0000
0000
2300
0000
0000
3020
0000
,
0130
0010
1000
0001
1000
0100
0010
0001
0200
0000
0000
0000
0310
1000
0010
1000
,
0001
0010
0100
1000
0010
0000
0100
0001
1000
0001
0010
0000
0100
0000
1000
0010
,
0100
0010
1000
0000
0001
0100
0010
0100
0010
1000
0100
0000
0010
0001
0010
0100
,
1000
0010
0100
0001
0010
0000
0100
1000
0001
1000
0010
0000
0110
0000
0100
0001
,
1000
0000
0001
0010
0000
0010
0100
0010
0001
0000
1000
0000
0010
0100
0001
1000
,
0001
1000
0100
0010
0100
0000
1000
0010
0100
0001
0010
0100
0010
0000
0001
0100
,
0001
0000
0010
0000
0001
1000
0010
0100
0010
1000
0100
0000
0010
0000
0001
0100
,
0010
1000
0100
0010
0100
0000
1000
0001
0100
0010
0100
0000
0010
1000
0001
0010
,
0100
0000
1000
0010
0000
0010
0100
0001
0100
0000
0010
0000
1000
0001
1000
0000
,
0202
0000
0000
0000
0303
0000
0001
1000
2002
0000
0000
0000
3003
0000
1000
0100
,
2200
0000
3300
0000
0022
0000
0033
0001
,
0202
0000
0000
0000
0303
0000
1000
0010
2020
0000
0000
0000
3030
0000
0010
0100
,
0110
0000
0000
0101
0000
0000
0011
0000
0220
0000
0330
0000
0010
0001
0010
0001
,
1000
0000
0001
0000
1000
0010
0100
0001
0010
0000
0100
0000
1000
0001
1000
0010
,
0100
0000
0010
1000
0100
0010
0100
0000
0010
0001
1000
0010
0001
0010
0100
0010
,
1000
0000
0001
0000
0010
0100
1000
0010
0100
0000
0010
0000
1000
0001
0010
0000
,
0110
0000
0000
1100
0000
0000
1010
0000
0220
0000
0330
0000
0010
1000
0001
1000
,
0001
0010
0100
1000
0001
0100
0010
1000
,
0001
0010
0100
1000
0010
0100
0001
0000
,
1000
0100
0010
0001
1000
0010
0100
0001
,
1000
0100
0010
0001
0100
0010
1000
0000
,
0001
0010
1000
0010
0001
0100
1000
0100
,
0001
0010
0100
1000
0010
0100
0001
0000
,
1000
0100
0001
0100
1000
0010
0001
0010
,
1000
0000
0100
0000
0010
0000
0001
0000
0100
0000
0010
0000
1000
0100
0010
0100
,
1000
0001
0100
0010
0100
0000
0001
0010
0100
1000
0001
0000
0100
0000
0010
1000
,
0001
0010
0100
0000
0010
0001
0010
0100
1000
0010
0100
0000
0010
0100
0001
1000
,
0001
0010
0100
0010
0001
0000
1000
0010
1000
0100
0010
0000
0011
0000
0001
1000
,
0010
0000
0100
0001
0000
0001
1000
0100
1000
0000
0010
0000
0100
0001
0010
0100
,
0010
0001
1000
0010
0100
0000
0010
0100
0001
0010
0100
1000
0010
0000
0100
0001
,
1000
0000
0100
0000
0010
0001
1000
0001
0100
0010
0100
0000
0010
0000
0100
0001
,
0010
0100
0010
0001
1000
0000
0001
1000
0010
0100
0010
0000
0100
0000
0001
1000
,
0001
0000
0010
0100
0000
0100
1000
0010
0100
0000
0010
0000
0100
0001
1000
0001
,
2000
0000
0000
3200
0000
0000
0302
0000
0203
0000
0000
0320
0000
0000
0032
0000
,
0203
0000
0000
2300
0000
0000
3100
0010
0200
0000
0302
0000
0023
0000
0130
1000
,
0002
0000
0000
0203
0000
0000
0301
0010
0200
0000
2300
0000
3020
0000
0032
0000
,
0023
0000
0000
2030
0000
0000
3001
0100
0020
0000
0000
0000
1030
0100
1000
0001
,
0200
0000
0000
2300
0000
0000
3200
0000
0302
0000
0000
0023
0000
0000
0130
1000
,
0002
0000
0203
0000
0320
0000
0130
0001
2000
0000
3200
0000
0320
0000
0032
0000
,
1003
0000
0000
1010
0000
0000
0110
0000
0101
0000
0000
0011
0000
0000
0110
0000
,
2200
0000
0000
0000
0000
0000
3300
0000
0001
1000
0001
1000
0001
1000
0001
1000
,
0001
0010
0100
1000
0100
0000
0010
0001
1000
0001
1000
0000
0010
0000
0100
0001
,
1000
0000
0001
0000
0101
0000
0100
0010
0100
0001
0010
0000
0110
0000
0100
1000
,
0001
0100
0010
0100
0001
0000
1000
0100
0010
0001
0100
0000
0010
0000
0100
0001
,
1000
0000
0001
0010
0000
0010
0100
1000
0100
0010
0001
0000
1000
0100
1000
0001
,
1000
0010
0100
0001
0100
0000
0010
1000
0001
1000
0001
0000
1000
0000
0100
0010
,
0001
0000
1000
0000
1010
0000
0010
0100
0001
0010
0100
0000
1100
0000
1000
0001
,
0100
0010
0100
0001
0010
0000
0100
0010
0001
0100
0010
0000
1000
0000
0001
0010
,
0100
0000
0010
0001
0000
0001
1000
0001
0100
0010
0100
0000
0001
0010
0001
1000
,
0001
0100
0010
1000
0100
0000
0010
0100
1000
0010
0100
0000
0001
0000
1000
0100
,
0010
0000
0001
0000
0101
0000
0100
0010
1000
0001
0010
0000
0110
0000
0100
1000
,
0001
1000
0010
0100
0001
0000
1000
0100
1000
0010
0100
0000
0001
0000
0010
0100
,
1000
0000
0010
0100
0000
0100
0010
1000
0010
0100
0001
0000
1000
0100
1000
0001
,
1000
0010
0100
0001
0010
0000
0100
1000
0100
0010
0001
0000
1000
0000
0001
0100
,
0010
0000
1000
0000
1100
0000
0100
1000
0001
0100
0010
0000
1010
0000
1000
0001
,
0010
0001
0100
0010
1000
0000
0001
0010
0100
0010
0001
0000
1000
0001
0100
0000
,
0110
0000
0000
1010
0000
0000
1100
0000
0220
0000
0330
0000
0010
0001
0010
0100
,
1000
0000
0001
0000
1000
0010
0100
0000
0001
0000
1000
0000
0001
0010
0100
0010
,
0001
0000
1000
0100
0010
0001
0100
0000
0010
0100
0001
0010
0100
0000
0010
0001
,
1000
0000
0010
0000
0100
0001
1000
0000
0001
0010
0100
0000
0010
0001
1000
0001
,
1000
0000
0010
0100
0000
0100
0001
1000
0001
0010
0100
0000
0010
0001
0100
0010
,
0100
0000
0001
0000
1000
0100
0010
0000
0001
0000
0100
0000
0010
0100
0001
1000
,
0001
0000
1000
0100
0010
0001
1000
0000
0010
0100
0001
1000
0100
0000
0010
0000
,
0001
0100
0010
0000
1000
0100
0010
0000
0100
1000
0010
0000
0100
0001
0010
0001
,
1000
0000
0001
0100
0000
0100
0010
1000
0001
1000
0100
0000
0010
0001
1000
0010
,
0100
0001
0010
0100
1000
0000
0010
0100
0001
1000
0001
0000
1000
0000
0100
0010
,
0001
0000
1000
0000
1010
0000
0010
0100
0001
1000
0001
0000
1001
0000
1000
0100
,
1000
0010
0100
0000
0001
0010
0100
0000
0010
0100
1000
0000
0001
0100
0010
1000
,
0100
0000
0010
0001
0000
0001
1000
0010
0100
0001
0010
0000
0001
0100
0010
1000
,
0001
1000
0100
0010
0100
0000
1000
0010
0100
0001
0010
0000
0100
0000
1000
0001
,
0100
0000
0010
0000
1010
0000
1000
0001
1000
0100
0010
0000
0011
0000
0001
1000
,
0010
1000
0001
0000
1000
0100
0010
0000
0100
0010
0001
0000
1000
0010
0100
0010
,
0100
0000
0000
0101
0000
0000
1010
0000
2002
0000
0000
0000
3003
0000
1000
0100
,
0010
0000
0000
0000
;

//---------------dance-single - ----------------
#NOTES:
     dance-single:
     :
     Hard:
     9:
     0.798,0.698,0.166,0.483,0.325,654.000,22.000,64.000,0.000,0.000,0.000,0.798,0.698,0.166,0.483,0.325,654.000,22.000,64.000,0.000,0.000,0.000:
0000
0000
0000
0000
,
0000
0000
0000
0000
,
0000
0000
0000
0000
,
0000
0000
0000
0000
,
0001
0000
0010
0000
0001
0100
0010
0000
1000
0000
0001
0000
0010
0100
1000
0000
,
0001
0000
0100
0000
1000
0000
0100
0000
0001
0000
0010
0000
0100
1000
0001
0000
,
1000
0000
0010
0000
0100
0001
1000
0000
0001
0000
0010
0000
0100
1000
0010
0000
,
1000
0000
0000
0001
0000
0000
1000
0000
2010
0000
0000
0000
3010
0000
0100
0000
,
0002
0000
0000
0023
0000
0000
0230
0000
2300
0000
0000
3020
0000
0000
2030
0000
,
3002
0000
0000
0023
0000
0000
0031
0000
0100
0000
1000
0000
0200
0000
0000
0000
,
0320
0000
0000
0230
0000
0000
0301
0000
1000
0000
0100
0000
0001
0000
0100
0000
,
2000
0000
0000
0000
3002
0000
0000
2003
,
3020
0000
0000
0230
0000
0000
0302
0000
2003
0000
0000
3002
0000
0000
0013
0000
,
0100
1000
0010
0100
0001
0010
1000
0010
,
0002
0000
0000
0203
0000
0000
0302
0000
0023
0000
0000
0230
0000
0000
1300
0000
,
0001
0100
0010
0100
0002
0000
1003
0100
,
1000
0000
0010
0000
1000
0000
0001
0010
0100
0000
0010
0000
0001
0000
1000
0010
,
0100
0000
0010
0000
0100
0000
0001
0000
1000
0000
0100
0000
0010
0001
1000
0000
,
0001
0000
0100
0000
0001
0000
0010
0100
1000
0000
0010
0000
0001
0000
0010
0000
,
1000
0000
0000
1000
0000
0000
0001
0000
0001
0000
0010
0000
0100
0000
0010
0000
,
0001
0000
1000
0000
0010
0000
0100
0010
1000
0000
0001
0000
0010
0000
0100
1000
,
0001
0000
1000
0000
0010
0000
0100
0001
1000
0000
0100
0000
0001
0000
0100
0000
,
1000
0000
0000
0010
0000
0000
0100
0000
0001
0000
0000
1000
0000
0000
0001
0000
,
0010
0000
0000
0010
0000
0000
0100
0000
0100
0000
1000
0000
0100
0000
0010
0000
,
0022
0000
0033
0001
0202
0000
0303
1000
,
2020
3030
0220
0330
,
0202
0000
0303
0001
2002
0000
3003
1000
,
1100
0000
0000
0100
0000
0000
0010
0000
0001
0000
0000
0000
1000
0000
0010
0000
,
1000
0000
0100
0000
0010
0000
0001
1000
0001
0000
1000
0000
0010
0000
0100
0001
,
1000
0000
0100
0000
0010
0000
0100
1000
0001
0000
1000
0000
0010
0000
0100
0000
,
0001
0000
0010
0000
0100
0000
1000
0001
1000
0000
0001
0000
0100
0000
0010
0000
,
1000
0000
0000
0100
0000
0000
1000
0000
2010
0000
0000
0000
3010
0000
0100
0000
,
0001
0010
0100
1000
0001
0010
0100
1000
,
0001
0100
0010
1000
0100
0010
0100
0000
,
1000
0010
0100
0001
1000
0010
0100
0001
,
1000
0100
0010
0001
0100
0010
0100
0000
,
0001
0010
0100
1000
0010
0100
0001
1000
,
0100
0010
0001
1000
0010
0100
0001
0000
,
1000
0100
0010
0001
0100
0010
1000
0001
,
0010
0100
1000
0010
0100
0001
1000
0100
,
0010
0000
0001
0000
0100
0000
0010
0100
0001
0000
0010
0000
1000
0000
0010
0000
,
0001
0000
0100
0000
0010
0000
1000
0100
0010
0000
0100
0000
1000
0000
0000
0000
,
0001
0000
0100
0000
0001
0000
0010
0100
1000
0000
0010
0000
0001
0000
0010
0000
,
1000
0000
0000
1000
0000
0000
0001
0000
0001
0000
0100
0000
0010
0000
1000
0000
,
0100
0000
0010
0000
0001
0000
1000
0001
0100
0000
0010
0000
0100
0000
0001
0010
,
0100
0010
0100
1000
0010
0001
0010
1000
,
0001
0000
0010
0000
0100
0000
0010
0001
1000
0000
0010
0000
0100
0000
0001
0000
,
1000
0000
0000
0001
0000
0000
0010
0000
0120
0000
0000
0000
0130
0000
1000
0000
,
0200
0000
0000
2300
0000
0000
3002
0000
0203
0000
0000
0320
0000
0000
0230
0000
,
0302
0000
0000
0023
0000
0000
0130
0000
1000
0000
0010
0000
0200
0000
0000
0000
,
0302
0000
0000
0023
0000
0000
0031
0000
0100
0000
1000
0000
0100
0000
0001
0000
,
0020
0000
0000
0230
0000
0000
2300
0000
3002
0000
0000
0000
0000
0000
2003
0000
,
3020
0000
0000
2030
0000
0000
3200
0000
0320
0000
0000
0032
0000
0000
1003
0000
,
0001
0000
0100
0000
0001
0000
1000
0100
1000
0000
0010
0000
0100
0000
0001
0000
,
0011
0000
0000
0101
0000
0000
1010
0000
0110
0000
0000
0101
0000
0000
1001
0000
,
1200
0000
0000
0000
1300
0001
1000
0001
,
0100
0000
0001
0000
0010
0100
1000
0000
0010
0000
0100
0000
0001
0010
0100
0000
,
0010
0001
1000
0010
0001
0010
1000
0001
,
1000
0000
0100
0000
0001
0000
0100
0000
0010
0000
0001
0000
1000
0000
0010
0100
,
0001
0000
1000
0100
0000
0100
1000
0000
0010
0000
0100
0000
0001
1000
0001
0000
,
0010
0000
0100
0000
1000
0000
0010
0100
0001
0000
1000
0000
0001
0000
0010
0000
,
0100
0000
1000
0001
0000
0001
0100
0000
0010
0000
0100
0000
0001
0000
0010
0000
,
0001
0000
0100
0000
1000
0000
0100
0000
0010
0000
0100
0000
0001
0000
0010
0100
,
1000
0000
0001
0100
0000
0100
0001
0000
0010
0000
0100
0000
1000
0001
1000
0000
,
0001
0000
0100
0000
0010
1000
0001
0000
0010
0000
0100
0000
1000
0001
0100
0000
,
0010
0100
0001
0010
0100
1000
0001
0100
,
0001
0000
0010
0000
1000
0000
0010
0000
0100
0000
1000
0000
0010
0000
0100
0001
,
1000
0000
0100
0010
0000
0010
0100
0000
0010
0000
0001
0000
1000
0001
1000
0000
,
0001
0000
0100
0000
0001
0000
0010
0100
1000
0000
0010
0000
0100
0000
0001
0000
,
1000
0000
0001
0100
0000
0100
0001
0000
1000
0000
0100
0000
0010
0000
0100
0000
,
1000
0000
0010
0000
0001
0000
0010
0000
0100
0000
0010
0000
1000
0000
0001
0010
,
0100
0000
0000
1000
0000
0000
0001
0000
0101
0000
0000
0000
0001
0000
0100
0000
,
0001
0010
0100
1000
0010
0001
0010
1000
,
0001
0000
0010
0100
1000
0000
0010
0000
0100
0000
0001
0000
1000
0000
0001
0000
,
0010
0000
1000
0000
0010
0000
0100
0000
0010
0000
0001
0000
1000
0000
0010
0100
,
0001
0000
1000
0100
0000
0100
1000
0000
0010
0000
0100
0000
0001
1000
0001
0000
,
1000
0100
0010
0001
1000
0010
0001
0010
,
1000
0000
0001
0100
0000
0100
0001
0000
0010
0000
0100
0000
1000
0000
0010
0000
,
0100
0001
0100
1000
0100
0010
0100
0001
,
1000
0000
0000
1000
0000
0000
0001
0000
0100
0000
0001
0000
0010
0000
0100
0000
,
1000
0010
0100
0001
0010
1000
0010
0001
,
1000
0000
0010
0100
0001
0000
0010
0000
0100
0000
1000
0000
0100
0000
0010
0000
,
0001
0000
0100
0000
1000
0000
0100
0000
0010
0000
0100
0000
0001
0000
0010
0100
,
1000
0000
0000
0001
0000
0000
1000
0000
0010
0000
1000
0000
0100
0000
0010
0000
,
0001
0100
0010
1000
0100
0001
0100
1000
,
0010
0000
0100
0001
1000
0000
0001
0000
0010
0000
0100
0000
1000
0000
0010
0000
,
1000
0100
0001
0100
0010
0100
1000
0010
,
0110
0000
0000
0101
0000
0000
1010
0000
2002
0000
0000
0000
3003
0000
1000
0000
,
0100
0000
0000
0000
;

//---------------dance-single - ----------------
#NOTES:
     dance-single:
     :
     Medium:
     7:
     0.547,0.565,0.068,0.423,0.057,442.000,9.000,56.000,0.000,0.000,0.000,0.547,0.565,0.068,0.423,0.057,442.000,9.000,56.000,0.000,0.000,0.000: // measure 0
0000
0000
0000
0000
,  // measure 1
0000
0000
0000
0000
,  // measure 2
0000
0000
0000
0000
,  // measure 3
0000
0000
0000
0000
,  // measure 4
0001
0000
1000
0010
0100
0000
0001
0010
,  // measure 5
0100
0000
0100
0000
1000
0100
0010
0001
,  // measure 6
1000
0000
0001
0100
0010
0000
1000
0100
,  // measure 7
0010
0000
0000
0001
0000
0000
2000
0000
0002
0000
0000
0000
3003
0000
0000
0000
,  // measure 8
2000
3200
2300
3020
,  // measure 9
0230
0000
0302
0000
0013
0100
1000
0000
,  // measure 10
0002
0000
0203
0000
0301
0010
0100
1000
,  // measure 11
0020
0000
0000
0000
0230
0000
0000
0310
,  // measure 12
2000
3200
0320
0230
,  // measure 13
1300
0010
0100
0001
0020
0000
0230
0000
,  // measure 14
2300
3002
0203
0320
,  // measure 15
1030
0100
0010
0001
2000
0000
0000
0000
,  // measure 16
3001
0100
0001
0000
0010
0100
1000
0000
,  // measure 17
0010
0100
0001
0000
1000
0100
1000
0100
,  // measure 18
0010
0001
1000
0000
0010
0100
0001
1000
,  // measure 19
0001
0000
0000
0010
0000
0000
0100
0000
1000
0000
0000
0000
0001
0000
1000
0000
,  // measure 20
0001
0010
0001
0000
0100
0010
1000
0000
,  // measure 21
0001
0010
0100
0010
0001
0000
1000
0000
,  // measure 22
0010
0100
0010
0000
1000
0100
0010
0000
,  // measure 23
0001
0000
0000
0100
0000
0000
0010
0000
1000
0000
0000
0000
0001
0000
1000
0000
,  // measure 24
2002
3003
2020
3030
,  // measure 25
0220
0000
0330
0000
0202
0000
0303
0001
,  // measure 26
2002
0000
3003
0000
0022
0000
0033
1000
,  // measure 27
0001
0000
0000
0010
0000
0000
0100
0000
1000
0000
0000
0000
0010
0000
0100
0000
,  // measure 28
0010
1000
0001
0000
1000
0100
0010
0000
,  // measure 29
0001
0000
0100
0000
0001
0010
0100
0000
,  // measure 30
0010
0001
1000
0000
0001
0100
0010
0000
,  // measure 31
1000
0000
0000
0100
0000
0000
0010
0000
0001
0000
0000
0000
1000
0000
0001
0000
,  // measure 32
1000
0010
0100
0001
,  // measure 33
1000
0000
0100
0000
0010
0001
1000
0000
,  // measure 34
0001
0100
0010
1000
,  // measure 35
0001
0000
0010
0000
0100
1000
0001
0000
,  // measure 36
1000
0010
1000
0001
,  // measure 37
1000
0000
0100
0000
1000
0010
0100
0000
,  // measure 38
0001
0010
0001
1000
,  // measure 39
0001
0000
0100
0000
0001
0010
0100
1000
,  // measure 40
0010
0100
0010
0000
0100
0001
1000
0000
,  // measure 41
0001
0010
0100
0000
1000
0010
1000
0010
,  // measure 42
0100
0001
1000
0000
0001
0010
0100
1000
,  // measure 43
0001
0000
0000
0100
0000
0000
0010
0000
1000
0000
0000
0000
0001
0000
1000
0000
,  // measure 44
0001
0010
0100
0000
0010
0001
0100
0000
,  // measure 45
0010
1000
0010
0000
1000
0100
0010
0001
,  // measure 46
0100
0010
0100
0000
0001
0010
0100
0000
,  // measure 47
1000
0000
0000
0010
0000
0000
0100
0000
0001
0000
0000
0000
1000
0000
0001
0000
,  // measure 48
2000
3020
2030
3002
,  // measure 49
0023
0000
0230
0000
1300
0001
0100
0000
,  // measure 50
0020
0000
2030
0000
3001
0010
0100
1000
,  // measure 51
0002
0000
0203
0000
0320
0000
0000
0130
,  // measure 52
0002
0023
0032
0203
,  // measure 53
0310
1000
0001
1000
0200
0000
0320
0000
,  // measure 54
0031
0000
0000
0010
0000
0000
0100
0000
1000
0000
0000
0100
0000
0000
1000
0000
,  // measure 55
2020
0000
3030
0000
0010
0100
0010
0100
,  // measure 56
0001
0010
0100
0000
1000
0010
0100
0000
,  // measure 57
0010
0000
1000
0000
0001
0010
0001
0010
,  // measure 58
0100
1000
0010
0100
,  // measure 59
0001
0000
0000
0010
0000
0000
0001
0000
0100
0000
0000
0000
0001
0000
0000
0000
,  // measure 60
1000
0100
0010
0000
0001
0100
0010
0000
,  // measure 61
1000
0000
0100
0000
1000
0010
1000
0010
,  // measure 62
0100
0001
1000
0001
,  // measure 63
0010
0000
0000
0100
0000
0000
1000
0000
0100
0000
0000
0000
1000
0000
0001
0000
,  // measure 64
1000
0010
0100
0000
0001
0010
0100
0000
,  // measure 65
1000
0000
0010
0000
0100
0001
0100
0001
,  // measure 66
1000
0001
1000
0100
,  // measure 67
1000
0000
0010
1000
0001
0000
1000
0100
,  // measure 68
1000
0001
0100
0000
0010
1000
0001
0000
,  // measure 69
1000
0000
0100
0000
1000
0000
0001
0100
,  // measure 70
0001
0010
0001
0100
,  // measure 71
0010
0000
0000
1000
0000
0000
0010
0000
0110
0000
0000
0000
0100
0000
0001
0000
,  // measure 72
1000
0100
0010
0100
,  // measure 73
1000
0000
0010
0000
0100
0001
0100
0001
,  // measure 74
1000
0001
1000
0100
,  // measure 75
0010
0000
0000
0001
0000
0000
1000
0000
0001
0000
0000
0000
1000
0000
0010
0000
,  // measure 76
0100
0001
1000
0100
,  // measure 77
0010
0000
0001
0000
1000
0010
1000
0010
,  // measure 78
0100
0001
1000
0001
,  // measure 79
0010
0000
0000
0100
0000
0000
1000
0000
0010
0000
0000
0000
0100
0000
0001
0000
,  // measure 80
1000
0100
0010
0000
0100
1000
0001
0000
,  // measure 81
1000
0000
0010
0000
0100
0000
0001
1000
,  // measure 82
0001
0010
0100
0010
,  // measure 83
0001
0000
1000
0010
0100
0000
0010
1000
,  // measure 84
0001
0010
0100
0000
0010
0000
0001
0100
,  // measure 85
0010
0000
1000
0000
0001
0000
1000
0100
,  // measure 86
0010
0001
0100
0001
,  // measure 87
0010
0000
0000
0100
0000
0000
1000
0000
2002
0000
0000
0000
3003
0000
0001
0000
,  // measure 88
0100
0000
0000
0000
;

//---------------dance-single - ----------------
#NOTES:
     dance-single:
     :
     Easy:
     4:
     0.330,0.266,0.106,0.166,0.000,270.000,14.000,22.000,0.000,0.000,0.000,0.330,0.266,0.106,0.166,0.000,270.000,14.000,22.000,0.000,0.000,0.000:
0000
0000
0000
0000
,
0000
0000
0000
0000
,
0000
0000
0000
0000
,
0000
0000
0000
0000
,
0001
0001
1000
1000
,
0001
0010
0100
0010
,
0100
0100
1000
1000
,
0001
0100
0010
0000
,
2000
3000
0200
0300
,
0020
0030
0001
1000
,
0002
0003
0200
0300
,
0020
0030
2000
3000
,
0002
0003
0020
0030
,
0100
1000
0100
0010
,
0002
0003
0200
0300
,
0020
0030
1000
0001
,
1000
0100
1000
0001
,
0100
0001
0010
0100
,
0010
0001
0010
0100
,
1000
0000
1001
0000
,
0001
0100
0001
1000
,
0001
0010
0100
1000
,
0001
1000
0010
0100
,
0001
0000
1000
0000
,
1001
0000
0101
0000
,
1010
0000
1100
0000
,
0011
0000
1001
0000
,
1010
0010
1000
0000
,
0001
0100
0001
1000
,
0001
0010
0100
0010
,
0001
1000
0010
1000
,
0100
0000
0010
0000
,
0001
0100
0001
0100
,
0001
0100
0001
1000
,
0001
0010
0001
0010
,
0001
0010
0001
1000
,
0001
0100
0001
1000
,
0001
0100
0001
1000
,
0001
0010
0001
1000
,
0001
0010
0001
0100
,
0010
1000
0100
1000
,
0010
0100
0001
1000
,
0001
0010
0100
0010
,
0001
0000
1001
0000
,
1000
0010
0100
0010
,
1000
0100
0010
0001
,
1000
0001
0100
0001
,
1000
0000
0001
0000
,
2000
3000
0200
0300
,
0020
0030
0001
0100
,
0002
0003
0020
0030
,
0200
0300
0020
0030
,
0002
0003
0200
0300
,
0010
1000
0001
1000
,
0100
0010
0001
0010
,
0200
0300
1000
0001
,
1000
0000
1000
0000
,
0001
0100
0001
0010
,
0100
0100
1000
1000
,
0001
0000
1001
0000
,
0001
0000
0001
1000
,
0001
0100
0001
0000
,
1000
0100
1000
0100
,
0010
0000
0010
0000
,
0001
0000
0001
0000
,
1000
0010
1000
0100
,
0010
0010
0001
0001
,
1000
0000
1001
0000
,
1000
0000
1000
0001
,
1000
0010
1000
0000
,
0001
0100
0001
0100
,
0010
0100
0110
0000
,
0010
1000
0010
0100
,
0001
0000
1000
0001
,
1000
0010
1000
0010
,
0100
0000
0100
0000
,
0001
1000
0001
0000
,
1000
0100
0010
0100
,
1000
0001
1000
0010
,
0100
0000
0110
0000
,
0100
0001
0100
0010
,
1000
0000
0001
1000
,
0001
0010
0001
0010
,
0100
0000
0100
0000
,
1000
0001
1000
0000
,
0001
0100
0010
0100
,
0001
1000
0001
0100
,
0010
0000
1000
0000
,
1001
0000
0000
0000
;
