#VERSION:0.81;
#TITLE:マドツキ・イン・ワンダーランド;
#SUBTITLE:;
#ARTIST:cosMo;
#TITLETRANSLIT:Madotsuki in Wonderland;
#SUBTITLETRANSLIT:;
#ARTISTTRANSLIT:;
#GENRE:;
#ORIGIN:;
#CREDIT:;
#BANNER:[Moon Runes] - Madotsuki in Wonderland-bn.png;
#BACKGROUND:[Moon Runes] - Madotsuki in Wonderland-bg.png;
#PREVIEWVID:;
#JACKET:[Moon Runes] - Madotsuki in Wonderland-jacket.png;
#CDIMAGE:;
#DISCIMAGE:;
#LYRICSPATH:;
#CDTITLE:cdtitle.png;
#MUSIC:[Moon Runes] - Madotsuki in Wonderland.ogg;
#OFFSET:-0.064;
#SAMPLESTART:86.074;
#SAMPLELENGTH:12.000;
#SELECTABLE:YES;
#DISPLAYBPM:*;
#BPMS:0.000=90.000,
24.000=180.000,
72.000=181.000,
96.000=180.000,
117.000=179.000,
136.000=180.000,
219.000=443.000,
234.000=360.000,
330.000=180.000,
355.000=400.000,
451.000=798.000,
499.000=8.570;
#STOPS:121.500=0.167,
122.000=0.167,
122.500=0.167,
127.500=0.167,
128.500=0.167,
129.000=0.167,
129.500=0.167,
131.500=0.167,
134.500=0.167,
135.000=0.250,
135.250=0.250,
135.500=0.250,
135.750=0.083,
136.000=0.167,
138.000=0.167,
139.000=0.167,
140.000=0.167;
#DELAYS:;
#WARPS:;
#TIMESIGNATURES:0.000=3=4,
354.000=1=4,
355.000=4=4;
#TICKCOUNTS:0.000=4;
#COMBOS:0.000=1;
#SPEEDS:0.000=1.000=0.000=0;
#SCROLLS:0.000=1.000;
#FAKES:;
#LABELS:0.000=Song Start;
#BGCHANGES:;
#KEYSOUNDS:;
#ATTACKS:
;

//---------------dance-single - ----------------
#NOTEDATA:;
#CHARTNAME:;
#STEPSTYPE:dance-single;
#DESCRIPTION:;
#CHARTSTYLE:;
#DIFFICULTY:Hard;
#METER:10;
#RADARVALUES:0.824,1.000,0.182,0.073,0.397,756.000,25.000,10.000,139.000,0.000,0.000,0.000,0.000,0.824,1.000,0.182,0.073,0.397,756.000,25.000,10.000,139.000,0.000,0.000,0.000,0.000;
#CREDIT:;
#DISPLAYBPM:*;
#NOTES:
// measure 0
0000
0000
0000
0000
,  // measure 1
0000
0000
0000
0000
,  // measure 2
0000
0000
0000
0000
,  // measure 3
2000
0100
3100
0002
0100
0103
2000
0010
,  // measure 4
3010
0002
0010
0013
2000
0100
3100
0020
,  // measure 5
0001
0000
0031
0000
2000
0000
0010
0000
3010
0000
1000
0100
0010
0001
0100
0010
,  // measure 6
0100
0000
0001
0000
1000
0000
0001
0010
0100
0000
0010
0000
0100
1000
0100
0010
,  // measure 7
0001
0000
0100
0000
0010
0000
0000
0000
1000
0000
0100
0000
1000
0000
0010
0100
,  // measure 8
0001
0000
0010
0000
0001
0000
1000
0010
0100
0000
0010
0000
1000
0000
0001
0000
,  // measure 9
0010
0000
0100
0000
1000
0000
0001
0100
0010
0000
0100
0000
0001
0010
0100
0010
,  // measure 10
0001
0000
1000
0000
0100
0000
0000
0000
1000
0000
0010
0000
1000
0000
0100
0010
,  // measure 11
0001
0000
0010
0000
0001
0000
0100
0010
1000
0000
0100
0000
0010
0000
0000
0000
,  // measure 12
0100
0000
1000
0000
0010
0000
0100
0010
0100
0000
0001
0000
1000
0100
0010
0100
,  // measure 13
1000
0000
0010
0000
0100
0000
0000
0000
0010
0000
1000
0000
0001
0000
0010
0100
,  // measure 14
1000
0000
0010
0000
0100
0000
0001
1000
0100
0000
0010
0000
0100
0000
0000
0000
,  // measure 15
1000
0000
0010
0000
0100
0000
0010
1000
0001
0000
0010
0000
0001
0100
0010
1000
,  // measure 16
0100
0000
0001
0000
0100
0000
0010
0000
0001
0000
1000
0010
0100
0000
0010
1000
,  // measure 17
0100
0000
0010
0000
0001
0000
0100
0000
1000
0000
0100
0000
0001
1000
0001
1000
,  // measure 18
0100
0000
0000
0000
0011
0000
0000
0001
0100
0000
0010
0000
0100
0010
1000
0100
,  // measure 19
0010
0000
0001
0000
0100
0000
0001
0000
1000
0000
0000
0000
1010
0000
0000
1000
,  // measure 20
0100
0010
0100
1000
0010
0100
0001
0000
,  // measure 21
1000
0000
0000
0000
1100
0000
0000
0100
1000
0000
0010
0000
0100
0010
1000
0100
,  // measure 22
0010
0000
0001
0000
0100
0000
0010
0000
0100
0000
0000
0000
0101
0000
0000
0001
,  // measure 23
0010
0000
0100
0000
1000
0000
0001
0100
0010
0000
0100
0000
0010
0000
1000
0000
,  // measure 24
0100
0000
0110
0000
0011
0000
0001
0100
,  // measure 25
0010
1000
0010
0100
0001
0000
0101
0000
,  // measure 26
1010
0000
1100
0000
0100
0010
0001
0000
,  // measure 27
1000
0000
1010
0000
0101
0000
1000
0100
,  // measure 28
0010
0001
0010
0100
1000
0000
1100
0000
,  // measure 29
0011
0000
0000
0001
0100
0000
0010
0000
1000
0000
0100
0000
0010
0000
0001
0000
,  // measure 30
1000
0010
0100
00M1
1M00
00M1
0010
0110
,  // measure 31
0000
1000
0010
0100
0001
1000
0100
001M
,  // measure 32
0100
M010
0M11
0M11
0001
1000
0010
010M
,  // measure 33
0010
0000
1000
0000
0001
0000
0100
0000
0001
0000
M010
0000
110M
110M
110M
1010
,  // measure 34
M110
0010
1000
0100
M110
0100
110M
0010
,  // measure 35
M110
0010
1000
0100
0010
0001
0100
0010
,  // measure 36
1000
0001
0010
0100
0010
0001
0100
0010
1000
0100
1000
0001
0100
0000
0010
0000
,  // measure 37
1000
0000
0001
0010
0000
0100
0010
0100
1000
0000
0010
0100
0001
0000
0010
0000
,  // measure 38
0100
0000
0000
0000
0010
0000
0001
0000
1000
0000
0010
0100
0000
0010
0100
0001
,  // measure 39
0010
1000
0010
0001
0100
0000
0010
1000
,  // measure 40
0100
0000
0010
0001
0000
1000
0010
1000
0100
0000
0010
0001
0100
0000
1000
0000
,  // measure 41
0100
0000
0000
0000
0010
0000
0100
0000
0001
0000
0010
0100
0000
0010
0001
0010
,  // measure 42
0100
1000
0001
1000
0010
0100
0001
1000
,  // measure 43
0100
0000
0010
0100
0000
0010
0001
0010
0100
1000
0010
0100
0001
0000
1000
0000
,  // measure 44
0100
0000
0000
0000
0010
0000
0001
0000
0100
0000
0010
0100
0000
0010
1000
0010
,  // measure 45
0100
0001
0010
0000
0100
0000
1000
0000
0100
0000
0000
0000
0010
0000
0001
0000
,  // measure 46
1000
0000
0010
0100
0000
0010
1000
0001
1000
0100
0010
0100
1000
0000
0010
0000
,  // measure 47
0100
0000
0000
0000
0001
0000
0010
0000
0100
0000
1000
0001
0000
1000
0010
0000
,  // measure 48
1000
0100
0010
0001
1000
0100
0010
0001
1000
0100
0010
0001
1000
0000
0010
0000
,  // measure 49
0100
0001
0100
0001
1000
0001
1000
0100
,  // measure 50
0010
0100
0000
0010
0001
0100
0001
0100
,  // measure 51
0001
1000
0001
0010
0100
0010
0000
0001
,  // measure 52
1000
0010
0001
0010
0100
0010
1000
0100
,  // measure 53
0001
0100
0000
0010
0001
0010
1000
0010
,  // measure 54
0100
0000
0010
0000
0001
0000
0100
0000
0010
0000
1000
0000
0MM2
0MM0
0MM0
0MM0
,  // measure 55
0MM0
0MM0
0MM0
0MM0
0MM0
0MM0
0MM0
0MM0
0MM0
0MM0
0MM0
0MM0
0MM0
0MM0
0MM0
0MM0
,  // measure 56
0MM0
0MM0
0MM0
0MM0
0MM0
0MM0
0MM0
0MM0
0MM0
0MM0
0MM0
0MM0
0MM0
0MM0
0MM0
0MM0
,  // measure 57
0MM0
0MM0
0MM0
0MM0
2MM3
0MM0
0MM0
0MM0
0MM0
0MM0
0MM0
0MM0
0MM0
0MM0
0MM0
0MM0
,  // measure 58
0MM0
0MM0
0MM0
0MM0
0MM0
0MM0
0MM0
0MM0
3MM1
0000
0000
0000
0100
0000
0000
0000
,  // measure 59
0001
0000
1000
0010
1000
0010
0100
0000
,  // measure 60
0010
1000
0010
1000
0001
0000
1000
0100
,  // measure 61
0010
0001
1000
0010
,  // measure 62
1000
0100
1000
0100
0010
0000
0100
1000
,  // measure 63
0100
0000
1000
0010
0000
1000
0010
1000
,  // measure 64
0001
1000
0001
0010
0001
0100
0010
0100
,  // measure 65
0001
0010
0100
0000
0010
0001
0010
0001
,  // measure 66
0010
0000
0100
1000
0001
0000
0001
0000
,  // measure 67
1000
0000
0001
0000
1000
0010
1000
0010
,  // measure 68
0100
0010
0100
0010
0100
0001
0100
0001
,  // measure 69
1000
0001
1000
0001
0010
0100
1000
0001
,  // measure 70
0010
0100
1000
0001
1000
0000
0010
0000
,  // measure 71
1000
0000
0001
0010
0001
0010
0100
0000
,  // measure 72
0010
0001
0010
0001
1000
0000
0001
0100
,  // measure 73
0010
0100
0010
1000
,  // measure 74
0010
0100
0010
0100
0010
0000
0100
0001
,  // measure 75
0100
0000
0001
0010
0001
0100
0001
0100
,  // measure 76
0010
1000
0010
1000
0100
0010
0100
0000
,  // measure 77
0010
0001
0010
0000
0001
0100
0001
0100
,  // measure 78
0010
0000
0100
0001
0100
0000
0100
0000
,  // measure 79
0001
0000
0100
0000
0001
0010
0001
0010
,  // measure 80
0100
1000
0100
1000
0010
1000
0010
1000
,  // measure 81
0010
0100
0010
0100
0001
0010
0100
1000
,  // measure 82
0001
0010
0100
1000
0001
0000
0000
0000
,  // measure 83
1000
0000
0001
0100
,  // measure 84
0001
0010
0100
1000
,  // measure 85
0100
0010
0001
0000
,  // measure 86
1000
0000
0001
0100
,  // measure 87
0001
0010
0100
1000
,  // measure 88
0100
0010
000M
0001
,  // measure 89
0100
0001
0100
0001
,  // measure 90
1000
0001
1000
0000
0001
0000
1000
0100
,  // measure 91
1000
0100
1000
0000
0001
0100
0001
0000
,  // measure 92
0100
0001
0100
0010
,  // measure 93
1000
0010
1000
0000
0001
0100
0001
0000
,  // measure 94
1000
0000
0100
0010
0100
0000
0010
0000
,  // measure 95
0001
0010
0001
0100
,  // measure 96
0001
0100
0001
0000
1000
0000
0100
0000
,  // measure 97
1000
0000
0100
0000
0010
0001
0010
0000
,  // measure 98
0001
1000
0001
1000
,  // measure 99
0010
1000
0010
0000
0100
0000
0010
0000
,  // measure 100
0000
0110
0000
0100
,  // measure 101
0001
0100
0001
1000
,  // measure 102
0100
1000
0100
0000
1000
0000
0001
0010
,  // measure 103
0001
0010
0001
0000
1000
0100
1000
0000
,  // measure 104
0001
0100
0001
1000
,  // measure 105
0001
0010
0001
0000
1000
0100
1000
0000
,  // measure 106
0100
0000
0010
0001
0010
0001
0010
0000
,  // measure 107
0001
0100
0001
0100
,  // measure 108
0010
0100
0010
0000
0100
0000
0001
1000
,  // measure 109
0001
1000
0001
0000
1000
0100
1000
0001
,  // measure 110
1000
0001
1000
0001
1000
0001
1000
0001
,  // measure 111
1000
0001
1000
0001
1000
0001
1000
0001
,  // measure 112
1000
0001
0010
0100
0010
0100
0020
0000
,  // measure 113
0000
0000
0000
0000
,  // measure 114
0000
0000
0000
0000
,  // measure 115
0000
0000
0000
0000
,  // measure 116
0000
0000
0000
0000
,  // measure 117
0000
0000
0000
0000
,  // measure 118
0000
0000
0000
0000
,  // measure 119
0000
0000
0000
0000
,  // measure 120
0000
0000
0000
0000
,  // measure 121
0000
0000
0000
0000
,  // measure 122
0000
0000
0000
0000
,  // measure 123
0000
0000
0000
0000
,  // measure 124
0000
0000
0000
0000
0000
0000
0130
0010
;

//---------------dance-single - ----------------
#NOTEDATA:;
#CHARTNAME:;
#STEPSTYPE:dance-single;
#DESCRIPTION:;
#CHARTSTYLE:;
#DIFFICULTY:Medium;
#METER:8;
#RADARVALUES:0.499,0.774,0.080,0.088,0.004,456.000,11.000,12.000,17.000,0.000,0.000,0.000,0.000,0.499,0.774,0.080,0.088,0.004,456.000,11.000,12.000,17.000,0.000,0.000,0.000,0.000;
#CREDIT:;
#DISPLAYBPM:*;
#NOTES:
// measure 0
0000
0000
0000
0000
,  // measure 1
0000
0000
0000
0000
,  // measure 2
0000
0000
0000
0000
,  // measure 3
1000
0010
1000
0001
0100
0001
1000
0100
,  // measure 4
1000
0001
0010
0001
1000
0010
0100
0001
,  // measure 5
0010
0100
1000
0100
0010
0001
0100
0010
,  // measure 6
1000
0000
0100
0000
1000
0010
0100
0000
,  // measure 7
0001
1000
0100
0000
0010
0000
0001
0000
,  // measure 8
0010
0100
1000
0000
0010
0100
0001
1000
,  // measure 9
0001
0000
0010
0000
0100
1000
0001
0000
,  // measure 10
1000
0010
0100
0000
0001
0000
0100
0000
,  // measure 11
0010
1000
0001
0000
1000
0100
0010
0100
,  // measure 12
1000
0000
0001
0000
0100
0010
1000
0000
,  // measure 13
0001
0010
0100
0000
0010
0000
0001
0000
,  // measure 14
1000
0010
0100
0000
0010
1000
0100
0010
,  // measure 15
0100
0000
0010
0000
0001
0100
0010
0000
,  // measure 16
1000
0100
0010
0100
1000
0010
0010
0000
,  // measure 17
0100
0100
0010
1000
0010
0100
0001
1000
,  // measure 18
0001
0000
0101
0000
1010
0000
1000
0100
,  // measure 19
0010
0001
1000
0000
0010
0000
0110
0000
,  // measure 20
1010
1001
1000
0001
,  // measure 21
1000
0000
1010
0000
0101
0000
0001
0010
,  // measure 22
0100
1000
0001
0000
0100
0000
0110
0000
,  // measure 23
0101
0000
1001
0000
1000
0100
0010
0001
,  // measure 24
2000
0000
0010
0000
3010
0000
1000
0100
,  // measure 25
1000
0100
0010
0001
0200
0000
0010
0000
,  // measure 26
0310
0000
0100
0000
0001
0010
0100
0000
,  // measure 27
0020
0000
0001
0000
0031
0000
0001
0100
,  // measure 28
0001
0100
0010
1000
0200
0000
0010
0000
,  // measure 29
0310
0000
0100
1000
0100
1000
0010
0100
,  // measure 30
0001
0000
1000
0M01
10M0
M001
0100
0010
,  // measure 31
0000
0100
0010
1000
0100
0000
0010
010M
,  // measure 32
1000
00M1
M100
001M
M100
0010
1000
00M1
,  // measure 33
1000
0000
0100
0000
0010
0000
0001
0000
0010
0000
M100
0000
0M10
M001
0M10
0000
,  // measure 34
0M10
0001
0100
0001
1M00
0010
100M
0100
,  // measure 35
100M
0010
0100
0000
0001
0000
1000
0100
,  // measure 36
1000
0010
0100
0001
0010
0100
1000
0000
,  // measure 37
0010
0000
1000
0100
0010
0000
0001
0100
,  // measure 38
0001
0000
1000
0000
0100
0000
0010
0001
,  // measure 39
1000
0000
0010
1000
0010
0000
0100
0000
,  // measure 40
0001
0000
1000
0100
0010
0000
0001
0100
,  // measure 41
0001
0000
1000
0000
0010
0000
0100
0001
,  // measure 42
1000
0000
0100
0010
0100
0000
0010
0000
,  // measure 43
0001
0000
1000
0100
0010
0000
0100
1000
,  // measure 44
0010
0000
0100
0000
0001
0000
1000
0010
,  // measure 45
0100
0000
0010
1000
0001
0000
1000
0000
,  // measure 46
0100
0000
1000
0001
0100
0000
0010
0000
,  // measure 47
0100
0000
0001
0000
0010
0000
0100
1000
,  // measure 48
0002
0203
0320
1030
,  // measure 49
0100
0000
0010
0001
0010
0000
0001
0100
,  // measure 50
0001
0100
0010
0000
1000
0000
0100
0010
,  // measure 51
0100
0000
0010
0001
0010
0001
1000
0000
,  // measure 52
0010
0000
0100
0001
0100
0000
0001
1000
,  // measure 53
0001
1000
0100
0000
0010
0000
0001
0100
,  // measure 54
0001
0000
1000
0010
0100
0001
2000
0000
,  // measure 55
0000
0000
0000
0000
,  // measure 56
0000
0000
0000
0000
,  // measure 57
0000
3002
0000
0000
,  // measure 58
0000
0000
1003
0000
,  // measure 59
0001
0000
1000
0010
,  // measure 60
1000
0000
0001
0100
,  // measure 61
0001
0100
0001
0000
,  // measure 62
0010
0000
0100
1000
,  // measure 63
0100
0000
0010
0001
,  // measure 64
0010
0001
1000
0000
,  // measure 65
0001
0000
1000
0010
,  // measure 66
1000
0000
0001
0010
,  // measure 67
0001
0010
0001
0000
,  // measure 68
0100
0000
0010
1000
,  // measure 69
0010
0000
1000
0100
,  // measure 70
1000
0100
1000
0000
,  // measure 71
0010
0000
1000
0001
,  // measure 72
1000
0000
0001
1000
,  // measure 73
0001
0000
1000
0000
,  // measure 74
0100
0000
0010
0000
,  // measure 75
0001
0000
0010
0000
,  // measure 76
0100
0000
1000
0000
,  // measure 77
0100
0000
1000
0001
,  // measure 78
1000
0000
0001
1000
,  // measure 79
0001
0000
1000
0000
,  // measure 80
0010
0000
0100
0000
,  // measure 81
0001
0000
0100
0000
,  // measure 82
0010
0000
1000
0000
,  // measure 83
0100
0000
1000
0010
,  // measure 84
1000
0100
0010
0001
,  // measure 85
0010
0100
1000
0000
,  // measure 86
0100
0000
1000
0010
,  // measure 87
1000
0100
0010
0001
,  // measure 88
0010
0100
1000
0001
,  // measure 89
0000
0001
0000
0100
,  // measure 90
0000
0100
0000
0010
,  // measure 91
1000
0010
0000
1000
,  // measure 92
0000
0001
0000
1000
,  // measure 93
0000
1000
0000
0100
,  // measure 94
0000
0100
0000
0010
,  // measure 95
0000
0010
0000
0001
,  // measure 96
0000
1000
0000
0001
,  // measure 97
0100
0001
0000
1000
,  // measure 98
0000
0100
0000
0010
,  // measure 99
0100
0010
0000
0220
,  // measure 100
0000
0330
0000
0001
,  // measure 101
0000
0001
0000
1000
,  // measure 102
0000
1000
0000
0100
,  // measure 103
0010
0100
0000
0010
,  // measure 104
0000
0010
0000
0001
,  // measure 105
0000
0001
0000
1000
,  // measure 106
0000
0001
0100
0001
,  // measure 107
0000
0001
0000
0010
,  // measure 108
0000
0010
0000
0100
,  // measure 109
1000
0100
0000
1000
,  // measure 110
0001
1000
0001
1000
,  // measure 111
0001
1000
0001
1000
,  // measure 112
0001
0010
0100
0020
,  // measure 113
0000
0000
0000
0000
,  // measure 114
0000
0000
0000
0000
,  // measure 115
0000
0000
0000
0000
,  // measure 116
0000
0000
0000
0000
,  // measure 117
0000
0000
0000
0000
,  // measure 118
0000
0000
0000
0000
,  // measure 119
0000
0000
0000
0000
,  // measure 120
0000
0000
0000
0000
,  // measure 121
0000
0000
0000
0000
,  // measure 122
0000
0000
0000
0000
,  // measure 123
0000
0000
0000
0000
,  // measure 124
0000
0000
0000
0000
0000
0000
0130
0010
;

//---------------dance-single - ----------------
#NOTEDATA:;
#CHARTNAME:;
#STEPSTYPE:dance-single;
#DESCRIPTION:;
#CHARTSTYLE:;
#DIFFICULTY:Easy;
#METER:4;
#RADARVALUES:0.279,0.409,0.000,0.022,0.004,265.000,0.000,3.000,16.000,0.000,0.000,0.000,0.000,0.279,0.409,0.000,0.022,0.004,265.000,0.000,3.000,16.000,0.000,0.000,0.000,0.000;
#CREDIT:;
#DISPLAYBPM:*;
#NOTES:
// measure 0
0000
0000
0000
0000
,  // measure 1
0000
0000
0000
0000
,  // measure 2
0000
0000
0000
0000
,  // measure 3
1000
0001
1000
0001
,  // measure 4
0100
0001
1000
0001
,  // measure 5
1000
0100
1000
0100
,  // measure 6
1000
0000
1000
0000
,  // measure 7
0010
0100
0010
0000
,  // measure 8
0010
0100
0001
1000
,  // measure 9
0001
0000
0001
0000
,  // measure 10
0010
0100
0010
0000
,  // measure 11
0010
0100
1000
0001
,  // measure 12
1000
0000
0001
0100
,  // measure 13
0010
0100
0010
0000
,  // measure 14
0100
0001
1000
0001
,  // measure 15
0010
0000
0100
0010
,  // measure 16
0100
1000
0001
0000
,  // measure 17
0001
0000
1000
0010
,  // measure 18
1000
1000
1000
0100
,  // measure 19
1000
0000
0001
0001
,  // measure 20
0001
0100
0000
0001
,  // measure 21
0010
0010
0010
0100
,  // measure 22
1000
0000
0010
0010
,  // measure 23
0010
0100
0001
1000
,  // measure 24
0001
0010
0001
0010
,  // measure 25
0100
1000
0001
0100
,  // measure 26
0001
0100
0000
0000
,  // measure 27
0010
1000
0010
1000
,  // measure 28
0100
0010
0001
0010
,  // measure 29
0001
0010
0100
1000
,  // measure 30
0001
0000
0001
M100
M000
M010
0000
1000
,  // measure 31
0000
0100
0000
1000
0000
0010
0000
010M
,  // measure 32
0010
000M
100M
000M
0000
0100
0000
M010
,  // measure 33
0001
0000
0000
0000
0100
0000
0000
0000
0001
0000
M000
0000
200M
000M
000M
0000
,  // measure 34
300M
0001
0000
0100
M001
0000
M001
0000
,  // measure 35
M001
0001
1000
0001
,  // measure 36
0010
0100
1000
0001
,  // measure 37
0000
0001
0100
0010
,  // measure 38
0100
0010
0000
0010
,  // measure 39
1000
0001
1000
0001
,  // measure 40
0000
0001
0010
0100
,  // measure 41
0010
0100
0000
0100
,  // measure 42
1000
0001
1000
0001
,  // measure 43
0000
0001
1000
0010
,  // measure 44
0100
0010
0000
0010
,  // measure 45
1000
0100
0010
0100
,  // measure 46
0000
0100
0010
0001
,  // measure 47
1000
0001
0000
1000
,  // measure 48
0010
0100
0010
0100
,  // measure 49
0000
0100
0000
0001
,  // measure 50
1000
0001
0000
0001
,  // measure 51
0000
1000
0100
1000
,  // measure 52
0000
1000
0000
0010
,  // measure 53
0100
0010
0000
0010
,  // measure 54
0000
1000
0001
2000
,  // measure 55
0000
0000
0000
0000
,  // measure 56
0000
0000
0000
0000
,  // measure 57
0000
0000
0000
0000
,  // measure 58
0000
0000
3001
0000
,  // measure 59
0000
0000
0001
0000
,  // measure 60
0000
0000
1000
0000
,  // measure 61
1000
0000
0001
0000
,  // measure 62
0000
0000
0001
0000
,  // measure 63
0000
0000
0100
0000
,  // measure 64
0100
0000
0010
0000
,  // measure 65
0000
0000
0010
0000
,  // measure 66
0000
0000
1000
0000
,  // measure 67
1000
0000
0010
0000
,  // measure 68
0000
0000
0010
0000
,  // measure 69
0000
0000
0100
0000
,  // measure 70
0100
0000
0001
0000
,  // measure 71
0000
0000
1000
0000
,  // measure 72
0000
0000
0001
0000
,  // measure 73
0001
0000
1000
0000
,  // measure 74
0010
0000
1000
0000
,  // measure 75
0010
0000
1000
0000
,  // measure 76
0010
0000
1000
0000
,  // measure 77
0000
0000
0001
0000
,  // measure 78
0000
0000
1000
0000
,  // measure 79
1000
0000
0001
0000
,  // measure 80
0010
0000
0001
0000
,  // measure 81
0010
0000
0001
0000
,  // measure 82
0010
0000
0001
0000
,  // measure 83
0100
0000
0001
0000
,  // measure 84
1000
0001
1000
0001
,  // measure 85
1000
0001
1000
0000
,  // measure 86
0100
0000
1000
0000
,  // measure 87
0001
1000
0001
1000
,  // measure 88
0001
1000
0001
1000
,  // measure 89
0000
0000
0000
1000
,  // measure 90
0000
0000
0000
0001
,  // measure 91
0000
0001
0000
0001
,  // measure 92
0000
0000
0000
0001
,  // measure 93
0000
0000
0000
0100
,  // measure 94
0000
0000
0000
0100
,  // measure 95
0000
0000
0000
0010
,  // measure 96
0000
0000
0000
0010
,  // measure 97
0000
0010
0000
0010
,  // measure 98
0000
0000
0000
0100
,  // measure 99
0000
0000
0000
0001
,  // measure 100
0000
0000
0000
1000
,  // measure 101
0000
0000
0000
1000
,  // measure 102
0000
0000
0000
0100
,  // measure 103
0000
0100
0000
0100
,  // measure 104
0000
0000
0000
0100
,  // measure 105
0000
0000
0000
0010
,  // measure 106
0000
0000
0000
0010
,  // measure 107
0000
0000
0000
0001
,  // measure 108
0000
0000
0000
0001
,  // measure 109
0000
0001
0000
0001
,  // measure 110
0000
1000
0000
0001
,  // measure 111
0000
1000
0000
0001
,  // measure 112
0000
1000
0000
0020
,  // measure 113
0000
0000
0000
0000
,  // measure 114
0000
0000
0000
0000
,  // measure 115
0000
0000
0000
0000
,  // measure 116
0000
0000
0000
0000
,  // measure 117
0000
0000
0000
0000
,  // measure 118
0000
0000
0000
0000
,  // measure 119
0000
0000
0000
0000
,  // measure 120
0000
0000
0000
0000
,  // measure 121
0000
0000
0000
0000
,  // measure 122
0000
0000
0000
0000
,  // measure 123
0000
0000
0000
0000
,  // measure 124
0000
0000
0000
0130
;
