#TITLE:片翼の鳥;
#SUBTITLE:;
#ARTIST:Hommarju feat. mamiko;
#TITLETRANSLIT:Katayoku no Tori;
#SUBTITLETRANSLIT:;
#ARTISTTRANSLIT:;
#GENRE:;
#CREDIT:AznPunk07/Frozen_Heat/GuardianFrozen;
#MENUCOLOR:#ffcc00;
#METERTYPE:DDR;
#BANNER:[Moon Runes] - Katayoku no Tori.png;
#BACKGROUND:[Moon Runes] - Katayoku no Tori-bg.png;
#LYRICSPATH:;
#CDTITLE:cdtitle.png;
#MUSIC:[Moon Runes] - Katayoku no Tori.mp3;
#OFFSET:-1.124;
#SAMPLESTART:65.780;
#SAMPLELENGTH:17.540;
#SELECTABLE:YES;
#LISTSORT:;
#BPMS:0.000=72.335,8.000=165.000,12.000=219.980,180.000=109.990,198.000=54.995,199.000=109.991,200.000=219.980;
#STOPS:11.000=0.500
;
#BGCHANGES:;
#ATTACKS:;

//---------------dance-single - ----------------
#NOTES:
     dance-single:
     :
     Hard:
     8:
     0.560,0.707,0.513,0.446,0.000:
0000
0000
0000
0000
,
0000
0000
0000
0000
,
0000
0000
0000
0000
,
0010
0000
0001
0100
0000
0000
0010
0000
,
1010
0000
0100
0000
0101
0000
1000
0100
,
0000
0010
0011
0100
,
1100
0000
0001
0100
0000
0000
0002
0000
,
2003
3020
0130
0110
,
0010
0220
0000
0330
,
1001
0000
0001
0100
0000
0001
0020
0000
,
0230
0000
2300
0000
3001
0000
1000
0010
,
0000
1000
0200
0000
0320
0000
0032
0000
,
1003
0000
0010
0100
0000
0001
1000
0000
,
1010
1001
0001
0011
,
0110
2002
0000
3003
,
0001
0000
1000
1000
,
0000
0000
0001
1000
0001
0000
0000
0010
,
0100
0100
0010
0001
,
1000
0000
0000
0010
0000
0000
0100
0000
,
0000
0000
0001
0000
0010
0000
0000
0100
,
0000
0000
1000
0000
0001
1000
0001
0000
,
0110
0000
0000
1000
0100
0000
1100
0000
,
0100
0000
0100
0000
0010
0000
0010
0001
,
0010
0001
1001
0110
,
0200
0000
0010
0010
,
0020
0000
0030
0000
,
0000
0300
0000
0000
,
0101
0100
0010
1010
,
1000
0000
0100
0000
1100
0000
0000
0010
,
0001
0000
0011
0000
0000
0000
0001
0100
,
0001
0000
0000
1000
0100
0000
1000
0000
,
1000
0001
0100
0100
,
0010
0000
0110
0000
1000
0000
1000
0001
,
1000
0000
0000
0001
0010
0000
1000
0000
,
0010
0000
0001
0000
1000
0000
0000
1000
,
0010
0001
0010
1000
,
1100
0010
0001
0101
,
0010
1000
0100
0100
,
0010
0110
1001
0110
,
1001
0000
0000
0101
0000
0000
0010
0000
,
0100
0001
2000
0010
,
0001
3200
0010
1300
,
0110
0000
0000
0011
0000
0000
1000
0000
,
0100
0010
0002
0100
,
1000
0023
0001
0130
,
2000
0000
0000
3020
0000
0000
0230
0000
,
0000
0302
0000
0000
0023
0000
1000
1000
,
0000
0100
0100
0000
0000
0001
0000
0001
,
0001
0000
0000
0000
,
0000
0000
0030
0000
,
1002
0010
0100
1003
,
0010
1010
1001
1100
,
2001
3010
0100
1001
,
0101
0011
2001
0010
,
3100
0010
0021
0001
,
0130
1200
0010
1300
,
0001
0100
0001
0100
0010
0000
1000
0010
,
1000
0010
0100
0000
0001
1000
0001
1000
,
0100
0000
0010
0000
0100
1000
0100
0010
,
0001
0000
1000
0001
1000
0001
0200
0000
,
0001
0010
1000
0301
,
1000
1010
0001
0011
,
1001
0000
0100
0010
0100
0010
1000
0000
,
0001
0010
0001
0000
0100
0000
0010
0000
,
1000
0000
0100
1000
0010
1000
0010
0000
,
0100
0000
0001
0000
0010
0000
0001
1000
,
0001
1000
0010
0100
0000
0100
0010
0100
,
0010
1000
0100
0010
0001
0010
0100
0000
,
1001
0010
0100
0012
,
0100
1003
2010
0100
,
3001
0120
1000
0031
,
0210
0000
0001
0320
,
0000
0130
0001
1000
,
0100
0000
0010
0100
1000
0100
0010
0001
,
1000
0000
0010
0100
0010
0000
2000
0000
,
0000
0000
3020
0000
,
0000
0230
0000
0000
,
0302
0010
0100
2003
,
0010
0100
3020
0001
,
1000
0230
0001
0010
,
0301
0000
1000
0001
1000
0000
0002
0000
,
0000
0000
0203
0000
,
0000
0320
1000
1000
,
0230
1000
0010
0302
,
0010
0000
1000
0000
0013
0100
0020
0000
,
0001
0000
0130
1000
0100
1000
0002
0000
,
0003
0000
1000
0001
1000
0000
1020
0000
,
0100
1030
0102
0010
,
0103
2010
0001
3100
,
0110
1001
0110
1100
,
0011
1100
0101
1010
,
0101
0000
0001
0010
0100
1000
0001
1000
,
0220
0000
0000
0000
,
0000
0000
0000
0000
,
0000
0000
0000
0000
,
0330
0000
0000
0000
;

//---------------dance-single - ----------------
#NOTES:
     dance-single:
     :
     Challenge:
     10:
     0.790,1.000,0.306,0.331,0.136:
0000
0000
0000
0000
,
0000
0000
0000
0000
,
0000
0000
0000
0000
,
0101
0000
0001
0010
0000
0100
1000
0000
,
1010
0000
0110
0000
0101
0000
0001
1000
,
0000
0100
0010
0000
0011
0000
0110
0000
,
1100
0000
1000
0010
0000
0100
0001
0000
,
0101
0110
1010
1001
,
1100
0000
0011
0000
0010
0001
0100
0001
,
2000
0000
3020
0100
0030
1000
0002
0000
,
0013
0100
1000
0000
0002
0000
0203
0010
,
0300
0000
0001
0000
0020
0000
0000
0000
0130
0000
1000
0000
0001
1000
0001
0000
,
0020
0000
0130
2000
0000
3001
0200
0000
,
0320
0000
1030
0001
0200
0000
0302
0000
,
0023
0000
0000
0000
0130
0000
0100
0000
1000
0100
1000
0000
0001
1000
0001
0000
,
0100
0000
0100
0000
0001
0010
0100
0000
,
0100
0000
1000
0010
0100
0000
0100
0000
,
0001
0011
1000
1010
,
1001
0000
0100
0001
1000
0000
1001
0000
,
0100
1000
0001
0000
1001
0000
0100
0001
,
1000
0000
1001
0000
0010
0100
0010
0000
,
0110
0000
0000
1000
0010
0000
0100
0000
,
0010
1000
0010
0000
0100
0000
0001
0010
,
0001
0000
0010
0000
0000
0100
0010
0000
,
0110
0001
1000
0010
,
0100
0001
0100
0000
0010
0000
0000
0000
,
0000
1001
0110
1001
,
0010
0000
0001
0000
0100
0010
1000
0000
,
0100
0000
0010
0001
0100
0000
0000
0010
,
1000
0000
0001
0000
0010
0000
0100
1000
,
0001
0000
0100
0001
0010
0000
0100
0000
,
1000
0001
0100
0000
0010
1000
0010
0100
,
0010
0000
0000
0000
1000
0000
0000
0000
0001
0000
0010
0000
0100
0000
1000
0010
,
1000
0001
0100
0001
0010
0001
1000
0000
,
0010
0100
0010
0000
1000
0100
0001
0100
,
0010
0001
1000
0000
0001
0100
0010
0000
,
1010
0000
0100
0001
0010
0000
0011
0000
,
0100
0000
1000
0000
0010
0000
0000
0000
0100
0000
0010
1000
0010
0000
0100
0000
,
0001
0001
1000
0100
0100
0010
0100
0000
,
1100
0000
0010
0011
0000
0001
1001
0000
,
1010
0011
2000
0100
,
0001
3020
0001
1030
,
0101
0000
0010
1010
0000
1000
1001
0000
,
0011
1000
0002
0010
,
1000
0203
1000
0310
,
2000
0100
3010
0001
0100
1000
0200
0010
,
0301
0000
1000
0000
0010
0000
0100
0000
0001
0000
0010
0100
2000
0000
0010
0000
,
3100
0010
0001
0000
0200
0000
0000
0000
0300
0000
0002
0000
0010
0000
0100
0000
,
2000
0000
0000
0000
,
0000
0000
3003
0000
,
1001
0000
0001
0010
1000
0010
0001
1000
,
0001
0100
0010
1000
0000
0001
0100
0001
,
1000
0100
0001
0100
1000
0010
0100
0001
,
0000
1000
0100
0010
0001
1000
0001
0100
,
1000
0100
0001
0010
0100
1000
0001
0100
,
0010
0100
0001
1000
0100
0001
0100
1000
,
0001
0001
0010
0100
1000
0001
1000
1000
,
0010
0100
0001
1000
0000
0001
0010
0001
,
1000
0010
1000
0001
0010
1000
0010
0001
,
0000
1000
0010
0001
0010
1000
0010
0100
,
0001
1000
0100
0010
0000
0100
0010
0001
,
1000
0000
0001
0000
0100
0000
0100
0000
0010
0000
0010
0000
1000
0000
1000
0001
,
1000
0000
0001
0000
1000
0100
0010
0001
1000
0000
0001
0000
0100
0000
0010
0000
,
1000
0100
0010
0001
0000
0001
0100
1000
,
0100
0001
0100
0010
1000
0001
0100
0010
,
0000
1000
0100
0001
0100
0010
0001
1000
,
0001
0100
0010
1000
0001
0010
1000
0010
,
0001
0000
0100
0000
0010
0000
1000
0000
0100
0000
0010
0000
0001
1000
0001
1000
,
0010
0100
0010
1000
0100
0010
0001
0001
,
0100
0010
1000
0100
0010
0010
0001
1000
,
0010
0100
1000
1000
0100
0001
1000
0100
,
0001
0100
0010
0001
0010
0100
1000
1000
,
0001
0100
0010
0100
0000
0001
0100
0100
,
0010
0010
1000
1000
0001
0001
0010
0000
,
0100
1000
0001
0100
0010
1000
0002
0010
,
0103
0010
0001
1000
0020
0001
1030
0100
,
0001
0010
0200
1000
0301
1000
0010
0000
,
0100
0001
0100
0001
0020
0000
0130
1000
,
0100
1000
0020
0000
0130
0001
1000
0001
,
0020
0000
0130
1000
0001
1000
0020
0100
,
0031
0000
1000
0100
0001
0100
2000
0001
,
3100
0010
0100
0001
0020
0100
1030
0001
,
0200
0000
0010
0000
1300
0000
0001
0010
0001
0000
1000
0010
1000
0000
0001
0010
,
0100
0010
0001
1000
0200
0000
0310
0001
,
1000
0001
0200
0000
0301
1000
0010
1000
,
0100
0000
0010
0001
0010
0001
0100
0000
0010
1000
0010
1000
0100
0000
0010
0000
,
0001
0000
1000
0000
0001
0010
0100
1000
0001
0000
0100
0000
0020
0000
1000
0000
,
0031
0100
0001
0010
0200
1000
0301
0010
,
1000
0010
0002
0100
0013
1000
0001
0100
,
0100
0001
0001
1000
1000
0100
0100
0010
,
0010
0000
0001
0000
0001
0000
1000
0001
1000
0001
0100
0010
0100
0010
1000
0100
,
0010
0100
1000
0001
0010
0100
1000
0001
1000
0001
0100
0010
0100
0010
1000
0000
,
2002
0000
0000
0000
,
0000
0000
0000
0000
,
0000
0000
0000
0000
,
3003
0000
0000
0000
;

//---------------dance-single - ----------------
#NOTES:
     dance-single:
     :
     Medium:
     7:
     0.498,1.000,0.240,0.488,0.000:
0000
0000
0000
0000
,
0000
0000
0000
0000
,
0000
0000
0000
0000
,
1000
0000
0000
1100
0000
0100
0010
0000
,
0100
0000
1000
0000
0010
0000
0000
0110
,
0000
0100
0001
0000
0010
0000
0100
0000
,
0010
0000
0000
0011
0000
0001
1000
0000
,
0001
0100
0110
0010
,
1000
1001
0000
0000
,
0101
0000
0000
1001
0000
0000
0101
0000
,
0010
0000
1000
0000
1100
0000
0000
1010
,
0000
1100
0010
0001
,
1001
0000
0000
0110
0000
0000
1001
0000
,
0010
0100
1000
1000
,
0001
0000
0001
1000
0001
1000
0001
0000
,
1000
0000
0100
0100
,
0000
0010
0010
0000
,
0001
0001
1000
0001
,
0100
0000
0010
0010
,
0000
1000
1000
0000
,
0100
0100
0010
0100
,
1000
0000
0001
0001
,
0000
0001
1000
0000
,
1000
1000
0001
0100
,
0010
0000
0010
0100
,
0100
0010
0110
0000
,
0000
1001
0000
0000
,
0001
0010
0100
0010
,
0001
1000
0001
0000
,
1000
0001
0001
1000
,
0010
0100
0010
1000
,
0100
0010
0001
0000
,
0001
1000
1000
0001
,
1000
1000
0100
0010
,
0001
1000
0001
0001
,
0100
0010
1000
0001
,
1001
0100
0010
1001
,
0010
0100
1001
1001
,
1001
0010
0100
0010
,
0110
0000
0000
0110
0000
0000
0110
0000
,
0110
0000
0002
1000
,
0003
2000
0001
3000
,
0110
0000
0000
0110
0000
0000
0110
0000
,
0110
0000
0002
1000
,
0003
2000
0001
3000
,
0001
0000
0000
0100
0001
0100
0010
0000
,
0000
1000
0001
0010
0001
0000
0000
0001
,
0000
0000
1000
0000
0000
1000
0000
0000
,
0200
0000
0000
0000
,
0000
0000
0300
0000
,
1000
1000
0001
0100
,
0010
1000
0001
0001
,
0001
0010
0100
1000
,
0010
0010
0010
1000
,
0001
0010
0100
0100
,
1000
0000
0001
0000
1000
0100
1000
0010
,
1000
1000
0100
0010
,
0010
0001
0100
0100
,
0010
1000
0001
0010
,
0010
0100
1000
1000
,
0001
0100
0000
0000
,
0001
1000
0001
0100
,
0010
0010
0010
1000
,
0001
0010
0100
0100
,
0100
0010
0001
1000
,
0001
0001
0001
0100
,
0010
0100
0100
0010
,
1000
0000
1000
0001
0100
0001
0010
0100
,
0010
0100
0010
0001
,
0001
0100
0010
0010
,
1000
0100
0100
0010
,
0010
0001
1000
1000
,
0001
0001
0000
1000
,
0001
0000
0100
0010
0100
0001
0010
0001
,
1000
0100
0010
0002
,
0100
1003
2000
0100
,
3001
0002
0100
1003
,
2000
3200
0320
0032
,
0203
0320
2030
3002
,
0023
2030
3002
0203
,
2300
0010
3001
0002
,
0010
1003
2000
0010
,
3001
0002
0010
1003
,
0002
0203
2300
3200
,
0320
2030
3200
0302
,
0203
0320
0032
2003
,
3002
0010
0103
2000
,
0010
3100
0002
0100
,
0013
2000
0100
3010
,
0002
0023
2030
3002
,
0203
0000
2300
0000
3002
0023
0032
0023
,
0032
0023
0230
2300
3200
2300
3200
2300
,
3020
0000
0000
0000
,
0000
0000
0000
0000
,
0030
0000
0000
0000
;

//---------------dance-single - ----------------
#NOTES:
     dance-single:
     :
     Easy:
     5:
     0.317,0.456,0.099,0.256,0.000:
0000
0000
0000
0000
,
0000
0000
0000
0000
,
0000
0000
0000
0000
,
0001
0000
0000
0001
0000
0000
0001
0000
,
0100
0000
0010
0000
1000
0000
0000
1000
,
0000
1000
0100
0010
,
0001
0000
0000
0001
0000
0000
0001
0000
,
0010
0100
1000
0001
,
1000
2000
0000
3000
,
0010
0000
0000
0010
0000
0000
0100
0000
,
0001
0000
1000
0000
0100
0000
0000
0100
,
0000
0010
0001
1000
,
0010
0000
0000
0010
0000
0000
1000
0000
,
0001
0010
0100
1000
,
0001
0200
0000
0300
,
0010
0000
0000
0000
,
0000
0000
1000
0000
,
0000
0000
0000
0000
,
0001
0000
0000
0000
,
0000
0000
0010
0000
,
0000
0000
0000
0000
,
0001
0000
0001
0100
,
0000
0000
0010
0000
,
0010
1000
0000
0001
,
1000
0000
1000
0001
,
0000
0000
2002
0000
,
0000
3003
0000
0000
,
1000
0100
0000
0010
,
0001
0000
0100
0010
,
0100
0010
0000
0000
,
1000
0001
0000
0001
,
1000
0000
0100
0010
,
0100
0010
0000
0000
,
0001
0010
0100
1000
,
1000
0000
1000
0010
,
0100
0001
0001
0000
,
0020
0000
0000
0230
,
0000
0000
1300
0001
,
1000
1001
0000
0000
,
0010
0000
0000
0010
0000
0000
0010
0000
,
0000
0000
2000
3000
,
0000
0002
0003
0000
,
0010
0000
0000
0010
0000
0000
0010
0000
,
0000
0000
0002
0003
,
0000
2000
3000
0000
,
0200
0000
0000
0300
0000
0000
0020
0000
,
0000
0030
0000
0000
0002
0000
0003
2000
,
0000
3000
0020
0000
0030
0200
0000
0300
,
2002
0000
0000
0000
,
0000
0000
3003
0000
,
0001
0001
0100
0010
,
0000
0000
1000
1000
,
0100
0010
0000
0000
,
0001
1000
0001
1000
,
0000
0000
0010
0100
,
0010
1000
0001
1000
,
0100
0100
0010
0001
,
0001
0100
0010
0010
,
1000
0100
0100
1000
,
0001
0010
0100
0100
,
0000
1000
0001
0100
,
0010
1000
0001
1000
,
0100
0020
0030
0000
,
0001
1000
0001
0001
,
0001
0000
0100
0010
,
1000
1000
1000
0000
,
0000
0100
0010
0000
,
0010
0001
0000
0001
,
1000
0000
0010
1000
,
1000
1000
0001
0001
,
0001
0100
0010
0100
,
0100
0010
1000
0001
,
0010
0010
0000
0001
,
1000
1001
1001
1001
,
0110
0000
0000
0002
,
0000
0003
0200
0000
,
0300
0002
0000
0003
,
1000
0000
1000
0100
,
0000
0100
0010
0000
,
0010
0001
1000
0001
,
0001
0000
0000
2000
,
0000
3000
0020
0000
,
0030
2000
0000
3000
,
0001
0000
0001
0100
,
0000
0100
0010
0000
,
0010
1000
0001
1000
,
1001
0000
0000
0220
,
0000
0330
2002
0000
,
3003
0220
0000
0330
,
1000
0100
1000
0001
,
0100
0001
1000
1000
,
0001
0001
0010
0100
,
1001
0000
0000
0000
;

//---------------dance-single - ----------------
#NOTES:
     dance-single:
     :
     Beginner:
     1:
     0.103,0.152,0.041,0.083,0.000:
0000
0000
0000
0000
,
0000
0000
0000
0000
,
0000
0000
0000
0000
,
0000
0000
0000
0000
,
0000
0000
1000
0000
,
0000
0000
0000
0000
,
0001
0000
0000
0000
,
0000
0000
1000
0000
,
0000
0000
0000
0000
,
0010
0000
0000
0000
,
0000
0000
0100
0000
,
0000
0000
0000
0000
,
0010
0000
0000
0000
,
0000
0000
0100
0000
,
0000
0001
0000
0000
,
0001
0000
0000
0000
,
0000
0000
0000
0000
,
0000
0000
0000
0000
,
1000
0000
0000
0000
,
0000
0000
0000
0000
,
0000
0000
0000
0000
,
0100
0000
0000
0000
,
0000
0000
0010
0000
,
0000
0000
0000
0000
,
0010
0000
0000
0100
,
0000
0000
0110
0000
,
0000
0000
0000
0000
,
0001
0000
0000
0000
,
0000
0000
0100
0000
,
0000
0000
0000
0000
,
0010
0000
0000
0000
,
0000
0000
1000
0000
,
0000
0000
0000
0000
,
0100
0000
0000
0000
,
0000
0000
0010
0000
,
0000
0000
0000
0000
,
1001
0000
0000
0000
,
0000
0000
0110
0000
,
0000
0000
0000
0000
,
0002
0000
0000
0003
,
0000
0000
0020
0000
,
0000
0030
0000
0000
,
2000
0000
0000
3000
,
0000
0000
0200
0000
,
0000
0300
0000
0000
,
0001
0000
0000
1000
,
0000
0000
0010
0000
,
0000
0100
0000
0000
,
1001
0000
0000
0000
,
0000
0000
0000
0000
,
0100
0000
0000
0000
,
0000
0000
0010
0000
,
0000
0000
0000
0000
,
1000
0000
0000
0000
,
0000
0000
0001
0000
,
0000
1000
0000
0000
,
0100
0000
0000
0000
,
0000
0000
0010
0000
,
0000
0000
0000
0000
,
0001
0000
0000
0000
,
0000
0000
0100
0000
,
0000
0010
0000
0000
,
1000
0000
0000
0000
,
0000
0000
0100
0000
,
0000
0000
0000
0000
,
0010
0000
0000
0000
,
0000
0000
0001
0000
,
0000
0100
0000
0000
,
0010
0000
0000
0100
,
0000
0000
0001
0000
,
0000
1000
0000
0000
,
0100
0000
0000
0000
,
0000
0000
0010
0000
,
0000
0000
0000
0000
,
0002
0000
0000
0003
,
0000
0000
2000
0000
,
0000
3000
0000
0000
,
0010
0000
0000
0100
,
0000
0000
0010
0000
,
0000
0100
0000
0000
,
2000
0000
0000
3000
,
0000
0000
0002
0000
,
0000
0003
0000
0000
,
0010
0000
0000
0100
,
0000
0000
0010
0000
,
0000
0100
0000
0000
,
2000
0000
0000
3000
,
0000
0000
0002
0000
,
0000
0003
0000
0000
,
0010
0000
0000
0100
,
0000
0000
1000
0000
,
0000
0001
0000
0000
,
0110
0000
0000
0000
;
