#TITLE:κανων;
#SUBTITLE:;
#ARTIST:tarolabo;
#TITLETRANSLIT:Kanon;
#SUBTITLETRANSLIT:;
#ARTISTTRANSLIT:;
#GENRE:;
#CREDIT:Meseki;
#MENUCOLOR:0.75,0.2,0.2,1.0;
#BANNER:Kanon-bn.png;
#BACKGROUND:Kanon-bg.png;
#LYRICSPATH:;
#CDTITLE:cdtitle.png;
#MUSIC:Kanon.ogg;
#OFFSET:0.000;
#SAMPLESTART:90.514;
#SAMPLELENGTH:21.943;
#SELECTABLE:YES;
#LISTSORT:;
#BPMS:0.000=175.000;
#STOPS:;
#TICKCOUNT:0.000=2;
#BGCHANGES:;
#KEYSOUNDS:;
#ATTACKS:;

//---------------dance-single - ----------------
#NOTES:
     dance-single:
     :
     Medium:
     8:
     0.453,0.631,0.096,0.303,0.117: // measure 1
0000
0000
0000
0000
,  // measure 2
0000
0000
0000
0000
,  // measure 3
0000
0000
0000
0000
,  // measure 4
0000
0000
0000
0000
,  // measure 5
0000
0000
0000
0000
,  // measure 6
0000
0000
0000
0000
,  // measure 7
0000
0000
0000
0000
,  // measure 8
0000
0000
0000
0000
,  // measure 9
0000
0000
0000
0000
,  // measure 10
1000
0000
0000
0000
0000
0001
0000
0000
,  // measure 11
0000
0000
0000
0001
0000
0000
0100
0000
,  // measure 12
0010
0000
0000
0000
0000
0010
0000
0000
,  // measure 13
0000
0000
0000
1000
0010
0000
0100
0000
,  // measure 14
0001
0000
0010
0000
0100
1000
0100
0000
,  // measure 15
1000
0000
0020
0030
0001
0000
0010
0000
,  // measure 16
1000
0000
0100
0000
0002
0003
0100
0000
,  // measure 17
1000
0000
0010
0000
0002
0003
0100
0000
,  // measure 18
1000
0002
0003
0100
0000
0100
0010
1000
,  // measure 19
0000
1000
0010
0002
0003
0010
1000
0001
,  // measure 20
0010
0000
0001
0000
0000
0000
0100
0000
0010
0000
1000
0000
0010
0000
0200
0300
,  // measure 21
0000
0000
1000
0000
0100
0000
0000
0010
0000
0000
1000
0000
0001
0000
0010
0000
,  // measure 22
0200
0000
0300
0001
0200
0000
2300
0000
,  // measure 23
3000
0000
0010
0000
0100
0000
0000
0000
0001
0000
0000
0010
0000
0000
0100
0000
,  // measure 24
0010
0000
0100
0000
1000
0000
0100
0000
0010
0000
0100
0000
1000
0000
0000
0010
,  // measure 25
0000
0000
0100
0000
0001
0000
0000
1000
0000
0000
0001
0000
0100
0000
0001
0000
,  // measure 26
0010
0000
0100
0000
1000
0000
0000
0000
0100
0000
1000
0000
0000
0010
1000
0000
,  // measure 27
0000
0000
1000
0001
0000
0100
0001
0000
,  // measure 28
0000
0000
1000
0000
0010
0000
0000
0000
1000
0000
0001
0000
0000
0100
0001
0000
,  // measure 29
0000
0000
0100
0010
0000
1000
0001
0010
,  // measure 30
0000
0000
0001
0000
0100
0000
0000
0000
0100
0010
0000
0000
0000
1000
0000
0000
,  // measure 31
0001
0010
0000
0010
0100
1000
0100
0001
,  // measure 32
0000
0000
0100
0000
0010
0000
0000
0000
0100
0000
1000
0000
0000
1000
0010
0000
,  // measure 33
0000
0000
0100
0001
0000
1000
0100
0010
,  // measure 34
0001
0000
0000
0000
0100
0001
0000
0000
,  // measure 35
1000
0000
0000
0010
0000
0000
0010
0000
,  // measure 36
0010
0000
0000
0000
0100
0001
0000
0000
,  // measure 37
1000
0000
0000
0010
0000
0000
0010
0000
,  // measure 38
1010
0000
1000
0000
0002
0003
1000
0000
,  // measure 39
0100
0000
0010
0000
0002
0003
0010
0000
,  // measure 40
0100
0000
1000
0000
0020
0030
0100
0000
,  // measure 41
0001
0000
0010
0000
2000
3000
0010
0000
,  // measure 42
0001
0000
0000
0000
0000
0000
0000
0000
0020
0000
0000
0030
0000
0000
0000
0100
,  // measure 43
2000
0000
3000
0002
,  // measure 44
0000
0003
0200
0000
,  // measure 45
0300
0000
0000
0000
0020
0000
0000
0030
0000
0000
2000
0000
3000
0000
0001
0000
,  // measure 46
1000
0100
0010
1000
,  // measure 47
0010
0001
0100
0010
,  // measure 48
2000
0000
0000
3000
0200
0000
0000
0300
,  // measure 49
0020
0000
0000
0030
0001
0000
0100
0000
,  // measure 50
2010
0000
3000
0000
0000
0000
0001
0000
0000
0000
0100
0000
0000
0010
0000
0000
,  // measure 51
1000
0000
0000
0000
0000
0000
0100
0000
0000
0000
0000
0010
0000
0000
0001
0000
,  // measure 52
0100
0000
0000
0000
0000
0000
0010
0000
0000
0000
1000
0000
0000
0001
0000
0000
,  // measure 53
0010
0000
0000
0000
0000
0000
0100
0000
0000
0000
0000
1000
0000
0000
0001
0000
,  // measure 54
0100
0000
0000
0010
0000
1000
0001
0000
,  // measure 55
0010
0000
0000
0100
0000
1000
0010
0100
,  // measure 56
0010
0000
0000
1000
0000
0000
0001
0000
,  // measure 57
0110
0000
2001
0000
,  // measure 58
3010
0200
0302
0203
,  // measure 59
2300
3200
0320
1030
,  // measure 60
0011
0000
0110
0000
,  // measure 61
1100
0001
0100
1000
,  // measure 62
0010
0100
0001
0100
0010
0000
1000
0000
,  // measure 63
0001
1000
0001
0100
0010
0000
1000
0000
,  // measure 64
0010
0100
0001
0010
0100
0000
1000
0000
,  // measure 65
0010
0010
1000
0000
0000
0001
0010
1000
,  // measure 66
0020
0000
0000
0000
,  // measure 67
0031
0100
0100
0010
1000
0000
0001
0010
,  // measure 68
0000
0010
0100
0010
0001
0010
1000
0010
,  // measure 69
0002
0000
0003
0000
0100
0000
0010
0000
0000
1001
0000
0000
1001
0000
0000
0000
,  // measure 70
0000
0020
0032
1003
0010
0100
0001
0010
,  // measure 71
0100
0000
0000
0000
0000
0000
0000
0000
0100
0000
0000
0000
0000
0000
0000
0000
0000
0000
0000
0000
0000
0000
0000
0000
1000
0000
0000
0001
0000
0000
0000
0000
0000
0001
0000
0000
1000
0000
0000
0000
0000
0000
0020
0000
0000
0000
0000
0000
,  // measure 72
0030
0000
1000
0001
0010
0100
1000
0000
,  // measure 73
0002
0000
0000
0103
0000
0101
0000
0000
0000
0000
0000
0000
,  // measure 74
0010
0010
1000
0000
0002
0000
0000
0000
,  // measure 75
0103
0000
0010
0000
0010
0000
0000
0000
1000
0020
0000
0000
0130
0000
0001
0000
,  // measure 76
0000
0001
0000
0000
0001
0000
1000
0000
0000
0000
0000
0000
0110
0000
0000
0000
,  // measure 77
1000
0000
0002
0000
0103
0000
0000
0000
0010
1000
0000
0000
1001
0000
0000
0000
,  // measure 78
0100
0001
0010
1000
0010
0000
0100
1000
,  // measure 79
0002
0000
0000
0000
0013
0000
0000
0000
0001
1000
0000
1000
0001
0000
0000
0000
,  // measure 80
1000
0000
0000
0000
0010
0000
0100
0000
0000
0001
0000
0000
1000
0000
0000
0000
,  // measure 81
0000
0010
0000
1000
0000
0100
0000
0000
0000
0000
0000
0000
,  // measure 82
0010
0010
0100
0000
2001
0000
0000
0000
,  // measure 83
3000
0010
1000
0001
0010
0100
0000
1000
,  // measure 84
0000
0001
0010
0001
0000
0000
0000
0000
,  // measure 85
0000
0000
0000
1000
0010
0000
0002
0000
,  // measure 86
0000
0000
0000
0003
,  // measure 87
1010
0000
0001
0000
1000
0100
0010
0000
,  // measure 88
0100
0000
0010
0001
0000
0100
0010
0000
,  // measure 89
1000
0001
0010
0000
0100
1000
0010
0000
,  // measure 90
0000
0100
0001
0000
0000
1000
0010
1000
,  // measure 91
0001
0000
0000
0010
0100
0000
0000
1000
,  // measure 92
0010
1000
0010
1000
0001
1000
0001
0010
,  // measure 93
0000
0000
0000
0000
0001
0000
0000
0000
0010
0000
0000
0100
0000
0000
1000
0000
,  // measure 94
0000
0010
0000
0000
0100
0000
0000
0001
0000
0000
0100
0000
0000
0001
0000
0000
,  // measure 95
1000
0000
0000
0000
0010
0000
0100
0000
0000
0001
0000
0000
1000
0000
0000
0000
,  // measure 96
0000
0001
0000
0010
0000
0100
0000
0000
0000
0000
0000
0000
,  // measure 97
1000
1000
0000
0000
0010
0010
0000
0000
,  // measure 98
0100
0100
0000
0000
0001
0002
0000
0000
,  // measure 99
0013
0000
0000
0010
0000
0000
0000
0010
,  // measure 100
0000
0100
0000
0000
0100
0000
0000
1000
,  // measure 101
0002
0000
0000
0000
,  // measure 102
0000
0000
0000
0000
,  // measure 103
0103
0000
0000
0000
;

//---------------dance-single - ----------------
#NOTES:
     dance-single:
     :
     Hard:
     10:
     0.634,0.772,0.255,0.275,0.413: // measure 1
0000
0000
0000
0000
,  // measure 2
0000
0000
0000
0000
,  // measure 3
0000
0000
0000
0000
,  // measure 4
0000
0000
0000
0000
,  // measure 5
0000
0000
0000
0000
,  // measure 6
0000
0000
0000
0000
,  // measure 7
0000
0000
0000
0000
,  // measure 8
0000
0000
0000
0000
,  // measure 9
0000
0000
0000
0000
,  // measure 10
1000
0000
0000
0000
0000
0001
0000
0000
,  // measure 11
0000
0000
0000
0001
0000
0000
0100
0000
,  // measure 12
1001
0000
0000
0000
0000
1000
0000
0000
,  // measure 13
0000
0000
0000
0100
0010
0000
0100
0000
,  // measure 14
1000
0000
0100
0000
0002
0103
0010
0000
,  // measure 15
0001
0000
0200
0310
0001
0000
0010
0000
,  // measure 16
1000
0000
0100
0000
0002
0003
0100
0000
,  // measure 17
1000
0000
0010
0000
0002
0003
0100
0000
,  // measure 18
1000
0002
0003
0010
0000
1000
0010
0001
,  // measure 19
0000
1000
0010
0002
0003
0010
1000
0100
,  // measure 20
0001
0000
0100
0000
0000
0000
1000
0100
1000
0000
0010
0000
0100
0001
0200
0300
,  // measure 21
0000
0000
0010
0000
1000
0000
0000
0001
0000
0000
1000
0000
0001
0000
0100
0001
,  // measure 22
0200
0000
0000
0000
0300
0000
0001
1000
0200
0000
0000
0000
0302
0000
0000
0000
,  // measure 23
0003
0000
0100
0010
0100
0000
0000
0000
1000
0000
0000
0001
0000
0000
1000
0100
,  // measure 24
1000
0000
0100
1000
0100
0000
1000
0010
1000
0000
0100
0000
0010
0000
0000
1000
,  // measure 25
0000
0000
0010
0000
0001
0000
1000
0010
0000
1000
0001
0000
0100
0000
0010
0000
,  // measure 26
1000
0000
0010
1000
0010
0000
0000
0000
0100
0010
0100
0000
0000
0001
1000
0000
,  // measure 27
0000
0000
0000
0000
0001
0010
0001
0000
0000
0000
1000
0100
1000
0000
0000
0000
,  // measure 28
0000
0000
0010
0100
0010
0000
0000
0000
1000
0010
1000
0000
0000
0001
0010
0000
,  // measure 29
0000
0000
0000
0000
0100
1000
0100
0000
0000
0000
0010
0001
1000
0000
0001
0000
,  // measure 30
0000
0000
0010
0100
1000
0000
0000
0000
0100
0010
0000
0000
0100
0010
0000
0000
,  // measure 31
0001
0010
0100
0000
0000
0000
1000
0000
0010
0000
0100
0000
0010
1000
0002
0003
,  // measure 32
0000
0000
0010
0001
0010
0000
0000
0000
0100
0010
0100
0000
0000
1000
0001
0000
,  // measure 33
0000
0000
0000
0000
0100
0010
0100
0000
0000
0000
1000
0100
0010
0000
1000
0000
,  // measure 34
1001
0000
0000
0000
0001
0010
0000
0000
,  // measure 35
0100
0000
0000
0010
0000
0000
0010
0000
,  // measure 36
0010
0000
0000
0000
0001
1000
0000
0000
,  // measure 37
0100
0000
0000
1000
0000
0000
1000
0000
,  // measure 38
1001
0000
0001
0000
0200
1300
0001
0000
,  // measure 39
0010
0000
1000
0001
0020
0030
0100
0000
,  // measure 40
1000
0000
0010
0000
0002
0013
0100
0000
,  // measure 41
0001
0000
0010
1000
0200
0300
0010
0000
,  // measure 42
1000
0000
0000
0000
0000
0000
0000
0000
0002
0000
0000
0000
0003
0000
0010
0100
,  // measure 43
2000
0000
3000
0200
,  // measure 44
0000
0300
0002
0000
,  // measure 45
0003
0000
0000
0000
0020
0000
0000
0000
0030
0000
2000
0000
3000
0000
0001
0010
,  // measure 46
0100
0010
0001
0100
1000
0100
0010
1000
,  // measure 47
0001
0010
1000
0001
0100
1000
0001
0100
,  // measure 48
2000
0000
0000
0000
0000
0000
3100
0010
0200
0000
0000
0000
0000
0000
0300
0000
,  // measure 49
0020
0000
0000
0030
1000
0000
0001
0000
,  // measure 50
1001
0000
0000
0000
1000
0000
0010
0000
0000
0000
0100
0000
0000
0100
0000
0000
,  // measure 51
0001
0000
0010
0000
0001
0000
0100
0000
0000
0000
0000
0010
0000
0000
0010
0000
,  // measure 52
1000
0000
0001
0000
0100
0000
0001
0000
0000
0000
0010
0000
0000
0010
0000
0000
,  // measure 53
0100
0000
1000
0000
0010
0000
0100
0000
0000
0000
0000
0001
0000
0000
0001
0000
,  // measure 54
0100
0000
0010
0000
1000
0000
0010
0000
0000
0000
1000
0100
0010
0000
0000
0000
,  // measure 55
0001
0000
0000
0010
0000
0000
0001
0000
0000
0000
0000
0000
0000
0000
0000
0000
0000
0000
0100
0000
0000
0010
0000
0000
0000
0000
0000
0000
0000
0000
1000
0000
0000
0100
0000
0000
1000
0000
0000
0000
0010
0000
0000
0000
0100
0000
0000
0000
,  // measure 56
0001
0010
0001
0000
1000
0000
0010
0000
0000
0000
0100
0001
0100
0000
0010
0000
,  // measure 57
0110
0000
2010
0000
,  // measure 58
3001
0010
1000
0010
0100
1000
0001
0100
,  // measure 59
1000
0100
0010
1000
0001
0010
0100
1000
,  // measure 60
0100
0000
0000
0010
0001
0000
0000
0000
0100
0000
0000
0010
1000
0000
0000
0000
,  // measure 61
1001
0000
0001
0010
0001
0000
0100
0000
0010
0000
1000
0000
0001
0000
0010
0000
,  // measure 62
0001
0000
0001
0000
1000
0010
1000
0000
0010
1000
0010
0000
0100
0000
0001
0000
,  // measure 63
0010
0000
0010
0000
0100
0010
0100
0000
1000
0010
1000
0000
0001
0010
0100
0000
,  // measure 64
1000
0010
1000
0000
0100
0000
0001
0000
0100
0000
0010
0000
0001
1000
0001
0000
,  // measure 65
0100
0001
0100
0000
0010
1000
0001
0000
0000
0000
0010
0100
0010
0100
1000
0001
,  // measure 66
0200
0000
0000
0000
,  // measure 67
0301
1000
0001
1000
0100
0000
0010
0001
0010
0000
0000
0000
0001
0000
0100
0000
,  // measure 68
0000
0000
0010
0000
1000
0001
1000
0000
0010
0000
0100
0000
0001
0000
1000
0000
,  // measure 69
0001
0100
0001
0000
0010
0000
0100
0000
0000
1001
0000
0000
1001
0000
0000
0000
,  // measure 70
0000
0000
2000
0000
3020
0000
1030
0000
0001
0100
0001
0000
0100
0000
0010
1000
,  // measure 71
0100
0000
0000
0000
1000
0000
0000
0000
0100
0000
0000
0000
1000
0000
0000
0000
0000
0000
0000
0000
0000
0000
0000
0000
0100
0000
0000
0001
0000
0000
0000
0000
0000
0100
0000
0000
1000
0000
0000
0000
0000
0000
0020
0000
0000
0000
0000
0000
,  // measure 72
0130
0000
0000
0000
0001
0010
0100
0000
0000
1000
0000
0100
1000
0000
0000
0000
,  // measure 73
0002
0000
0000
0000
0000
0000
0103
0000
0100
0000
0010
0000
1000
0000
0000
0100
0000
0000
0010
0000
0000
0001
0000
0000
,  // measure 74
1001
1001
0000
0000
2000
0000
0000
0000
,  // measure 75
3100
0010
0100
0010
0001
0000
0000
0000
0100
0020
0000
0000
1030
0000
0200
0000
,  // measure 76
0300
0200
0000
0300
0010
0000
0001
0000
0100
0000
0010
0000
1001
0000
0000
0000
,  // measure 77
1000
0000
0002
0000
0013
0000
0000
0000
0100
1000
0000
0000
1100
0000
0000
0000
,  // measure 78
0100
0000
0010
0000
0001
0000
0100
0000
0010
1000
0010
0000
0100
0000
0001
0000
,  // measure 79
1000
0000
0000
0000
0100
0000
0000
0000
0100
0000
0000
0000
0010
0000
0000
0000
0000
0000
0000
0000
0000
0000
0000
0000
1000
0000
0000
0010
0000
0000
0000
0000
0000
0001
0000
0000
0100
0000
0000
0000
0000
0000
0010
0000
0000
0000
0000
0000
,  // measure 80
1000
0000
0000
0000
0010
0100
0001
0000
0000
0010
0000
0000
0100
0000
0000
0000
,  // measure 81
0000
0000
1000
0000
0100
0000
1000
0000
0100
0000
1000
0000
0001
0000
0000
0100
0000
0000
0010
0000
0000
0100
0000
0000
,  // measure 82
1001
1001
0000
0000
0120
0000
0000
0000
,  // measure 83
0030
1000
0100
0001
0100
0010
0000
0001
,  // measure 84
0000
0100
1000
0100
0000
0000
0000
0000
,  // measure 85
0000
0000
0000
0010
1000
0000
0002
0000
,  // measure 86
0000
0000
0000
0000
0000
0000
0000
0000
0000
0000
1003
0100
0010
0000
0100
0000
,  // measure 87
1001
1000
0010
0100
0001
1000
0100
0010
,  // measure 88
0001
0010
0001
0000
0000
0000
1000
0010
1000
0000
0000
0100
0000
0000
0010
0000
,  // measure 89
0000
0000
1000
0000
0010
0000
0001
0000
0100
0000
0010
0000
1000
0000
0100
0010
,  // measure 90
0100
1000
0010
0100
0001
0010
0100
1000
,  // measure 91
1001
0000
1000
0100
0010
0001
0100
0010
,  // measure 92
0100
0010
0100
0000
0010
0100
0010
0000
0100
0001
1000
0001
1000
0001
1000
0010
,  // measure 93
0000
0000
0000
0000
0011
0000
0000
0000
0110
0000
0000
1010
0000
0000
1100
0000
,  // measure 94
0000
0000
0101
0000
0000
0000
0000
0000
1100
0000
0000
0000
0000
0000
1000
0000
0000
0010
0000
0000
0001
0000
0000
0010
0000
0000
0100
0000
0000
0000
0000
0000
,  // measure 95
0001
0000
0000
0000
0010
0100
0010
0000
0000
0100
0000
0100
1000
0000
0000
0000
,  // measure 96
0000
0000
0010
0000
0100
0000
0010
0000
0100
0000
0010
0000
2000
0000
0000
3001
0000
0000
0010
0000
0000
0100
0000
0000
,  // measure 97
1100
1100
0000
0000
0110
0110
0000
0000
,  // measure 98
0011
0011
0000
0000
1001
1002
0000
0000
,  // measure 99
0013
0000
0000
0110
0000
0000
0000
1100
,  // measure 100
0000
1001
0000
0000
0101
0000
0000
0010
,  // measure 101
2001
0000
0000
0000
,  // measure 102
0000
0000
0000
0000
,  // measure 103
3100
0000
0000
0000
;

//---------------dance-single - ----------------
#NOTES:
     dance-single:
     :
     Easy:
     6:
     0.298,0.351,0.028,0.206,0.055: // measure 1
0000
0000
0000
0000
,  // measure 2
0000
0000
0000
0000
,  // measure 3
0000
0000
0000
0000
,  // measure 4
0000
0000
0000
0000
,  // measure 5
0000
0000
0000
0000
,  // measure 6
0000
0000
0000
0000
,  // measure 7
0000
0000
0000
0000
,  // measure 8
0000
0000
0000
0000
,  // measure 9
0000
0000
0000
0000
,  // measure 10
1000
0000
0000
0000
0000
0010
0000
0000
,  // measure 11
0000
0000
0000
0010
0000
0000
0010
0000
,  // measure 12
0100
0000
0000
0000
0000
0001
0000
0000
,  // measure 13
0000
0000
0001
1000
,  // measure 14
0100
0000
0010
0000
0002
0003
0100
0000
,  // measure 15
0010
0000
1000
0001
,  // measure 16
0010
0100
1000
0000
,  // measure 17
0010
0100
0001
0000
,  // measure 18
1000
0000
0000
0200
0000
0300
1000
0100
,  // measure 19
0000
0000
0000
0010
0000
0000
0001
0000
,  // measure 20
1000
0000
0000
0000
0000
0000
0000
0000
0010
0000
0000
0000
0200
0000
0000
0300
,  // measure 21
0000
0001
0000
0010
,  // measure 22
0200
0300
2000
3002
,  // measure 23
0003
0100
0010
0000
,  // measure 24
0001
0000
0000
0000
0010
0000
0000
0000
1000
0000
0000
0000
0000
0000
0000
0100
,  // measure 25
0000
0000
0000
0000
0000
0000
0000
0010
0000
0000
0000
0000
0000
0000
0000
0000
,  // measure 26
1001
0000
0001
0000
0000
1000
0000
0100
,  // measure 27
0000
0000
0000
0010
0000
0000
0100
0000
,  // measure 28
0000
0000
1000
0000
0000
0001
0000
0100
,  // measure 29
0000
0000
0000
0010
0000
0000
1000
0010
,  // measure 30
0000
0000
0000
0000
0100
0000
0000
0000
0000
0100
0000
0000
0000
0100
0000
0000
,  // measure 31
0010
0000
0000
0000
1000
0000
0100
1000
,  // measure 32
0000
0000
0010
0000
0000
1000
0000
0100
,  // measure 33
0000
0000
0000
0010
0000
0000
0001
0000
,  // measure 34
1001
0000
0000
0000
0000
1000
0000
0000
,  // measure 35
0000
0000
0000
0010
0000
0000
0010
0000
,  // measure 36
0100
0000
0000
0000
0000
0001
0000
0000
,  // measure 37
0000
0000
0000
0010
0000
0000
0010
0000
,  // measure 38
0100
1000
0010
0100
,  // measure 39
0001
0010
0100
0000
,  // measure 40
1000
0000
0010
0000
0002
0003
0000
0000
,  // measure 41
1000
0000
0100
0000
0002
0003
0000
0000
,  // measure 42
1000
0000
0002
0003
,  // measure 43
0020
0000
0030
0200
,  // measure 44
0000
0300
0020
0000
,  // measure 45
0030
0000
0001
0000
0000
1000
0000
0000
,  // measure 46
0001
0010
0001
0100
,  // measure 47
0010
1000
0001
0100
,  // measure 48
0020
0030
2000
3000
,  // measure 49
0200
0300
0010
0000
,  // measure 50
0001
0000
0000
1000
0000
1000
0000
0000
,  // measure 51
0010
0000
0000
0000
0000
0000
0100
0000
0000
0000
0000
0100
0000
0000
0000
0000
,  // measure 52
0001
0000
0000
1000
0000
1000
0000
0000
,  // measure 53
0100
0000
0000
0000
0000
0000
0010
0000
0000
0000
0000
0010
0000
0000
0000
0000
,  // measure 54
0001
0000
0000
1000
0000
0000
0010
0000
,  // measure 55
0100
0000
0000
0001
0000
0000
0010
0000
,  // measure 56
0001
0000
0000
0100
0000
0000
0001
0000
,  // measure 57
2000
3000
0200
0300
,  // measure 58
0001
0100
1000
0001
,  // measure 59
1000
0010
0100
0001
,  // measure 60
0010
0000
0100
0000
,  // measure 61
1001
0000
0000
0000
,  // measure 62
1000
0010
0010
0100
,  // measure 63
0001
0010
0010
0100
,  // measure 64
1000
0001
0100
0010
,  // measure 65
1000
0000
0001
0000
0000
0000
0010
0100
,  // measure 66
0020
0000
0000
0000
,  // measure 67
0130
0000
1000
0000
0001
0000
0000
0100
,  // measure 68
0000
0010
1000
0010
,  // measure 69
0100
0000
0000
0000
0000
0000
0000
0000
0000
0001
0000
0000
1000
0000
0000
0000
,  // measure 70
0000
0001
0020
0030
0100
0000
1000
0000
,  // measure 71
0001
0000
0000
0000
0000
0000
0000
0000
0000
1000
0000
0000
0100
0000
2000
0000
,  // measure 72
3000
0000
0001
0010
0000
0000
0100
0000
,  // measure 73
2000
3010
0000
0000
,  // measure 74
1000
0001
0000
0000
0020
0000
0000
0000
,  // measure 75
0130
0000
1000
0000
0002
0000
0003
0100
,  // measure 76
0000
0010
0000
1001
,  // measure 77
1000
0000
0000
0000
0001
0000
0000
0000
0000
0010
0000
0000
0001
0000
0000
0000
,  // measure 78
0000
1000
0020
0030
0100
0000
1000
0000
,  // measure 79
0200
0000
0000
0000
0310
0000
0000
0000
0000
1000
0000
0000
0001
0000
0000
0000
,  // measure 80
0010
0000
0200
1300
0000
0000
0001
0000
,  // measure 81
0000
1000
0000
0001
0000
1000
0000
0000
0000
0000
0000
0000
,  // measure 82
0001
0010
0000
0000
0200
0000
0000
0000
,  // measure 83
0300
0000
1000
0000
0001
0000
0000
0100
,  // measure 84
0000
0000
0010
1000
0000
0000
0000
0000
,  // measure 85
0000
0000
0000
0100
0010
0000
0002
0000
,  // measure 86
0000
0000
0000
0003
,  // measure 87
1000
0100
0001
0100
,  // measure 88
0010
0000
0000
0001
0000
0000
0100
0000
,  // measure 89
0010
1000
0001
1000
,  // measure 90
0100
0010
0001
0100
,  // measure 91
0010
0000
1000
0000
,  // measure 92
0001
0000
1000
0000
0001
0000
1000
0001
,  // measure 93
0000
0000
0010
0000
0100
0000
0000
1000
,  // measure 94
0000
0000
0000
0000
0100
0000
0000
1000
0000
0000
0000
0000
0000
0000
0000
0000
,  // measure 95
0001
0000
0000
0000
1000
0000
0000
0000
0000
0010
0000
0000
1000
0000
0000
0000
,  // measure 96
0000
0010
0000
0100
0000
0010
0000
0000
0000
0000
0000
0000
,  // measure 97
1000
0010
0000
0000
1000
0010
0000
0000
,  // measure 98
0100
0001
0000
0000
0100
0002
0000
0000
,  // measure 99
1003
0000
0000
1000
0000
0000
0000
0001
,  // measure 100
0000
0010
0000
0000
0100
0000
0000
1000
,  // measure 101
0002
0000
0000
0000
,  // measure 102
0000
0000
0000
0000
,  // measure 103
1003
0000
0000
0000
;

//---------------dance-single - ----------------
#NOTES:
     dance-single:
     :
     Beginner:
     4:
     0.169,0.210,0.048,0.062,0.038: // measure 1
0000
0000
0000
0000
,  // measure 2
0000
0000
0000
0000
,  // measure 3
0000
0000
0000
0000
,  // measure 4
0000
0000
0000
0000
,  // measure 5
0000
0000
0000
0000
,  // measure 6
0000
0000
0000
0000
,  // measure 7
0000
0000
0000
0000
,  // measure 8
0000
0000
0000
0000
,  // measure 9
0000
0000
0000
0000
,  // measure 10
1000
0000
0000
0000
,  // measure 11
0000
0000
0000
0000
,  // measure 12
0001
0000
0000
0000
,  // measure 13
0000
0000
1000
0000
,  // measure 14
0100
0000
0010
0000
,  // measure 15
0100
0000
0000
0000
,  // measure 16
1000
0000
0001
0000
,  // measure 17
1000
0000
0000
0000
,  // measure 18
0001
0000
0000
0001
0000
0000
0000
0000
,  // measure 19
0000
0000
0000
0000
,  // measure 20
1000
0000
1000
0000
,  // measure 21
0000
0010
0000
0000
,  // measure 22
0100
0000
0100
0010
,  // measure 23
0000
1000
1000
0000
,  // measure 24
0001
0000
0000
0000
0000
0000
0000
0000
1000
0000
0000
0000
0000
0000
0000
0100
,  // measure 25
0000
0000
0000
0000
,  // measure 26
1001
0000
0000
0000
0000
0000
0000
1000
,  // measure 27
0000
0000
0000
0001
0000
0000
0000
0000
,  // measure 28
0100
0000
0000
0000
0000
0000
0000
0000
0010
0000
0000
0000
0000
0000
0000
1000
,  // measure 29
0000
0000
0000
0010
0000
0000
0000
0000
,  // measure 30
1000
0000
1000
0001
,  // measure 31
0000
0001
0010
0000
,  // measure 32
0100
0000
0000
0000
0000
0000
0000
0000
1000
0000
0000
0000
0000
0000
0000
0100
,  // measure 33
0000
0000
0000
0000
0000
0000
0000
0010
0000
0000
0000
0000
0000
0000
0000
0000
,  // measure 34
0110
0000
0000
0000
,  // measure 35
0000
0000
0000
0000
,  // measure 36
1000
0000
0000
0000
,  // measure 37
0000
0000
0000
0000
,  // measure 38
0001
0000
0100
0000
,  // measure 39
0001
0000
0000
0000
,  // measure 40
1000
0000
0100
0000
,  // measure 41
1000
0000
0000
0000
,  // measure 42
0001
0000
0010
0000
,  // measure 43
0200
0300
0000
2000
,  // measure 44
3000
0000
0020
0030
,  // measure 45
0000
0000
0100
0000
0000
0001
0000
0000
,  // measure 46
1000
0000
0100
0000
,  // measure 47
0010
0000
0001
0000
,  // measure 48
0010
0000
1000
0000
,  // measure 49
0100
0000
0001
0000
,  // measure 50
1000
0000
0000
0000
,  // measure 51
0010
0000
0000
0000
,  // measure 52
0100
0000
0000
0000
,  // measure 53
0001
0000
0000
0000
,  // measure 54
1000
0000
0000
0010
,  // measure 55
0010
0000
0000
0100
,  // measure 56
0100
0000
0000
0001
,  // measure 57
0001
0000
1001
0000
,  // measure 58
1000
0000
0010
0000
,  // measure 59
0001
0000
0010
0000
,  // measure 60
1000
0000
0001
0000
,  // measure 61
1000
0000
0000
0000
,  // measure 62
0001
0010
0010
0000
,  // measure 63
0100
1000
1000
0000
,  // measure 64
0001
0000
0100
0000
,  // measure 65
0010
1000
0000
0001
,  // measure 66
2000
0000
0000
3000
,  // measure 67
0001
0000
0100
0000
,  // measure 68
0000
0001
1000
0000
,  // measure 69
0100
0000
0010
0000
,  // measure 70
0000
0000
0001
0000
,  // measure 71
1000
0000
0010
0000
,  // measure 72
0100
0010
0000
0000
,  // measure 73
2000
3001
0000
0000
,  // measure 74
0110
0000
0000
0000
,  // measure 75
1000
0000
0002
0003
,  // measure 76
0000
0100
0000
0010
,  // measure 77
0100
0000
0000
0000
0000
0000
0000
0000
0000
0001
0000
0000
0000
0000
0000
0000
,  // measure 78
0000
1000
0001
0000
,  // measure 79
0200
0000
0000
0000
0301
0000
0000
0000
0000
0001
0000
0000
0000
0000
0000
0000
,  // measure 80
0000
1001
0000
0000
,  // measure 81
0000
1000
0000
0000
0000
0001
0000
0000
0000
0000
0000
0000
,  // measure 82
0110
0000
0000
0000
,  // measure 83
0000
0000
1000
0000
0000
0000
0000
0001
,  // measure 84
0000
0000
0000
0100
0000
0000
0000
0000
,  // measure 85
0000
0000
0010
2000
,  // measure 86
0000
0000
0000
3000
,  // measure 87
0001
0000
0010
0000
,  // measure 88
0100
0000
0000
1000
0000
0000
0000
0000
,  // measure 89
0000
0001
0001
0000
,  // measure 90
0100
0000
0000
0000
,  // measure 91
0110
0000
1000
0000
,  // measure 92
0001
0000
1000
0001
,  // measure 93
0000
0000
0001
0000
0010
0000
0000
0100
,  // measure 94
0000
0000
0000
0000
0000
0000
0000
0010
0000
0000
0000
0000
0000
0000
0000
0000
,  // measure 95
0001
0000
0000
0000
,  // measure 96
0000
1000
0000
0000
0000
0001
0000
0000
0000
0000
0000
0000
,  // measure 97
1000
0000
0010
0000
,  // measure 98
0100
0000
0001
0000
,  // measure 99
1000
0000
0000
1000
0000
0000
0000
0001
,  // measure 100
0000
1000
0000
0000
0100
0000
0000
0000
,  // measure 101
0020
0000
0000
0000
,  // measure 102
0000
0000
0000
0000
,  // measure 103
0031
0000
0000
0000
;
