#TITLE:蛇神;
#SUBTITLE:;
#ARTIST:Zektbach;
#TITLETRANSLIT:Kagachi;
#SUBTITLETRANSLIT:;
#ARTISTTRANSLIT:;
#CREDIT:;
#BANNER:[Moon Runes] - Kagachi.png;
#BACKGROUND:[Moon Runes] - Kagachi-bg.png;
#LYRICSPATH:;
#CDTITLE:;
#MUSIC:[Moon Runes] - Kagachi.mp3;
#OFFSET:0.000;
#SAMPLESTART:97.110;
#SAMPLELENGTH:12.000;
#SELECTABLE:YES;
#BPMS:0.000=170.000,60.000=85.000,76.000=170.000,172.000=85.000,188.000=170.000,252.000=85.000,260.000=42.500;
#STOPS:48.000=0.350
,48.500=0.350
,49.000=0.160
,49.500=0.350
,50.000=0.350
,50.500=0.160
,51.000=0.350
,51.500=0.350
,52.000=0.160
,52.500=0.350
,53.000=0.350
,53.500=0.160
,54.000=0.350
,54.500=0.350
,55.000=0.160
,55.500=0.350
,56.000=0.350
,56.500=0.160
,57.000=0.350
,57.500=0.350
,58.000=0.160
,58.500=0.350
,59.000=0.350
,59.500=1.760
;
#BGCHANGES:0.000=[Moon Runes] - Kagachi.avi=1.000=1=0=1,
264.063=[Moon Runes] - Kagachi-bg.png=1.000=1=0=1,
99999=-nosongbg-=1.000=0=0=0 // don't automatically add -songbackground-
;

//---------------dance-single - ----------------
#NOTES:
     dance-single:
     :
     Hard:
     9:
     0.559,0.909,0.745,0.259,0.024: // measure 1
0000
0000
0000
0000
,  // measure 2
0000
0000
0000
0000
,  // measure 3
0000
0000
0000
0000
,  // measure 4
0000
0000
0000
0000
,  // measure 5
1000
0010
0001
0000
0001
0010
1000
0000
,  // measure 6
1000
0100
0010
0000
0010
0100
0001
0000
,  // measure 7
0010
0001
0100
0000
0010
0001
1000
0000
,  // measure 8
0100
0010
1000
0000
0100
1000
0010
0000
,  // measure 9
0100
0010
0001
0000
0010
1000
0100
0000
,  // measure 10
0010
0100
1000
0000
0100
1000
0001
0000
,  // measure 11
0001
0010
1000
0000
0100
0010
1000
0000
,  // measure 12
0100
0010
0001
0000
0010
0001
0100
0000
,  // measure 13
0110
1001
0110
0101
1100
0011
1010
0101
,  // measure 14
0110
1100
0011
0101
1001
0110
0101
0011
,  // measure 15
1100
1001
1010
1001
0101
0110
1010
0101
,  // measure 16
1001
0000
1000
0100
0010
0000
0000
0000
,  // measure 17
0000
1000
0100
0010
,  // measure 18
1001
0000
0010
0001
1000
0000
0000
0000
,  // measure 19
0001
0010
0100
1000
,  // measure 20
0110
0000
0000
1001
0000
0000
1010
0000
,  // measure 21
1001
0000
0000
0110
0000
0000
0011
0000
,  // measure 22
0101
0000
0000
1100
0000
0000
0110
0000
,  // measure 23
0101
0000
0000
0011
0000
0000
0101
0000
,  // measure 24
1010
0000
0000
0101
0000
0000
1001
0000
,  // measure 25
0110
0000
0000
1001
0000
0000
0110
0000
,  // measure 26
0101
0000
0000
0110
0000
0000
0011
0000
,  // measure 27
1010
0000
0000
1010
0000
0000
1001
0000
,  // measure 28
0010
0100
0010
0001
0010
0100
1000
0100
,  // measure 29
0010
0100
1000
0100
0010
0100
0010
0001
,  // measure 30
0100
1000
0100
0001
0100
0010
1000
0001
,  // measure 31
0100
0001
0010
0001
0100
0010
1000
0001
,  // measure 32
0010
0100
1000
0001
0100
0010
0100
0001
,  // measure 33
0010
1000
0010
0100
0001
0010
1000
0010
,  // measure 34
0001
0100
0010
0100
0001
0010
0001
1000
,  // measure 35
0100
1000
0001
0010
0001
1000
0010
0001
,  // measure 36
0101
0000
0001
0010
0001
0000
0101
0000
,  // measure 37
1010
0000
0001
1000
0001
0000
0110
0000
,  // measure 38
0011
0000
0010
0001
0100
0000
1010
0000
,  // measure 39
0110
0000
0001
1000
0010
0000
0011
0000
,  // measure 40
1010
0000
0100
0001
1000
0000
0101
0000
,  // measure 41
0011
0000
1000
0010
0001
0000
0110
0000
,  // measure 42
1001
0000
0001
0100
1000
0000
0110
0000
,  // measure 43
1010
0000
0100
0010
0001
0000
0101
0000
,  // measure 44
2001
0001
3002
0100
0203
0010
0302
0000
,  // measure 45
2003
0100
3020
0001
2030
0010
3002
0000
,  // measure 46
0023
0001
0230
0001
2300
0001
3200
0000
,  // measure 47
0302
0010
0203
0010
0320
1000
0032
0000
,  // measure 48
1003
0100
1000
0010
1000
0001
0010
0100
,  // measure 49
1000
0001
0010
0001
0100
0001
1000
0100
,  // measure 50
0010
0001
1000
0010
0100
0001
0010
1000
,  // measure 51
0001
0010
0100
1000
0001
0100
0010
0100
,  // measure 52
1000
0100
0010
1000
0001
0010
0100
1000
,  // measure 53
0001
0010
0100
1000
0001
0010
0100
1000
,  // measure 54
0001
0100
0010
1000
0001
0100
0010
1000
,  // measure 55
0001
0100
0010
1000
0001
0100
0010
0001
,  // measure 56
1001
0000
0000
0101
0000
0000
1100
0000
,  // measure 57
1001
0000
0000
0110
0000
0000
0011
0000
,  // measure 58
0110
0000
0000
0011
0000
0000
0101
0000
,  // measure 59
1010
0000
0000
1100
0000
0000
1100
0000
,  // measure 60
0101
0000
0000
1001
0000
0000
0110
0000
,  // measure 61
0011
0000
0000
1010
0000
0000
0101
0000
,  // measure 62
1100
0000
0000
1100
0000
0000
0101
0000
,  // measure 63
0101
0000
0000
0011
0000
0000
1010
0000
,  // measure 64
2001
0001
3200
0001
0320
0100
2030
0000
,  // measure 65
3200
0010
0302
0010
0203
0010
2300
0000
,  // measure 66
3200
0010
0320
0001
0032
0100
0203
0000
2300
0100
3200
0010
0320
0001
0032
0000
,  // measure 67
0003
0000
0000
0000
;

//---------------dance-single - ----------------
#NOTES:
     dance-single:
     :
     Medium:
     8:
     0.422,0.907,0.429,0.000,0.024:
0000
0000
0000
0000
,
0000
0000
0000
0000
,
0000
0000
0000
0000
,
0000
0000
0000
0000
,
1000
0010
1000
0010
,
0001
0100
0001
0100
,
0010
1000
0010
1000
,
0010
0001
0100
0001
,
0100
0001
0010
1000
,
0001
0100
0010
1000
,
0001
0010
1000
0010
,
0001
0100
0010
1000
,
1001
1001
0110
0110
0011
0011
1100
1100
,
0101
0101
1010
1010
1100
1100
0110
0110
,
1001
1001
1010
1010
0101
0101
1010
1010
,
1001
0000
1000
0010
1000
0000
0000
0000
,
0010
1000
0010
0001
,
1000
0000
0010
1000
0010
0000
0000
0000
,
0100
0010
1000
0001
,
0100
0000
0000
0100
0000
0000
1000
0000
,
0001
0000
0000
0001
0000
0000
0010
0000
,
1000
0000
0000
0100
0000
0000
0010
0000
,
1000
0000
0000
0100
0000
0000
0010
0000
,
0001
0000
0000
0001
0000
0000
1000
0000
,
0010
0000
0000
1000
0000
0000
0010
0000
,
0001
0000
0000
0100
0000
0000
1000
0000
,
0010
0000
0000
1000
0000
0000
0001
0000
,
1000
0100
0010
0000
0010
0100
1000
0000
,
1000
0010
0001
0000
0001
0010
1000
0000
,
0100
0010
0001
0000
0010
0100
1000
0000
,
0100
0010
0100
0000
0001
0100
0001
0000
,
1000
0100
1000
0000
0001
0010
0001
0000
,
1000
0010
1000
0000
0001
0100
0001
0000
,
0010
0100
1000
0000
1000
0100
0001
0000
,
0010
0100
1000
0000
0100
0010
0100
0000
,
1000
0000
0100
0010
0100
0000
0001
0000
,
1000
0000
0001
0100
0010
0000
1000
0000
,
0001
0000
0100
0001
0100
0000
1000
0000
,
0001
0000
0010
0100
1000
0000
0001
0000
,
0100
0000
0010
1000
0010
0000
0100
0000
,
0001
0000
0010
0100
1000
0000
0001
0000
,
0010
0000
0100
0001
0010
0000
1000
0000
,
0100
0000
0010
1000
0010
0000
0100
0000
,
0001
0010
0001
0100
0001
1000
0001
0000
,
0100
0010
0100
0001
0100
1000
0100
0000
,
0010
0001
0010
0100
0010
1000
0010
0000
,
1000
0100
1000
0010
1000
0001
1000
0000
,
0010
0100
0010
0000
1000
0010
1000
0000
,
0001
0100
0001
0000
0010
1000
0010
0000
,
0100
0010
0100
0000
0010
1000
0010
0000
,
0100
0001
0100
0000
0010
1000
0010
0000
,
0100
0001
0100
0000
0010
0100
0010
0000
,
0100
1000
0100
0000
0001
0010
0001
0000
,
0010
0001
0100
0000
0010
1000
0100
0000
,
0010
0001
0010
0000
0010
0100
1000
0000
,
1001
0000
0000
1100
0000
0000
0110
0000
,
0101
0000
0000
0101
0000
0000
1010
0000
,
0110
0000
0000
0011
0000
0000
1001
0000
,
1100
0000
0000
1100
0000
0000
0110
0000
,
0011
0000
0000
0011
0000
0000
1100
0000
,
1010
0000
0000
1010
0000
0000
0011
0000
,
0101
0000
0000
0101
0000
0000
0110
0000
,
1010
0000
0000
0110
0000
0000
0101
0000
,
0110
0010
0100
1000
0001
0010
0100
0000
,
1001
1000
0100
0010
0001
1000
0100
0000
,
0110
0010
0100
1000
0001
0010
0100
0000
0011
0010
0001
1000
0100
0010
0001
0000
;

//---------------dance-single - ----------------
#NOTES:
     dance-single:
     :
     Easy:
     6:
     0.317,0.642,0.016,0.324,0.000:
0000
0000
0000
0000
,
0000
0000
0000
0000
,
0000
0000
0000
0000
,
0000
0000
0000
0000
,
1000
0010
0001
0010
,
1000
0010
0001
0010
,
0100
1000
0100
0001
,
0100
1000
0001
0010
,
0100
0001
0010
1000
,
0010
0001
0100
0010
,
1000
0001
0010
0100
,
0001
1000
0010
0100
,
1000
0100
0010
0001
0010
1000
0100
1000
,
0100
0010
0001
0010
0001
0100
0010
0100
,
0001
0010
1000
0010
0100
1000
0001
1001
,
1001
0000
0100
0010
0100
0000
0000
0000
,
0010
0010
0100
0100
,
0001
0000
0010
1000
0010
0000
0000
0000
,
1000
0010
0001
0100
,
1000
0000
0000
1000
,
0001
0000
0000
0010
,
0100
0000
0000
0001
,
1000
0000
0000
0010
,
0001
0000
0000
0100
,
0001
0000
0000
0010
,
1000
0000
0000
0001
,
0001
0000
0000
1000
,
0010
1000
0010
1000
,
0010
0001
0010
0001
,
0100
0010
0100
0010
,
1000
0010
1000
0010
,
1000
0010
0001
0010
,
1000
0010
0001
0010
,
1000
0100
0001
0100
,
1000
0100
0010
0001
,
0100
0020
0030
0100
,
1000
2000
3000
0100
,
0010
0002
0003
0100
,
1000
0020
0030
0001
,
0100
2000
3000
0001
,
0100
0020
0030
0001
,
0010
0200
0300
1000
,
0100
0002
0003
0100
,
0020
0230
0302
2003
,
3200
0320
0230
0302
,
2003
3020
0230
0302
,
0023
2030
3020
0032
,
0013
0001
0010
0100
,
0010
1000
0010
0001
,
0010
0100
1000
0100
,
1000
0010
0001
0010
,
0001
0100
0010
0100
,
1000
0001
0010
0100
,
0001
1000
0010
0100
,
0001
0010
0100
1000
,
0001
0000
0000
0100
0000
0000
0010
0000
,
0001
0000
0000
1000
0000
0000
0010
0000
,
0100
0000
0000
0001
0000
0000
0100
0000
,
0001
0000
0000
0010
0000
0000
0001
0000
,
1000
0000
0000
0100
0000
0000
0010
0000
,
0001
0000
0000
0010
0000
0000
0001
0000
,
0100
0000
0000
0010
0000
0000
1000
0000
,
0010
0000
0000
0100
0000
0000
0010
0000
,
2000
3200
0320
0032
,
0203
0320
2030
3002
,
0203
0320
2030
3002
0203
0320
2030
3002
,
0003
0000
0000
0000
;

//---------------dance-single - ----------------
#NOTES:
     dance-single:
     :
     Beginner:
     3:
     0.187,0.321,0.000,0.194,0.000:
0000
0000
0000
0000
,
0000
0000
0000
0000
,
0000
0000
0000
0000
,
0000
0000
0000
0000
,
1000
0000
0001
0000
,
1000
0000
0001
0000
,
0010
0000
0010
0000
,
0100
0000
0001
0000
,
0001
0000
0100
0000
,
1000
0000
0100
0000
,
0010
0000
0001
0000
,
1000
0000
0010
0000
,
0001
0000
0000
1000
0000
0000
0010
0000
,
0000
1000
0000
0000
0010
0000
0000
1000
,
0000
0000
0100
0000
0000
1000
0000
0000
,
0010
1000
0010
0000
,
0000
0100
0000
0010
,
1000
0001
0010
0000
,
0000
0100
0000
0010
,
2000
0000
0000
0000
,
3020
0000
0000
0000
,
0230
0000
0000
0000
,
0302
0000
0000
0000
,
0023
0000
0000
0000
,
2030
0000
0000
0000
,
3020
0000
0000
0000
,
0230
0000
0000
0000
,
0301
0000
0100
0000
,
0001
0000
0010
0000
,
1000
0000
0010
0000
,
0001
0000
0100
0000
,
0010
0000
1000
0000
,
0001
0000
0010
0000
,
0100
0000
0001
0000
,
0010
0000
0010
0000
,
1000
0001
1000
0010
,
0001
0010
0100
0001
,
0010
0100
0010
0001
,
0100
0010
1000
0100
,
1000
0010
0001
0100
,
0010
0100
0001
0010
,
0001
0100
0010
1000
,
0001
0010
0100
1000
,
0002
0000
2003
0000
,
3020
0000
0230
0000
,
0302
0000
0023
0000
,
0032
0000
2003
0000
,
3100
0000
0010
0000
,
1000
0000
0001
0000
,
0100
0000
0001
0000
,
0001
0000
1000
0000
,
0010
0000
0010
0000
,
1000
0000
0100
0000
,
0010
0000
0001
0000
,
0010
0000
1000
0000
,
0100
0000
0000
0010
,
0100
0000
0000
0100
,
0010
0000
0000
0001
,
1000
0000
0000
0100
,
1000
0000
0000
0100
,
0001
0000
0000
0001
,
0010
0000
0000
0001
,
0100
0000
0000
1000
,
0002
0000
0023
0000
,
0230
0000
2300
0000
,
3200
0320
2030
3002
,
0003
0000
0000
0000
;
