#TITLE:インベーダーインベーダー;
#SUBTITLE:;
#ARTIST:きゃりーぱみゅぱみゅ;
#TITLETRANSLIT:Invader Invader;
#SUBTITLETRANSLIT:;
#ARTISTTRANSLIT:Kyary Pamyu Pamyu;
#CREDIT:Lisek;
#BANNER:[Moon Runes] - Invader Invader.png;
#BACKGROUND:[Moon Runes] - Invader Invader-bg.png;
#LYRICSPATH:;
#CDTITLE:cdtitle.png;
#MUSIC:[Moon Runes] - Invader Invader.ogg;
#OFFSET:-0.571;
#SAMPLESTART:38.071;
#SAMPLELENGTH:11.880;
#SELECTABLE:YES;
#BPMS:0.000=160.000;
#STOPS:;
#BGCHANGES:0.000=[Moon Runes] - Invader Invader.avi=1.000=0=0=1,
99999=-nosongbg-=1.000=0=0=0 // don't automatically add -songbackground-
;

//---------------dance-single - Lisek----------------
#NOTES:
     dance-single:
     Lisek:
     Hard:
     8:
     0.591,0.579,0.852,0.113,0.000: // measure 1
0000
0000
0000
0000
,  // measure 2
0000
0000
0000
0000
,  // measure 3
2002
0000
0000
3003
,  // measure 4
0220
0000
0000
0330
,  // measure 5
2002
0000
0000
3003
,  // measure 6
0000
0000
0000
0000
,  // measure 7
0101
0000
0001
0100
0000
0010
1000
0100
,  // measure 8
0110
0000
0010
0001
0000
0010
0100
1000
,  // measure 9
1100
0000
1000
0010
0000
0100
0001
0010
,  // measure 10
0011
0000
0001
0100
0000
0010
0100
0001
,  // measure 11
1000
0100
0001
0100
0010
0100
0001
0100
,  // measure 12
1000
0010
0001
0010
0100
0010
0001
0010
,  // measure 13
1000
0100
0001
0100
0010
0100
0001
0100
,  // measure 14
1100
0000
1001
0000
0001
1000
0001
1000
,  // measure 15
1001
0000
1000
0001
0000
0001
0100
0010
,  // measure 16
0110
0000
0010
1000
0000
1000
0100
0010
,  // measure 17
0110
0000
0010
0001
0000
0001
0100
0010
,  // measure 18
0110
0000
0010
0110
0000
0010
1000
0001
,  // measure 19
0101
0000
1001
0000
0101
0000
0000
1010
,  // measure 20
0000
1100
0000
1001
0000
1000
0100
1000
,  // measure 21
1001
0000
1100
0000
1001
0000
0000
0011
,  // measure 22
0000
0101
0000
1001
0000
0000
0000
0000
,  // measure 23
1010
0000
1000
0010
0000
0100
0001
0010
,  // measure 24
0011
0000
0010
0001
0000
0001
0100
0010
,  // measure 25
0110
0000
0010
1000
0000
0100
0010
0001
,  // measure 26
0101
0000
0001
1001
0000
0001
0100
0001
,  // measure 27
1001
0000
1010
0000
1001
0000
0000
1100
,  // measure 28
0000
0110
0000
0011
0000
0001
0100
0001
,  // measure 29
0101
0000
1001
0000
0101
0000
0000
0110
,  // measure 30
0000
1010
0000
1001
0000
1000
0001
1000
,  // measure 31
1002
0000
0103
0002
0000
0000
0000
0000
,  // measure 32
0000
0000
0000
1003
0020
0000
0000
0030
,  // measure 33
1000
0010
0100
0020
0000
0000
1030
0000
,  // measure 34
0100
0010
0001
0200
0000
0000
0310
0000
,  // measure 35
1000
0001
0010
0100
1000
0001
0100
0010
,  // measure 36
1000
0001
0100
0010
1000
0100
0010
0001
,  // measure 37
1000
0001
0100
0010
0000
0100
0010
0000
,  // measure 38
1000
0100
0010
0100
0000
0010
0100
0000
,  // measure 39
1000
0001
0100
0010
1000
0100
0010
0000
,  // measure 40
0001
1000
0010
0100
0001
0010
0100
0000
,  // measure 41
1000
0100
1000
0010
1000
0100
1000
0000
,  // measure 42
0001
0010
0001
0100
0001
0010
0001
0000
,  // measure 43
1000
0010
0000
0100
0010
0000
1000
0000
,  // measure 44
0001
0010
0000
0100
0010
0000
0001
0000
,  // measure 45
1000
0000
0010
0000
0100
0010
1000
0100
,  // measure 46
0010
0000
0001
0000
0100
0010
1000
0100
,  // measure 47
0010
0000
0000
0001
0100
0000
0010
1000
,  // measure 48
0001
0000
0010
0100
0000
1000
0001
1000
,  // measure 49
1001
1001
1001
1001
,  // measure 50
0110
1001
0110
0100
,  // measure 51
0101
0000
0001
0010
0000
0100
1000
0010
,  // measure 52
1010
0000
1000
0001
0000
0001
1000
0010
,  // measure 53
1001
0000
1001
0000
1001
1001
0000
0000
,  // measure 54
0110
1001
0110
0010
,  // measure 55
1000
0010
0100
0001
0000
0010
0100
1000
,  // measure 56
1100
0000
1000
0001
0000
0001
0100
0010
,  // measure 57
1001
1001
1001
1001
,  // measure 58
0110
1001
0110
0100
,  // measure 59
0101
0000
0001
0010
0000
0001
0100
0010
,  // measure 60
0110
0000
0100
0001
0000
0100
0010
1000
,  // measure 61
1001
0000
1001
0000
1001
1001
0000
0000
,  // measure 62
0110
1001
0110
0100
,  // measure 63
2002
0000
0000
3003
,  // measure 64
0001
0000
1000
0010
0000
0100
0001
1000
,  // measure 65
1001
1001
1001
1001
,  // measure 66
0110
1001
0110
0100
,  // measure 67
0101
0000
0001
0010
0000
0100
0010
0001
,  // measure 68
0101
0000
0001
1000
0000
0010
0100
0001
,  // measure 69
1001
0000
1001
0000
1001
1001
0000
0000
,  // measure 70
0110
1001
0110
0000
,  // measure 71
1001
0000
0000
1000
0100
0000
0001
0000
,  // measure 72
1001
0000
0000
0001
0100
0000
1000
0000
,  // measure 73
1001
0000
0000
1000
0001
0000
0100
0010
,  // measure 74
1000
0000
0100
0010
0000
0001
1000
0001
,  // measure 75
1001
0000
0000
0000
;

//---------------dance-single - Lisek----------------
#NOTES:
     dance-single:
     Lisek:
     Beginner:
     1:
     0.076,0.161,0.000,0.096,0.000:
0000
0000
0000
0000
,
0000
0000
0000
0000
,
0000
0000
0000
0000
,
0000
0000
0000
0000
,
0000
0000
0000
0000
,
0000
0000
0000
0000
,
1000
0000
0000
0000
,
0001
0000
0000
0000
,
0100
0000
0000
0000
,
0010
0000
0000
0000
,
1000
0000
0000
0000
,
0001
0000
0000
0000
,
1000
0000
0000
0000
,
0000
0000
0000
0000
,
0002
0000
0000
0000
,
2003
0000
0000
0000
,
3002
0000
0000
0000
,
2003
0000
3000
0000
,
0010
0000
0000
0000
,
0000
0000
0000
0000
,
0100
0000
0000
0000
,
0000
0000
0000
0000
,
0002
0000
0000
0000
,
2003
0000
0000
0000
,
3002
0000
0000
0000
,
2003
0000
3000
0000
,
0010
0000
0000
0000
,
0000
0000
0000
0000
,
0100
0000
0000
0000
,
0000
0000
0000
0000
,
0002
0000
0000
0000
,
0000
0000
0000
0000
,
1003
0000
0000
0000
,
0000
0000
0000
0000
,
0010
0000
0000
0000
,
0000
0000
0000
0000
,
0100
0000
0000
0000
,
0000
0000
0000
0000
,
0001
0000
0000
0000
,
0000
0000
0000
0000
,
1000
0000
0000
0000
,
0000
0000
0000
0000
,
0100
0000
0000
0000
,
0000
0000
0000
0000
,
0010
0000
0000
0000
,
0000
0000
0000
0000
,
0001
0000
0000
0000
,
0000
0000
0000
0000
,
1000
0000
0000
0000
,
0010
0000
0000
0000
,
1000
0000
0000
0000
,
0001
0000
0000
0000
,
0100
0000
0000
0000
,
0010
0000
0000
0000
,
0100
0000
0000
0000
,
0001
0000
0000
0000
,
1000
0000
0000
0000
,
0001
0000
0000
0000
,
1000
0000
0000
0000
,
0010
0000
0000
0000
,
1000
0000
0000
0000
,
0001
0000
0000
0000
,
0200
0000
0000
0000
,
0000
0000
0000
0300
,
0001
0000
0000
0000
,
1000
0000
0000
0000
,
0010
0000
0000
0000
,
1000
0000
0000
0000
,
0001
0000
0000
0000
,
0100
0000
0000
0000
,
0020
0000
0000
0000
,
0000
0000
0000
0000
,
0000
0000
0000
0000
,
0000
0000
0000
0000
,
0030
0000
0000
0000
;

//---------------dance-single - Lisek----------------
#NOTES:
     dance-single:
     Lisek:
     Medium:
     5:
     0.339,0.483,0.400,0.174,0.000:
0000
0000
0000
0000
,
0000
0000
0000
0000
,
2000
0000
0000
3000
,
0002
0000
0000
0003
,
0200
0000
0000
0300
,
0000
0000
0000
0000
,
0001
0100
0010
1000
,
0100
0010
0001
1000
,
0010
0100
0001
0100
,
0010
1000
0100
1000
,
0001
0010
0100
0010
,
0001
0100
0010
1000
,
0100
0010
0100
1000
,
1001
1001
0000
0000
,
1000
0000
0010
1000
0000
0000
0010
0000
,
0100
0001
0010
0001
,
1000
0000
0001
0100
0000
0000
0001
0000
,
0010
0001
1001
0000
,
0001
0000
0100
0000
0001
0000
0000
1000
,
0000
1000
0000
1000
0000
0000
0000
0000
,
0010
0000
0100
0000
0001
0000
0000
1000
,
0000
1000
0000
1000
0000
0000
0000
0000
,
0001
0000
0100
0010
0000
0000
1000
0000
,
0100
1000
0001
0100
,
0001
0000
1000
0010
0000
0000
1000
0000
,
0001
1000
1001
0000
,
0001
0000
0010
0000
0001
0000
0000
0100
,
0000
0100
0000
0100
0000
0000
0000
0000
,
0001
0000
0100
0000
0010
0000
0000
0100
,
0000
0100
0000
0100
0000
0000
0000
0000
,
2001
0000
3020
0000
,
0000
0000
0230
0000
,
0301
0000
0100
0000
,
0001
0000
1000
0000
,
0010
0000
0100
0000
,
0001
0000
0010
0000
,
0001
0000
1000
0000
,
0010
0000
0100
0000
,
0010
0000
1000
0000
,
0001
0000
0010
0000
,
0001
0100
0001
0010
,
0002
0000
0000
0000
,
1003
0010
1000
0100
,
2000
0000
0000
0000
,
3001
0010
0100
1000
,
0020
0000
0000
0000
,
1030
0000
0001
0000
,
1000
0001
1000
0001
,
1001
1001
1001
1001
,
1001
1001
1001
0000
,
0001
0100
0010
1000
,
0100
0010
0001
1000
,
1010
1010
2020
3030
,
0101
0101
0101
0000
,
0001
1000
0010
0100
,
0010
1000
0001
0100
,
0101
0101
0101
0101
,
0101
0101
0101
0000
,
0001
1000
0010
0100
,
0001
0010
0001
1000
,
1001
1001
2002
3003
,
0110
0110
0110
0000
,
2000
0000
0000
3000
,
0001
1000
0001
0100
,
0101
0101
0101
0101
,
0101
0101
0101
0000
,
0001
1000
0010
0100
,
0010
1000
0100
0010
,
0011
0011
0022
0033
,
1100
1100
1100
0000
,
2000
0000
0000
3000
,
0002
0000
0000
0003
,
2002
0000
0000
0000
,
0000
0000
0000
3003
,
1001
0000
0000
0000
;

//---------------dance-single - Lisek----------------
#NOTES:
     dance-single:
     Lisek:
     Easy:
     2:
     0.163,0.193,0.017,0.078,0.000:
0000
0000
0000
0000
,
0000
0000
0000
0000
,
0000
0000
0000
0000
,
0000
0000
0000
0000
,
0000
0000
0000
0000
,
0000
0000
0000
0000
,
1000
0000
0001
0000
,
0100
0000
0010
0000
,
1000
0000
0100
0000
,
0010
0000
0001
0000
,
1000
0000
0100
0000
,
1000
0000
0010
0000
,
1000
0000
0100
0000
,
2000
0000
0000
3000
,
0001
0000
1000
0000
,
0010
0000
1000
0000
,
0001
0000
0100
0000
,
0010
0000
0100
0000
,
0001
0000
1000
0000
,
0100
0000
0010
0000
,
0001
0000
0010
0000
,
0100
0000
1000
0000
,
0010
0000
1000
0000
,
0010
0000
0100
0000
,
0010
0000
1000
0000
,
0010
0000
0100
0000
,
0001
0000
0010
0000
,
0100
0000
1000
0000
,
0100
0000
0010
0000
,
0002
0000
0000
0003
,
2002
0000
0000
0000
,
0000
0000
0000
3003
,
1000
0000
0000
0000
,
0001
0000
0000
0000
,
0100
0000
0000
0000
,
0010
0000
0000
0000
,
1000
0000
0000
0000
,
0100
0000
0000
0000
,
0010
0000
0000
0000
,
0001
0000
0000
0000
,
1000
0000
0010
0000
,
1000
0000
0000
0000
,
0001
0000
0100
0000
,
0001
0000
0000
0000
,
1000
0000
0001
0000
,
1000
0000
0000
0000
,
0001
0000
1000
0000
,
0002
0000
0000
0003
,
1000
0000
0010
0000
,
1000
1000
1000
0000
,
0001
0000
0100
0000
,
0001
0000
1000
0000
,
0001
0000
0100
0000
,
0001
0001
0001
0000
,
1000
0000
0010
0000
,
0100
0000
0001
0000
,
1000
0000
0010
0000
,
1000
1000
1000
0000
,
0001
0000
0100
0000
,
0010
0000
1000
0000
,
0001
0000
0100
0000
,
0001
0001
0001
0000
,
1000
0000
0100
0000
,
0010
0000
0001
0000
,
1000
0000
0010
0000
,
1000
1000
1000
0000
,
0001
0000
0100
0000
,
0010
0000
0100
0000
,
0001
0000
1000
0000
,
0001
0001
0001
0000
,
2000
0000
0000
3000
,
0002
0000
0000
0003
,
2002
0000
0000
0000
,
0000
0000
0000
0000
,
3003
0000
0000
0000
;
