#TITLE:インベーダーインベーダー;
#ARTIST:きゃりーぱみゅぱみゅ;
#TITLETRANSLIT:Invader Invader;
#ARTISTTRANSLIT:Kyary Pamyu Pamyu;
#CREDIT:A. Michaelangelo;
#BANNER:[Moon Runes] - Invader Invader (AeronPeryton).png;
#BACKGROUND:[Moon Runes] - Invader Invader (AeronPeryton)-bg.png;
#CDTITLE:sc2013.png;
#MUSIC:[Moon Runes] - Invader Invader (AeronPeryton).ogg;
#OFFSET:0;
#SAMPLESTART:71.56;
#SAMPLELENGTH:12;
#BPMS:0=160;
#NOTES:dance-single::Beginner:2::
0000
0000
0000
0000
,
0000
0000
0000
0000
,
1001
0000
0000
0000
,
1001
0000
0000
0000
,
1001
0000
0000
0000
,
0001
0000
0001
0000
,
1000
0000
1000
0000
,
0010
0000
0010
0000
,
1000
0000
1000
0000
,
0100
0000
0100
0000
,
0002
0000
0003
0000
,
2000
0000
3000
0000
,
0020
0000
0030
0000
,
0110
0000
0000
0000
,
0001
0000
0001
0000
,
1000
0000
1000
0000
,
0001
0000
0001
0000
,
1000
0000
1000
0000
,
0010
0010
0010
0000
,
1000
1000
1000
0000
,
0010
0010
0010
0000
,
0100
0100
0100
0000
,
0001
0000
0001
0000
,
1000
0000
1000
0000
,
0001
0000
0001
0000
,
1000
0000
1000
0000
,
0001
0001
0001
0000
,
1000
1000
1000
0000
,
0100
0100
0100
0000
,
0100
0100
0100
0000
,
2002
0000
0000
3003
,
0000
0000
0000
0000
,
0010
0000
0000
0000
,
0100
0000
0000
0000
,
0001
0000
0000
0000
,
1000
0000
0000
0000
,
0100
0000
0000
0000
,
0010
0000
0000
0000
,
0001
0000
0000
0000
,
1000
0000
0000
0000
,
1001
0000
0000
0000
,
1000
0000
0000
0000
,
0010
0000
0000
0000
,
0100
0000
0000
0000
,
0001
0000
0000
0000
,
0010
0000
0000
0000
,
0100
0000
0000
0000
,
1000
0000
0000
0000
,
1000
1000
1000
1000
,
1000
0000
1001
0000
,
0001
0000
1000
0000
,
0010
0000
1000
0000
,
0001
0001
0001
0001
,
0001
0000
1001
0000
,
0010
0000
0100
0000
,
0010
0000
0001
0000
,
1000
1000
1000
1000
,
1000
0000
1001
0000
,
0010
0000
0100
0000
,
0010
0000
1000
0000
,
0001
0001
0001
0001
,
0001
0000
1001
0000
,
0010
0000
0010
0000
,
0100
0000
0100
0000
,
0010
0010
0010
0010
,
0010
0000
0110
0000
,
1000
0000
0001
0000
,
0100
0000
0010
0000
,
0100
0100
0100
0100
,
0100
0000
0110
0000
,
0010
0000
1000
0000
,
0100
0000
0001
0000
,
0010
0010
0010
0010
,
0010
0000
0110
0000
,
0001
0000
1000
0000
,
0001
0000
1000
0000
,
0100
0100
0100
0100
,
0100
0000
0110
0000
,
1001
0000
0000
0000
,
1001
0000
0000
0000
,
1001
0000
0000
0000
,
0100
0000
0010
0000
,
0001
0000
1000
0000
,
0010
0000
1000
0000
,
0100
0000
1000
0000
,
0001
0000
0010
0000
,
0200
0000
0300
0000
,
2000
0000
3000
0000
,
0002
0000
0003
0000
,
0200
0000
0300
0000
,
1001
0000
0000
0000
;
#NOTES:dance-single::Easy:4::
0000
0000
0000
0000
,
0000
0000
0000
0000
,
1001
0000
0000
0000
,
0110
0000
0000
0000
,
1001
0000
0000
0000
,
0001
0000
0100
0010
,
1000
0001
0100
0001
,
1000
0100
1000
0001
,
0100
0001
1000
0100
,
1000
0001
0100
0001
,
0001
0001
0100
0100
,
0010
0010
1000
1000
,
0001
0001
0100
0100
,
2002
3003
0220
0330
,
1000
0001
0100
0010
,
1000
0010
1000
0100
,
0010
0001
1000
0010
,
0100
0001
0010
0000
,
0002
0003
2000
3000
,
0020
0030
2000
3000
,
0002
0003
0020
0030
,
0002
0003
0200
0300
,
0001
1000
0010
1000
,
0001
0010
0001
1000
,
0010
1000
0001
0010
,
0001
1000
0010
1000
,
0020
0030
0200
0300
,
0020
0030
2000
3000
,
0020
0030
2000
3000
,
0002
0003
0020
0030
,
1001
0000
0101
0000
,
1001
0000
1100
0000
,
0020
0000
0000
0000
,
0000
0000
0000
0030
,
0200
0000
0000
0000
,
0000
0000
0000
0300
,
2000
0000
0000
0000
,
0000
0000
0000
3000
,
0002
0000
0000
0000
,
0000
0000
0000
0003
,
0020
0000
0100
0000
,
0000
0000
0030
0000
,
0001
0010
0100
1000
,
0002
0003
2000
3000
,
0002
0000
0000
0000
,
0000
0000
0000
0003
,
0200
0000
0000
0300
,
0020
0030
2000
3000
,
1001
0000
1001
0000
,
2002
0000
0000
3003
,
1000
0010
0100
0010
,
1000
0010
0100
0010
,
1001
0000
1001
0000
,
2002
0000
0000
3003
,
0001
0010
0001
0100
,
0001
0010
0001
0100
,
1001
0000
1001
0000
,
2002
0000
0000
3003
,
0100
0010
0001
0010
,
0100
0010
0001
0010
,
1001
0000
1001
0000
,
0220
0000
0000
0330
,
0110
0000
0000
0000
,
0110
0000
0000
0000
,
1001
0000
0110
0000
,
2002
0000
0000
3003
,
0010
0100
1000
0100
,
0010
0100
1000
0100
,
0110
0000
1001
0000
,
0220
0000
0000
0330
,
1000
0010
0001
0010
,
1000
0010
0001
0010
,
1001
0000
0110
0000
,
2002
0000
0000
3003
,
1000
0100
0001
0100
,
1000
0010
0001
0010
,
0110
0000
1001
0000
,
0220
0000
0000
0330
,
1001
0000
0000
0000
,
0101
0000
0000
0000
,
1100
0000
0000
0000
,
0110
0000
0110
0000
,
0001
0100
0001
0010
,
0001
1000
0001
0100
,
0001
0010
0001
1000
,
0001
0100
0001
0010
,
0001
0001
1000
1000
,
0100
0100
1000
1000
,
0010
0010
0100
0100
,
0001
0001
0000
0110
,
1001
0000
0000
0000
;
#NOTES:dance-single::Medium:5::
0000
0000
0000
0000
,
0000
0000
0000
0000
,
1100
0000
0000
0000
,
0110
0000
0000
0000
,
0101
0000
0000
0000
,
0001
0000
0010
0000
0100
0000
1000
0010
,
0100
0000
0001
0000
0100
0000
0010
0100
,
0001
1000
0100
1000
,
0010
0000
0100
0000
0001
0000
0010
0100
,
1000
0001
0100
0001
,
0001
0001
0000
0000
1000
1000
0000
0000
,
0001
0001
0000
0000
0100
0100
0000
0000
,
0001
0001
0000
0000
1000
1000
0000
0000
,
0010
0010
1001
0110
,
1001
1000
0001
1000
,
0110
0001
0100
0001
,
1001
1000
0100
1000
,
0110
0000
0000
0110
0000
0000
0000
0000
,
0002
0100
0103
0000
,
2000
0000
0100
0000
3100
0000
0010
0100
,
0020
1000
1030
0000
,
0200
0010
0301
0000
,
1001
0100
0001
0100
,
0101
0010
0001
0010
,
1100
0010
1000
0010
,
0011
0000
0000
0011
0000
0000
0000
0000
,
0002
0100
0103
0000
,
0200
0010
0310
0000
,
2000
0001
3001
0000
,
0020
0100
1030
0000
,
1100
0000
0110
0000
,
1000
0000
0000
0001
0000
0000
0100
0000
0001
0000
0000
0000
0000
0000
0000
0000
,
1002
0000
0200
0000
,
0000
0000
0000
0303
,
2000
0000
3002
0000
,
0023
0000
0000
0030
,
0201
0000
0020
0000
,
0000
0000
0000
0330
,
0200
0001
0302
2000
,
0000
0000
0000
3003
,
1200
0000
0020
0000
,
0000
0000
0000
0330
,
0001
0010
0000
0000
2000
0000
0200
0000
,
0000
0000
0000
3300
,
0020
0000
0032
0000
,
0203
0000
0310
0000
,
0000
1010
0000
0000
0101
0000
0000
0000
,
0001
0000
0100
0000
0010
0100
0001
0000
,
0101
0101
0101
0101
,
0020
1000
0130
0000
,
1000
0100
0010
0100
,
0010
0001
0010
0000
0001
0000
0000
0000
,
1100
1100
1100
1100
,
0002
0010
1003
0000
,
0010
1000
0010
0000
1000
0000
0001
0000
,
0010
0100
0010
0000
0001
0000
0000
0000
,
0011
0011
0011
0011
,
2000
0100
3010
0000
,
0001
0100
0001
1000
,
0010
1000
0010
0000
1000
0000
0000
0000
,
1010
1010
1010
1010
,
0200
0001
0310
0000
,
0110
0000
0000
0000
,
0001
0000
0100
0000
1000
0000
0001
0100
,
1001
1001
0110
0110
,
0100
0020
1030
0000
,
1000
0100
0000
0000
0001
0000
0000
0000
,
1000
0100
0000
0000
0100
0000
0000
0000
,
0110
0110
1001
1001
,
0001
2000
3100
0000
,
0010
0001
0010
0000
0100
1000
0100
0000
,
0010
0000
0001
1000
0100
0000
0000
0000
,
0011
0011
0101
0101
,
0010
2000
3001
0000
,
0010
0100
0000
0000
0010
0000
0000
0000
,
0100
0001
0000
0000
0100
0000
0000
0000
,
1100
1100
1010
1010
,
0010
0200
0310
0000
,
1001
0000
0000
0000
,
0101
0000
0000
0000
,
1100
0000
0000
0000
,
0100
0001
0100
0001
0100
0000
0010
0000
,
1010
0000
0001
0000
1000
0000
0010
0100
,
0001
0010
0100
1000
,
0010
0000
0100
0000
1000
0000
0100
0010
,
1000
0010
1000
0100
,
0001
0001
0000
0000
0100
0100
0000
0000
,
0010
0010
0000
0000
1000
1000
0000
0000
,
0010
0010
0000
0000
1000
1000
0000
0000
,
0001
0000
1000
0000
0001
0000
0010
0100
,
1001
0000
0000
0000
;
#NOTES:dance-single::Hard:7::
0000
0000
0000
0000
,
0000
0000
0000
0000
0000
0001
1000
0000
,
1100
0000
0000
0000
0000
1000
0001
0000
,
0101
0000
0000
0000
0000
0010
1000
0000
,
1100
0000
0000
0000
0000
0000
0000
0010
,
0001
0000
0100
0010
0000
1000
0100
0010
,
0001
0000
1000
0100
0000
1000
0100
0010
,
0001
0000
0001
0100
0000
0001
0100
0010
,
1000
0000
1000
0100
0000
1000
0100
0010
,
0001
0000
1000
0100
0000
0001
0100
0000
,
1000
1000
1000
0000
0001
0001
0001
0000
,
0100
0100
0100
0000
0010
0010
0010
0000
,
1000
1000
1000
0000
0001
0001
0001
0000
,
0101
0000
1010
0000
0001
1000
0001
0100
,
0001
0000
1000
0100
0000
0000
1000
0100
,
1000
0000
0001
0100
0000
0000
0001
0100
,
0001
0000
1000
0100
0000
0000
1000
0100
,
1000
0000
0001
0101
0000
0000
0000
0000
,
0201
0010
1300
0000
,
1200
0000
0010
0000
0301
0000
0001
0001
,
0201
0010
1300
0000
,
1200
0000
0010
0000
0301
0000
0001
0010
,
0001
0000
1000
0010
0000
0000
1000
0010
,
1000
0000
0001
0010
0000
0000
0001
0010
,
0001
0000
1000
0010
0000
0000
1000
0010
,
1000
0000
0001
0011
0000
0000
0000
0000
,
0021
0100
1030
0000
,
1020
0000
0100
0000
0031
0000
0001
0001
,
0021
0100
1030
0000
,
1020
0000
0100
0000
0030
0001
0001
0001
,
1000
0001
0000
0000
0000
0000
0000
0000
1000
0010
0000
0000
0000
0000
0000
0000
,
0100
0001
0000
0100
0001
0000
0100
0001
0100
0000
0000
0000
0000
0000
0000
0000
,
1000
0000
0000
0001
0100
0000
0000
0000
,
0010
0000
0000
1000
0000
0000
1000
0000
0100
0000
0000
0000
0000
0000
0000
0000
,
0010
0000
0000
0001
0100
0000
0000
0000
,
0010
0000
0000
1000
0000
0000
0010
0000
0100
0000
0000
0000
0000
0000
0000
0000
,
0001
0000
0000
0001
0100
0000
0000
0000
,
0010
0000
0000
1000
0000
0000
0001
0000
0010
0000
0000
0000
0000
0000
0000
0000
,
0010
0000
0000
0100
1000
0000
0000
0000
,
0010
0000
0000
0100
0000
0000
0010
0000
0100
0000
0000
0000
0000
0000
0000
0000
,
0001
0100
0001
1000
0010
0000
0000
0000
,
0010
1000
0010
0100
1000
0000
0000
0000
,
0010
1000
0001
0100
0010
0000
0000
0000
,
0010
0100
0001
0010
1000
0000
0000
0000
,
0010
0100
1000
0010
0001
0000
0000
0000
,
1000
0001
1000
0001
0100
0000
0000
0000
,
0000
0002
0000
1000
1003
0000
0000
0000
,
1000
0000
0001
0100
0000
0001
1000
0100
,
1100
1001
1100
1001
,
2100
3002
0103
0000
,
0001
0100
1000
0000
0001
0100
1000
0000
,
1000
0100
0001
0000
1000
0100
0001
0000
,
0101
0000
1001
0000
0101
0101
0000
0000
,
2010
3002
0013
0000
,
1000
0100
1000
0100
0010
0001
0010
0001
,
1000
0010
1000
0010
0100
0001
0100
0001
,
1001
1100
1001
1100
,
0102
2003
3100
0000
,
1000
0100
0001
0000
1000
0100
0001
0000
,
0001
0100
1000
0000
0001
0100
1000
0000
,
1001
0000
0101
0000
1001
1001
0000
0000
,
0012
0000
2003
0000
3010
0000
0001
0100
,
0202
0000
0000
0000
0303
0000
0000
0001
,
0100
0000
1000
0100
0000
0001
0100
0010
,
1100
0101
1100
0101
,
0120
2030
3100
0000
,
1000
0100
0010
0000
0100
0010
0001
0000
,
0001
0100
0010
0000
0100
0010
1000
0000
,
0011
0000
1010
0000
0011
0011
0000
0000
,
0210
0302
0013
0000
,
0010
0100
1000
0010
0100
0001
0010
0100
,
1000
0010
0100
0001
0010
0100
1000
0000
,
0011
1100
0011
1100
,
2100
3020
0031
0000
,
0010
0001
0100
0000
0010
1000
0100
0000
,
0100
1000
0010
0000
0100
0001
0010
0000
,
1010
0000
0101
0000
1010
1010
0000
0000
,
0201
0320
1030
0000
,
1100
0000
1000
0001
0000
0001
0000
0000
,
0101
0000
0001
1000
0000
1000
0000
0000
,
1100
0000
1000
0001
0000
0001
0000
1000
,
0100
0000
0001
0100
0000
0001
0100
0010
,
1000
0000
0001
0100
0000
0001
1000
0100
,
0010
0000
1000
0100
0000
1000
0001
0100
,
0010
0000
0001
0100
0000
0001
1000
0100
,
0010
0000
1000
0100
0000
0010
0100
1000
,
0001
0001
0001
0000
1000
1000
1000
0000
,
0100
0100
0100
0000
0010
0010
0010
0000
,
1000
1000
1000
0000
0001
0001
0001
0000
,
0001
0000
0001
0100
0000
1000
0100
0010
,
0011
0000
0000
0000
;
