#TITLE:インビジブル;
#SUBTITLE:(歌ってみた@NO=L);
#ARTIST:Kemu;
#TITLETRANSLIT:Inbijiburu;
#SUBTITLETRANSLIT:(Cover by NO=L);
#ARTISTTRANSLIT:Kemu;
#GENRE:;
#CREDIT:;
#BANNER:[Moon Runes] - Inbijiburu.png;
#BACKGROUND:[Moon Runes] - Inbijiburu-bg.png;
#LYRICSPATH:;
#CDTITLE:;
#MUSIC:[Moon Runes] - Inbijiburu.ogg;
#OFFSET:-2.601;
#SAMPLESTART:47.490;
#SAMPLELENGTH:11.409;
#SELECTABLE:YES;
#DISPLAYBPM:96:192;
#BPMS:0.000=95.980
,8.000=191.960
,166.000=767.840
,174.000=191.960
,238.000=95.980
,240.000=191.960
;
#STOPS:
;
#BGCHANGES:;
#KEYSOUNDS:;
#ATTACKS:;

//---------------dance-single - ----------------
#NOTES:
     dance-single:
     :
     Hard:
     9:
     0.770,0.788,0.318,0.414,0.202,484.000,33.000,43.000,0.000,0.000,0.000,0.770,0.788,0.318,0.414,0.202,484.000,33.000,43.000,0.000,0.000,0.000:
0000
0000
0000
0000
,
0000
0000
0000
0000
,
1000
0010
0100
0010
1000
0000
0100
0010
,
0000
0001
0010
0100
1000
0000
1001
0000
,
0001
0010
0100
0010
0001
0100
0010
1000
,
0000
0010
0100
0001
1000
0000
1001
0000
,
0001
0100
0001
0010
0001
0000
0100
0010
,
0000
1000
0100
0010
0100
0000
1000
0000
,
0010
0100
0010
1000
0100
0010
0001
0100
,
0010
0000
1000
0010
1000
0000
0001
1000
0001
0000
0010
0001
0010
0000
0001
0000
,
1000
0000
0100
1000
0100
0000
1000
0000
0010
0100
0010
0000
1000
0000
0100
0000
,
0010
0001
1000
0001
0100
0010
0100
0010
,
0100
0000
0100
0001
0000
0001
0010
0000
,
0010
0100
0000
0100
1000
0010
1000
0100
,
1000
0000
0010
1000
0010
0000
0100
0000
0001
0010
0001
0000
0020
0000
0000
0000
,
0031
0100
0001
0010
0001
1000
0010
0100
,
0010
0000
0010
1000
0000
1000
0000
0100
,
0010
0100
1000
0100
0020
0000
0031
0000
,
0010
0000
0001
0010
0001
0000
1000
0000
0010
1000
0010
0000
0100
0000
0001
0000
,
1000
0010
1000
0100
1000
0001
1000
0001
,
0010
0020
0000
0130
0200
0000
1300
2000
,
0000
3010
0020
0000
0130
0010
0100
0010
,
1000
0000
0001
1000
0001
0000
1000
0000
0100
0010
0100
0000
0010
0000
0100
0000
,
1000
0001
0100
0010
0100
0001
0010
0100
,
1000
0000
0000
1000
0001
0000
0100
0000
0010
0000
0000
0010
1000
0000
0100
0000
,
0010
0000
0000
0010
0001
0000
1000
0000
0001
0000
0000
0000
1001
0000
0000
0000
,
1000
0000
1010
0010
0100
0000
0101
0001
,
0010
0000
0100
0000
1000
0000
0001
0000
2000
0000
0000
0000
3001
0000
1000
0001
,
1000
0000
1100
0100
0010
0000
0011
0001
,
0100
0010
0100
0001
1001
1000
1001
0001
,
1000
0000
1001
0001
0100
0000
0110
0010
,
0100
0010
1000
0001
0010
0000
0110
0000
,
0100
0010
0100
1000
0010
0100
0000
0011
,
0000
1010
0000
0002
2000
0000
3003
0000
,
0001
0000
0011
0010
0001
0000
0101
0100
,
0010
0000
0000
0000
0110
0000
0100
0000
0001
0000
0000
0010
0001
0000
0100
0000
,
0010
0000
0000
0000
1010
0000
1000
0000
0100
0000
0000
0010
0100
0000
0010
0000
,
0002
0000
2003
0000
3010
0100
0001
0010
,
0001
0000
0011
0010
0100
0000
1100
1000
,
0010
0000
0110
0100
0001
0000
0101
0100
,
0010
0000
1000
0100
0001
0100
1000
0100
,
0010
0000
0000
0001
0100
0000
0010
0000
2000
0000
0000
0000
0000
0000
0000
0000
,
0000
0000
0000
0000
,
0000
0000
0000
0000
3001
0000
0001
0100
,
0010
0000
0010
1000
0100
0000
0100
1000
,
0010
0000
0000
1000
0010
0000
1000
0000
0100
0000
0000
0000
0100
0000
0010
0000
,
0001
0000
0000
0100
0010
0000
0100
0000
0020
0000
0000
0000
2030
0000
0000
0000
,
3002
1000
1000
1000
1003
0000
1000
0100
,
0010
0000
0010
0001
0100
0000
0100
0001
,
0010
0000
0010
0001
0100
0000
0100
0010
,
1000
0000
0001
0000
0010
0000
0100
0000
1000
0000
0000
0010
1000
0000
0100
0000
,
2000
0000
3001
0000
1001
0000
1000
0100
,
1000
0000
0000
0000
1100
0000
0100
0000
0010
0000
0000
0010
0001
0000
0100
0000
,
0010
0000
0000
0010
1000
0000
0001
0000
0100
0000
0000
0000
0101
0000
0001
0000
,
0100
0000
0000
0010
1000
0000
0100
0000
0020
0000
0000
0000
0032
0000
0000
0000
,
2000
0000
3003
0000
1001
0000
1000
0100
,
0010
0000
0010
0001
0100
0000
0100
0001
,
0010
0000
0010
0001
0100
0000
0100
0010
,
0001
0000
0010
0000
1000
0000
0100
0000
0010
0000
0000
0100
1000
0000
0010
0000
,
0200
0000
0000
0000
0302
0000
0000
0000
1003
0000
0001
0010
0001
1000
0010
1000
,
0001
0000
0000
0001
0100
0000
0010
0000
1000
0000
0000
1000
0100
0000
0010
0000
,
0001
0000
0000
0001
0100
0000
0010
0000
1000
0000
0000
1000
0001
0000
1000
0000
,
0100
0000
0000
0100
0010
0000
0001
0000
0100
0000
0000
0100
0001
0000
0010
0000
,
0002
0203
0020
0330
,
0100
0000
0000
0100
0010
0000
1000
0000
0100
0000
0000
0100
0010
0000
0001
0000
,
1000
0000
0000
1000
0001
0000
1000
0000
0001
0000
0000
0001
1000
0000
0001
0000
,
1000
0000
0000
1000
0100
0000
0010
0000
0001
0000
0100
0000
0010
0000
1000
0000
,
0001
0000
0000
0001
1000
0000
0001
0000
1000
0000
0000
0000
1001
0000
0000
0000
,
0101
0000
1100
0000
0100
0020
0000
0230
,
0000
2300
0000
3020
2030
0000
3001
0000
,
0011
0000
1010
0000
1000
0020
0000
0230
,
0000
0302
0000
0023
0130
0000
0110
0000
,
0020
0000
0031
0100
0020
0000
1030
0100
,
0020
0000
0031
0100
0020
0000
1030
0100
,
0020
0032
0203
0320
,
1030
0000
0010
1000
0010
0000
1000
0000
0001
0010
0001
0000
1000
0000
2002
0000
,
0000
0000
0000
0000
,
0000
0000
0000
0000
,
3003
0000
0000
0000
;

//---------------dance-single - ----------------
#NOTES:
     dance-single:
     :
     Medium:
     7:
     0.531,0.525,0.087,0.452,0.010,330.000,9.000,47.000,0.000,0.000,0.000,0.531,0.525,0.087,0.452,0.010,330.000,9.000,47.000,0.000,0.000,0.000:
0000
0000
0000
0000
,
0000
0000
0000
0000
,
1000
0000
0100
1000
0100
0000
1000
0010
,
0000
0100
0010
0000
0100
0000
0001
0000
,
0010
0000
0001
0010
0001
0000
0100
0001
,
0000
0100
0010
0000
1000
0000
1001
0000
,
0001
0000
0010
0001
0010
0000
0001
0100
,
0000
0001
0100
0000
0010
0000
0100
0000
,
0010
0000
1000
0010
1000
0000
0010
1000
,
0000
0010
1000
0000
0100
0000
0011
0000
,
0010
0000
0001
0000
0100
0001
0100
0000
,
0001
0000
0100
0000
0010
0100
0010
0000
,
1000
0000
0000
1000
0000
0000
0001
0000
,
0000
0001
0000
0000
1000
0001
1000
0001
,
1000
0000
0100
0000
0010
0100
0010
0000
,
0100
0000
0010
0000
0001
0010
0001
0000
,
0100
0000
0001
0100
0000
0001
0000
0100
,
0010
1000
2020
3030
,
0010
0100
0001
0010
,
0001
1000
0100
1000
,
0010
1000
0000
0001
1000
0000
0100
0010
,
0000
0001
1000
0001
2000
0000
3000
0000
,
0001
0010
0001
0100
,
0010
0000
1000
0000
0010
0000
1000
0010
,
1000
0000
0001
1000
0001
0000
1000
0100
,
2000
3200
0320
0032
,
2003
0000
0000
3001
2000
0000
0000
3001
,
2000
0000
3020
0000
0230
0000
0000
0310
,
0200
0000
0000
0310
0200
0000
0000
0310
,
0200
0000
0302
0000
2003
0000
0000
3001
,
2000
0000
0000
3001
2000
0000
0000
3001
,
1000
0100
0010
0100
,
0010
0100
0010
0100
0010
0001
0000
0100
,
0000
0010
0000
2000
0002
0000
3003
0000
,
0010
0010
0000
0000
0100
0100
0000
0000
,
0010
0010
0000
0000
0001
0000
1000
0000
,
0010
0010
0000
0000
0100
0100
0000
0000
,
0010
0000
1000
0000
0001
1000
0001
1000
,
0001
0001
0000
0000
1000
1000
0000
0000
,
0100
0100
0000
0000
0010
0010
0000
0000
,
0001
0100
0010
1000
,
0001
0000
1000
0001
2000
0000
0000
0000
,
0000
0000
0000
0000
,
0000
0000
0000
0000
3001
0000
0010
0001
,
0010
0000
0001
0100
0001
0000
0100
0010
,
0100
0000
0010
0000
1000
0000
0100
1000
,
0100
0000
0010
0100
0010
0000
0002
0000
,
2000
0000
3003
0000
0001
0000
1000
0001
,
1000
0000
0001
0010
0001
0000
0010
0100
,
0010
0000
0100
1000
0100
0000
1000
0000
,
0010
0000
0100
0000
0001
0000
0100
0001
,
0100
0101
0002
0000
,
2003
0000
3100
1100
,
1000
1001
0002
0000
,
2003
0000
3001
0100
,
0220
0330
0020
0000
,
0230
0000
0302
0000
,
0023
0000
0130
0010
,
0001
0000
1000
0000
0001
0000
1000
0001
,
1000
0000
0000
0000
0001
0000
0000
0000
0100
0000
0010
0000
0100
0010
0100
0010
,
0100
0000
0010
0100
0010
0000
0100
0001
,
0100
0000
0001
0010
0001
0000
0010
0100
,
0010
0000
0100
1000
0100
0000
1000
0100
,
2000
3020
0230
0000
,
0301
0000
0100
0001
0100
0000
0001
1000
,
0001
0000
0010
0100
0010
0000
0100
1000
,
0100
0000
1000
0010
1000
0000
0010
0100
,
0020
0230
0302
0000
,
1003
0000
0100
0000
1000
0100
0000
1000
,
0000
0010
0000
0100
0010
0000
0100
0000
,
0001
0000
0100
0000
0001
0100
0000
0001
,
0000
1000
0000
0001
1000
0000
1001
0000
,
0001
0000
0010
0100
1000
0000
0010
0100
,
0001
0000
0010
0100
1000
0000
0010
0100
,
0002
2003
3200
0000
,
0300
0020
0000
0000
0032
0000
0003
2002
,
0000
0000
0000
0000
,
0000
0000
0000
0000
,
3003
0000
0000
0000
;

//---------------dance-single - ----------------
#NOTES:
     dance-single:
     :
     Easy:
     4:
     0.280,0.292,0.058,0.010,0.000,197.000,6.000,1.000,0.000,0.000,0.000,0.280,0.292,0.058,0.010,0.000,197.000,6.000,1.000,0.000,0.000,0.000: // measure 0
0000
0000
0000
0000
,  // measure 1
0000
0000
0000
0000
,  // measure 2
0001
0001
0001
0000
,  // measure 3
1000
0000
0100
0000
,  // measure 4
0010
0010
0010
0000
,  // measure 5
0100
0000
1000
0000
,  // measure 6
0010
0010
0010
0000
,  // measure 7
0100
0000
0001
0000
,  // measure 8
1000
1000
1000
0000
,  // measure 9
0001
0001
1000
1000
,  // measure 10
0001
0010
0001
0100
,  // measure 11
0010
0010
0010
0010
,  // measure 12
0100
0000
0010
0000
,  // measure 13
1000
0000
0001
0001
,  // measure 14
1000
0010
0100
0100
,  // measure 15
0001
0001
1000
1000
,  // measure 16
0100
0000
0010
0000
,  // measure 17
0100
0100
0100
0000
,  // measure 18
0010
0010
0001
0001
,  // measure 19
0100
0100
0010
0010
,  // measure 20
1000
0000
0010
0000
,  // measure 21
1000
0000
0100
0000
,  // measure 22
0010
0000
0001
0000
,  // measure 23
0100
0000
0010
0010
,  // measure 24
0010
0000
1000
0000
,  // measure 25
1000
0000
0001
0001
,  // measure 26
0001
0000
1000
0000
,  // measure 27
0100
0100
0100
0000
,  // measure 28
0010
0000
0010
0000
,  // measure 29
0001
0001
0001
0000
,  // measure 30
1000
0000
0001
0000
,  // measure 31
1000
1000
1000
0000
,  // measure 32
0010
0100
0001
0000
,  // measure 33
0010
0010
0010
0000
,  // measure 34
0100
0000
1000
0000
,  // measure 35
0010
0000
0100
0100
,  // measure 36
0100
0000
0001
0000
,  // measure 37
0010
0010
0010
0000
,  // measure 38
0001
0000
1001
0000
,  // measure 39
1000
0000
1001
0000
,  // measure 40
0001
0001
1000
1000
,  // measure 41
0010
0100
0020
0000
,  // measure 42
0000
0000
0000
0000
,  // measure 43
0000
0000
0130
0000
,  // measure 44
0010
0000
1000
0000
,  // measure 45
0100
0100
0100
0000
,  // measure 46
1000
0000
0001
0001
,  // measure 47
0001
0000
1000
0000
,  // measure 48
1001
0000
0001
0000
,  // measure 49
1001
0000
1000
0100
,  // measure 50
1000
0010
0100
0001
,  // measure 51
0010
0000
0100
0000
,  // measure 52
0100
0000
1000
1000
,  // measure 53
0010
0010
0100
0000
,  // measure 54
0100
0000
0001
0001
,  // measure 55
0001
0000
1000
0000
,  // measure 56
1001
0000
0001
0000
,  // measure 57
1001
0000
1000
0000
,  // measure 58
0100
0000
0010
0010
,  // measure 59
0010
0000
0001
1000
,  // measure 60
0001
0000
0100
0000
,  // measure 61
0010
0000
1000
0010
,  // measure 62
1000
0000
0100
0000
,  // measure 63
0010
0010
0010
0000
,  // measure 64
0001
0000
0100
0000
,  // measure 65
0001
0000
1000
0000
,  // measure 66
0100
0000
1000
0000
,  // measure 67
0010
0010
0010
0000
,  // measure 68
0100
0010
0100
0000
,  // measure 69
0001
0001
1000
1000
,  // measure 70
0100
0010
0100
0000
,  // measure 71
1000
1000
0001
0000
,  // measure 72
1000
0000
0010
0000
,  // measure 73
0100
0000
0001
0000
,  // measure 74
0010
0100
1000
0000
,  // measure 75
0000
0001
0000
0000
1000
0000
0000
0001
;

//---------------dance-single - ----------------
#NOTES:
     dance-single:
     :
     Beginner:
     2:
     0.176,0.179,0.000,0.000,0.000,128.000,0.000,0.000,0.000,0.000,0.000,0.176,0.179,0.000,0.000,0.000,128.000,0.000,0.000,0.000,0.000,0.000:
0000
0000
0000
0000
,
0000
0000
0000
0000
,
1000
0000
0000
0000
,
0000
0000
0000
0000
,
0001
0000
0000
0000
,
0000
0000
0000
0000
,
0010
0000
0000
0000
,
0000
0000
0000
0000
,
0100
0000
0000
0000
,
0000
0000
0000
0000
,
1000
0000
1000
0000
,
0001
0000
0001
0000
,
0100
0000
0000
0000
,
0000
0000
0000
0000
,
0010
0000
0010
0000
,
1000
0000
1000
0000
,
0001
0000
0000
0000
,
0000
0000
0000
0000
,
0010
0000
0010
0000
,
0100
0000
0100
0000
,
1000
0000
0000
0000
,
0000
0000
0000
0000
,
0001
0000
0010
0000
,
0001
0000
1000
0000
,
0010
0000
0010
0000
,
0010
0000
0010
0010
,
0010
0000
0100
0000
,
0010
0000
0010
0000
,
1000
0000
0001
0000
,
1000
0000
1000
0000
,
0100
0000
0010
0000
,
0100
0000
0100
0000
,
0010
0000
0000
0000
,
0000
0000
0000
0000
,
0001
0000
0001
0000
,
1000
0000
1000
0000
,
0010
0000
1000
0000
,
0001
0001
0001
0000
,
1000
0000
1000
0000
,
0001
0000
0001
0000
,
0100
0000
0001
0000
,
1000
1000
1000
0000
,
0000
0000
0000
0000
,
0000
0000
0001
0000
,
0100
0000
0010
0000
,
1000
0000
1000
0000
,
0001
0000
0010
0010
,
0010
0000
0100
0000
,
1000
0000
0010
0000
,
1000
0000
0001
0000
,
0001
0000
1000
1000
,
1000
0000
0001
0000
,
0100
0000
0001
0000
,
0010
0000
0100
0000
,
0010
0000
0001
0001
,
0001
0000
1000
0000
,
0001
0000
0100
0000
,
0010
0000
1000
0000
,
0001
0000
0010
0000
,
0100
0000
0010
0000
,
0100
0000
1000
0000
,
0010
0000
0100
0000
,
0010
0000
0100
0000
,
0001
0001
0001
0000
,
1000
0000
0001
0000
,
1000
0000
0010
0000
,
1000
0000
0100
0000
,
0010
0010
0010
0000
,
0001
0000
1000
0000
,
0001
0000
0001
0000
,
0010
0000
0100
0000
,
1000
1000
1000
0000
,
0010
0000
0100
0000
,
0001
0000
0001
0000
,
1000
0000
0001
0000
;
