#TITLE:ガッテンだ!!;
#TITLETRANSLIT:Gattenda!!;
#SUBTITLE:;
#ARTIST:すわひでお with manzo;
#ARTISTTRANSLIT:Suwa Hideo with manzo;
#CREDIT:;
#MUSIC:[Moon Runes] - Gattenda!!.mp3;
#SELECTABLE:YES;
#BACKGROUND:[Moon Runes] - Gattenda!!-bg.png;
#BANNER:[Moon Runes] - Gattenda!!.png;
#CDTITLE:;
#DISPLAYBPM:85.000:170.000;
#OFFSET:-0.426531;
#SAMPLESTART:0.000;
#SAMPLELENGTH:0.000;
#BPMS:0=169.997,1=170.008,2=169.997,4=170.008,5=169.997,7=170.008,8=169.997,11=170.008,12=169.997,14=170.008,15=169.997,18=170.008,19=169.997,21=170.008,22=169.997,25=170.008,26=169.997,28=170.008,29=169.997,32=170.008,33=169.997,35=170.008,36=169.997,38=170.008,39=169.997,41=170.008,42=169.997,45=170.008,46=169.997,48=170.008,49=169.997,51=170.008,52=169.997,54=170.008,55=169.997,57=170.008,58=169.997,61=170.008,62=169.997,64=170.008,65=169.997,67=170.008,68=169.997,71=170.008,72=169.997,75=170.008,76=169.997,79=170.008,80=169.997,83=170.008,84=169.997,87=170.008,88=84.9984,89=85.0011,90=84.9984,91=85.0011,92=84.9984,93=85.0011,94=340.015,95=339.972,96=340.015,97=339.972,98=340.015,99=339.972,100=340.015,102=84.9984,103=85.0011,104=84.9984,105=85.0011,106=84.9984,107=85.0011,108=340.015,109=339.972,110=340.015,111=339.972,112=340.015,113=339.972,114=340.015,116=84.9984,117=85.0011,118=84.9984,119=85.0011,120=84.9984,121=85.0011,122=84.9984,123=85.0011,124=84.9984,125=85.0011,126=84.9984,127=85.0011,128=84.9984,129=85.0011,130=84.9984,131=169.997,132=170.008,133=169.997,136=170.008,137=169.997,140=170.008,141=169.997,144=170.008,145=169.997,148=170.008,149=169.997,152=170.008,153=169.997,156=170.008,157=169.997,160=170.008,161=169.997,164=170.008,165=169.997,168=170.008,169=169.997,172=170.008,173=169.997,176=170.008,177=169.997,180=170.008,181=169.997,184=170.008,185=169.997,188=170.008,189=169.997,192=170.008,193=169.997,196=170.008,197=169.997,200=170.008,201=169.997,204=170.008,205=169.997,208=170.008,209=169.997,212=170.008,213=169.997,216=170.008,217=169.997,220=170.008,221=169.997,224=170.008,225=169.997,228=170.008,229=169.997,232=170.008,233=169.997,236=170.008,237=169.997,240=170.008,241=169.997,244=170.008,245=169.997,248=170.008,249=169.997,251=170.008,252=169.997,253=170.008,254=169.997,255=170.008,256=169.997,257=170.008,258=169.997,259=170.008,260=169.997,261=170.008,262=169.997,263=170.008,264=169.997,265=170.008,266=169.997,267=170.008,268=169.997,269=170.008,270=169.997,271=170.008,272=169.997,273=170.008,274=169.997,275=170.008,276=169.997,277=170.008,278=169.997,279=170.008,280=169.997,281=170.008,282=169.997,283=170.008,284=169.997,285=170.008,286=169.997,287=170.008,288=169.997,289=170.008,290=169.997,291=170.008,292=169.997,293=170.008,294=169.997,295=170.008,296=169.997,297=168.621,298=157.678,299=150.238,300=139.704,301=33.3333,302=32.5605;
#STOPS:;

//---------------dance-single - ----------------
#NOTES:
     dance-single:
     :
     Beginner:
     1:
     0.000,0.000,0.000,0.000,0.000:
0000
0000
0000
0000
,
0000
0000
0000
0000
,
0000
0000
0000
0000
,
0000
0000
0000
0000
,
0020
0000
0000
0030
,
0000
0000
0000
0000
,
0200
0000
0000
0300
,
0000
0000
0000
0000
,
2000
0000
0000
3000
,
0000
0000
0000
0000
,
0002
0000
0000
0003
,
0200
0300
0000
0000
,
0020
0000
0000
0030
,
0000
0000
0000
0000
,
0002
0000
0000
0003
,
0000
0000
0000
0000
,
2000
0000
0000
3000
,
0020
0000
0000
0030
,
0200
0000
0000
0300
,
0000
0000
0002
0000
,
0000
0000
0000
0000
,
0003
0000
0000
0000
,
0100
0000
0000
0100
,
0010
0000
2002
0000
,
0000
0000
0000
0000
,
0000
0000
3003
0100
,
0000
0100
0010
0000
,
2002
0000
0000
0000
,
0000
0000
0000
0000
,
3003
0100
0000
0010
,
1000
0000
0001
0000
,
0000
1000
0000
0001
,
1000
0000
0010
0000
,
0000
0100
0000
0000
,
0010
0000
0000
1000
,
0000
0001
0000
0000
,
0010
0000
0000
0000
,
0000
0100
0000
0100
,
0000
1000
0000
1000
,
0000
0001
0000
0001
,
0000
0000
0000
0000
,
0000
0010
0000
0000
,
1000
0000
0000
0001
,
0000
0100
0000
0000
,
0010
0000
0000
0000
,
0000
1000
0000
1000
,
0000
0010
0000
0010
,
0000
0000
0000
0000
0000
0000
0000
0000
0000
0000
0000
0000
0000
0000
0000
0000
0000
0000
0000
0000
0000
0000
0000
0000
0200
0000
0000
0000
0000
0000
0000
0000
0000
0000
0000
0000
0000
0000
0000
0000
0000
0000
0000
0000
0000
0000
0000
0000
0000
0000
0000
0000
0000
0000
0000
0000
0000
0000
0000
0000
0000
0000
0000
0000
0000
0000
0000
0000
0000
0000
0000
0000
0000
0000
0000
0000
0000
0000
0000
0000
0000
0000
0000
0000
0000
0000
0000
0000
0000
0000
0000
0000
0000
0000
0000
0300
,
0000
0020
0000
0000
,
0000
0030
0000
0000
0000
0000
0000
0000
0000
0000
0000
0000
0000
0000
0000
0000
0000
0000
0000
0000
0000
0000
0000
0000
0000
0000
0000
0000
0000
0000
0000
0000
0000
0000
0000
0000
0000
0000
0000
0000
0000
0000
0000
0000
0000
0000
0000
0000
2000
0000
0000
0000
0000
0000
0000
0000
0000
0000
0000
0000
0000
0000
0000
0000
0000
0000
0000
0000
0000
0000
0000
0000
0000
0000
0000
0000
0000
0000
0000
0000
0000
0000
0000
0000
0000
0000
0000
0000
0000
0000
0000
0000
0000
0000
0000
0000
0000
0000
0000
0000
0000
0000
0000
0000
0000
0000
0000
0000
0000
0000
0000
0000
0000
0000
0000
0000
0000
0000
0000
0000
0000
0000
0000
0000
0000
0000
0000
0000
0000
0000
0000
0000
0000
0000
0000
0000
0000
0000
0000
0000
0000
0000
0000
0000
0000
0000
0000
0000
0000
0000
0000
0000
0000
0000
0000
0000
0000
0000
0000
0000
0000
0000
0000
0000
0000
0000
0000
0000
0000
0000
0000
0000
0000
0000
0000
0000
0000
0000
0000
0000
0000
0000
0000
0000
0000
0000
0000
0000
0000
0000
0000
0000
,
0000
0000
0000
0000
0000
3000
0000
0000
0000
0000
0000
0000
0000
0000
0000
0000
0000
0000
0000
0000
0000
0000
0000
0000
0000
0000
0000
0000
0000
0000
0000
0000
0000
0000
0000
0000
0000
0000
0000
0000
0000
0000
0000
0000
0000
0000
0000
0000
0001
0000
0000
0000
0000
0000
0000
0000
0000
0000
0000
0000
0000
0000
0000
0000
0000
0000
0000
0000
0000
0000
0000
0000
0000
0000
0000
0000
0000
0000
0000
0000
0000
0000
0000
0000
0000
0000
0000
0000
0000
0000
0000
0000
0000
0000
0000
0000
0000
0000
0000
0000
0000
0000
0000
0000
0000
0000
0000
0000
0000
0000
0000
0000
0000
0000
0000
0000
0000
0000
0000
0000
0000
0000
0000
0000
0000
0000
0000
0000
0000
0000
0000
0000
0000
0000
0000
0000
0000
0000
0000
0000
0000
0000
0000
0000
0000
0000
0000
0000
0000
0000
0000
0000
0000
0000
0000
0000
0000
0000
0000
0000
0000
0000
0000
0000
0000
0000
0000
0000
0000
0000
0000
0000
0000
0000
0000
0000
0000
0000
0000
0000
0000
0000
0000
0000
0000
0000
0000
0000
0000
0000
0000
0000
,
0000
0010
0000
0010
,
0000
0100
0000
0100
,
0000
1000
0000
0001
,
0000
0000
0000
0000
0000
0000
2000
0000
0000
0000
0000
0000
0000
0000
0000
0000
0000
0000
0000
0000
0000
0000
0000
3000
,
0000
0001
0000
0001
,
0000
0100
0000
0100
,
0000
0010
0000
0010
,
0000
0000
0000
0000
0000
0000
2000
0000
0000
0000
0000
0000
0000
0000
0000
0000
0000
0000
0000
0000
0000
0000
0000
3000
,
0000
0010
0000
0010
,
0000
0100
0000
0100
,
0000
0001
0000
1000
,
0000
0002
0000
0000
,
0000
0003
0000
0000
0000
0000
0000
0000
0000
0000
0000
0000
0100
0000
0000
0000
0000
0000
0000
0000
0000
0000
0000
0000
0000
0000
0000
0000
0000
0000
0000
0000
0000
0000
0000
0000
0100
0000
0000
0000
0000
0000
0000
0000
0000
0000
0000
0000
,
0000
0010
0000
0010
,
0000
1000
0000
1000
,
0000
0000
0000
0000
0000
0000
0000
0000
0000
0000
0000
0000
0000
0000
0000
0000
0000
0000
0000
0000
0000
0000
0000
0000
0020
0000
0000
0000
0000
0000
0000
0000
0000
0000
0000
0000
0000
0000
0000
0000
0000
0000
0000
0000
0000
0000
0000
0000
0000
0000
0000
0000
0000
0000
0000
0000
0000
0000
0000
0000
0000
0000
0000
0000
0000
0000
0000
0000
0000
0000
0000
0000
0000
0030
0000
0000
0000
0000
0000
0000
0000
0000
0000
0000
0000
0000
0000
0000
0000
0000
0000
0000
0000
0000
0000
0000
,
0000
0100
0000
0000
,
0000
0100
0000
0000
,
0000
0010
0000
0000
,
0000
0010
0000
0000
,
0000
1000
0000
0001
,
0000
1000
0000
0010
,
0000
0010
0100
0000
,
0000
0001
0000
0000
,
1000
0200
0300
0000
;

//---------------dance-single - ----------------
#NOTES:
     dance-single:
     :
     Easy:
     3:
     0.000,0.000,0.000,0.000,0.000:
0000
0000
0000
0000
,
0000
0000
0000
0000
,
0000
0000
0000
0000
,
0000
0000
0000
0000
,
0100
0000
0100
0000
0100
0000
0100
0020
,
0000
0000
0030
0000
,
1000
0000
1000
0000
1000
0000
1000
0002
,
0000
0000
0000
0000
0003
0000
0000
0100
,
0000
0000
0010
0000
0010
0000
0000
1000
,
0000
0000
0001
0000
0001
0000
0000
0020
,
0000
0000
0000
0000
,
0130
0000
0000
0000
,
0010
0000
0010
0000
0010
0000
0010
0200
,
0000
0000
0300
0000
,
0001
0000
0001
0000
0001
0000
0001
2000
,
0000
0000
0000
0000
3000
0000
0000
0010
,
0000
0000
0100
0000
0100
0000
0000
0001
,
0000
0000
1000
0000
1000
0000
0000
0200
,
0000
0000
0000
0000
,
0310
0000
2000
0000
,
0002
0000
0000
0000
,
3003
0000
0000
0000
,
2000
0000
3000
0000
0000
0001
1000
0001
,
2000
3000
0010
0000
,
0010
0000
0010
0000
,
0010
0000
0000
0000
0000
1000
0001
1000
,
0001
0100
0010
0100
0020
0000
0030
0000
,
0100
0000
0100
0000
,
0100
0000
0100
0000
,
0200
0000
0300
0000
0000
0001
1000
0010
,
2000
0000
3000
0010
0020
0000
0030
0000
,
0000
0100
0000
0001
0010
0100
1000
0001
,
1000
0000
0000
1000
0001
0000
0000
0000
,
0000
0000
1000
0000
0000
0001
0000
0000
,
1000
0000
0000
0100
0000
0000
0010
0000
,
0001
0000
1000
0000
0000
0010
0000
0000
,
1001
0000
0100
0100
,
0100
0001
0001
0010
,
0010
0100
0000
1000
,
1000
2000
0000
3000
,
0000
0001
0000
0010
,
0000
0000
0001
0000
0000
1000
0000
0000
,
0001
0000
0000
0010
0000
0000
0100
0000
,
1000
0000
0001
0000
0000
0100
0000
0000
,
1001
0000
0010
0010
,
0010
1000
1000
0100
,
0100
0010
0000
0001
,
0001
0002
0000
0003
,
0000
2000
0000
3000
,
0000
0020
0000
0000
,
0000
0130
0000
0000
,
0000
0100
0100
0100
,
0000
0001
0001
0001
,
0000
1000
1000
1000
,
0001
0000
0000
0000
0000
0000
0000
0000
0000
0000
0000
0000
0000
0000
0000
0000
0000
0000
0000
0000
0000
0000
0000
0000
0000
0000
0000
0000
0000
0000
0000
0000
0000
0000
0000
0000
0000
0000
0000
0000
0000
0000
0000
0000
0000
0000
0000
0000
2000
0000
0000
0000
0000
0000
0000
0000
0000
0000
0000
0000
0000
0000
0000
0000
0000
0000
0000
0000
0000
0000
0000
0000
0000
0000
0000
0000
0000
0000
0000
0000
0000
0000
0000
0000
0000
0000
0000
0000
0000
0000
0000
0000
0000
0000
0000
0000
0000
0000
0000
0000
0000
0000
0000
0000
0000
0000
0000
0000
0000
0000
0000
0000
0000
0000
0000
0000
0000
0000
0000
0000
0000
0000
0000
0000
0000
0000
0000
0000
0000
0000
0000
0000
0000
0000
0000
0000
0000
0000
0000
0000
0000
0000
0000
3000
0000
0000
0000
0000
0000
0000
0000
0000
0000
0000
0000
0000
0000
0000
0000
0000
0000
0000
0000
0000
0000
0000
0000
0000
0000
0000
0000
0000
0000
0000
0000
0000
0000
0000
0000
0000
0000
0000
0000
0000
0000
0000
0000
0000
0000
0000
0000
0000
,
0000
0001
0001
0001
,
0000
0010
0010
0010
,
0000
2000
0000
0001
,
0000
0002
0000
0000
3003
0000
0000
0000
,
0000
0010
0010
0010
,
0000
1000
1000
1000
,
0000
0001
0001
0001
,
1000
0000
0000
0000
0000
0000
0000
0000
0000
0000
0000
0000
0000
0000
0000
0000
0000
0000
0000
0000
0000
0000
0000
0000
0000
0000
0000
0000
0000
0000
0000
0000
0000
0000
0000
0000
0000
0000
0000
0000
0000
0000
0000
0000
0000
0000
0000
0000
0002
0000
0000
0000
0000
0000
0000
0000
0000
0000
0000
0000
0000
0000
0000
0000
0000
0000
0000
0000
0000
0000
0000
0000
0000
0000
0000
0000
0000
0000
0000
0000
0000
0000
0000
0000
0000
0000
0000
0000
0000
0000
0000
0000
0000
0000
0000
0000
0000
0000
0000
0000
0000
0000
0000
0000
0000
0000
0000
0000
0000
0000
0000
0000
0000
0000
0000
0000
0000
0000
0000
0000
0000
0000
0000
0000
0000
0000
0000
0000
0000
0000
0000
0000
0000
0000
0000
0000
0000
0000
0000
0000
0000
0000
0000
0003
0000
0000
0000
0000
0000
0000
0000
0000
0000
0000
0000
0000
0000
0000
0000
0000
0000
0000
0000
0000
0000
0000
0000
0000
0000
0000
0000
0000
0000
0000
0000
0000
0000
0000
0000
0000
0000
0000
0000
0000
0000
0000
0000
0000
0000
0000
0000
0000
,
0000
1000
1000
1000
,
0000
0100
0100
0100
,
0000
0002
0000
1000
,
0000
2000
0000
0000
3003
0000
0010
0000
,
0010
1000
0000
0100
,
0100
0001
0000
0001
,
0001
0100
0000
1000
,
1000
0010
0000
0100
,
0001
1000
0000
0001
,
1000
0100
0000
0010
,
0000
0110
1000
0001
,
0010
0100
1000
0001
,
1000
0001
0000
0000
;

//---------------dance-single - ----------------
#NOTES:
     dance-single:
     :
     Medium:
     7:
     0.000,0.000,0.000,0.000,0.000:
0000
0000
0000
0000
,
0000
0000
0000
0000
,
0000
0000
0000
0000
,
0000
0000
2000
0000
,
3001
0100
0001
0100
0001
1000
0100
0200
,
0000
0000
0300
0000
0000
1000
0010
0100
,
0001
0010
0001
0010
0001
0010
0100
2000
,
0000
0000
3000
0000
0000
0000
0000
0001
,
0001
1000
0001
1000
0001
0200
0000
0320
,
0000
1030
0001
1000
0001
0020
0000
0230
,
0000
0000
0000
0000
,
0320
0030
0002
0000
,
1003
0010
1000
0010
1000
0001
0010
0020
,
0000
0000
0130
0000
1000
0001
0100
0010
,
1000
0100
1000
0100
1000
0100
0010
0002
,
0000
0000
1003
0000
0001
0000
0010
2000
,
0000
3001
1000
0001
1000
0002
0000
0203
,
0000
0310
1000
0100
0010
0002
0000
2003
,
0000
0000
0000
0000
,
0000
0000
3020
0000
,
0200
0000
0000
0000
,
0330
0000
0000
0000
,
2000
0000
3000
0000
0000
0010
1000
0001
,
0200
0300
1001
0000
,
1001
0000
1001
0000
,
1001
0000
0000
0000
0000
0100
0010
1000
,
0001
0010
0001
1000
0020
0000
0130
0000
,
1010
0000
0101
0000
,
0011
0000
1100
0000
,
0002
0000
0003
0000
0000
1000
0010
1000
,
0002
0000
0003
0100
2000
0000
3000
0000
,
0000
0200
0300
0010
0001
1000
0100
0001
,
0020
0000
0030
0110
1001
0000
0200
0000
,
0300
0001
1000
0000
0001
0010
0000
0100
,
1000
0000
0001
0100
0000
0010
1000
0000
,
0011
0000
1100
0000
0100
0010
0000
0010
,
0002
0000
0000
1000
0103
0010
0001
0010
,
0100
1000
0001
0000
1010
0000
1010
0000
,
0011
0110
1100
0002
,
0100
0000
2003
0000
0010
0000
3001
0001
,
0010
0000
0100
1000
0010
0100
0001
1000
,
0010
1000
0001
0000
1000
0100
0000
0010
,
0001
0000
1000
0010
0000
0100
0001
0000
,
1100
0000
0011
0000
0010
0100
0000
0100
,
2000
0000
0000
0001
3010
0100
1000
0100
,
0010
0001
2000
0000
0100
0000
0010
0000
,
3001
0011
0110
1100
,
1001
0000
1001
0000
0000
0000
0000
0100
,
0010
0100
0010
0000
0000
0000
0000
0001
,
1000
0001
2000
0000
0000
0000
0000
0000
,
0000
0000
0000
3001
0000
0000
0000
0000
0000
1001
0000
1001
,
0000
0000
1001
0000
0000
0000
0001
0000
0000
0010
0000
0000
0100
0000
0000
2000
0000
0000
0000
0000
0000
3001
0000
0000
,
0100
0001
0100
0010
1000
0010
1000
0001
,
0010
0100
2000
0000
3000
0002
0000
0003
,
0200
0000
0000
0000
0000
0000
0300
0010
,
1000
0001
0200
0000
0302
0000
0013
0200
,
0000
0320
0000
0000
0230
0000
1300
0020
,
0000
0100
0130
0000
0100
0000
1001
0000
,
0001
0000
0000
1000
0000
0000
0100
0000
0000
0010
0000
0000
0100
0000
0000
0010
0000
0000
1001
0000
0000
0000
1001
0000
,
0000
0000
1001
0000
0000
0000
1000
0000
0000
0100
0000
0000
0010
0000
0000
0001
0000
0000
0001
0000
0000
1000
0000
0000
,
0010
1000
0010
0100
0001
0100
0001
1000
,
0100
0010
0002
0000
0003
2000
0000
3000
,
0020
0000
0000
0000
0000
0000
0030
0100
,
0001
1000
0020
0000
2030
0000
3100
0020
,
0000
0230
0000
0000
0320
0000
0031
0200
,
0000
0320
0000
0000
0032
0000
1003
0200
,
0300
0000
0000
2002
0000
0000
0000
0000
0000
0000
0000
0000
3003
0000
0000
0000
0000
0000
1001
0000
0000
0000
1001
0000
,
0000
0000
1001
0000
0000
0000
0010
0000
0000
0100
0000
0000
0010
0000
0000
0000
0000
0000
1001
0000
0000
0000
1001
0000
,
0000
0000
1001
0000
0000
0000
0100
0000
0000
0010
0000
0000
0100
0000
0000
0000
0000
0000
1001
0000
0000
0000
1001
0000
,
0000
0000
1001
0000
0000
0000
0001
0000
0000
0010
0000
0000
0100
0000
0000
0000
0000
0000
1001
0000
0000
0000
1001
0000
,
0000
0000
1001
0000
0000
0000
1000
0000
0000
0010
0000
0000
0100
0000
0000
0000
0000
0000
0000
0000
1000
0000
0000
0000
,
0001
0000
1000
0001
0000
0000
0110
0000
0000
0001
0000
1000
,
0000
0000
0001
0000
0000
0000
1000
0000
0000
0110
0000
0000
0000
0000
1000
0000
0000
0000
0010
0000
0000
0000
0010
0000
,
0000
0100
0000
0001
0000
0000
1000
0000
0000
0001
0000
0000
,
0100
0010
1000
0001
,
0100
0000
0000
0020
0000
0000
0000
0000
0030
0000
0000
0000
;

//---------------dance-single - ----------------
#NOTES:
     dance-single:
     :
     Hard:
     9:
     0.000,0.000,0.000,0.000,0.000:
0000
0000
0000
0000
,
0000
0000
0000
0000
,
0000
0000
0000
0000
,
0000
0000
0000
0000
0000
0000
0100
0000
0001
0000
1000
0000
,
0010
0100
0010
0100
0010
1000
0001
0020
,
0000
0000
0000
0030
0000
0100
1000
0001
,
0100
0010
0100
0010
0100
0001
1000
0200
,
0000
0000
0000
0000
0000
0000
0300
0010
,
0010
0100
0010
0100
1000
0020
0000
0032
,
0000
0013
1000
0100
0010
0002
0000
2003
,
0000
0000
0000
0000
0000
0000
0000
0000
0000
0000
3000
0000
0000
0000
0100
1000
,
0002
0000
0000
0000
0003
0000
0000
0000
1001
0000
0000
0110
0000
0000
0110
0000
,
0001
1000
0001
1000
0001
0100
0010
2000
,
0100
0000
0100
0000
3100
0010
0001
1000
,
0001
1000
0001
0100
0010
1000
0100
0020
,
0001
0000
0001
0000
0031
0000
0100
0020
,
0000
1030
0100
1000
0010
0200
0000
0302
,
0000
0013
0100
0010
1000
0002
0000
0203
,
1000
0000
1000
0000
1300
0000
1000
0010
,
0100
0000
0001
0000
1000
0000
0100
0000
0010
0001
0010
0001
1000
0100
1000
0100
,
0020
0000
0000
0000
0001
0000
0000
0000
0001
0000
0000
0000
0031
0000
0001
1000
,
0100
0000
0000
0000
,
2000
0000
0001
0000
3000
0000
0001
0000
0000
0000
0020
0030
0200
0300
2000
3000
,
0020
0030
0100
0000
0010
0000
0000
0000
1000
0000
0000
0000
0001
0000
0010
0000
,
0001
0000
1000
0010
1000
0000
0001
0100
,
0001
0000
1000
0100
1000
0002
0203
0320
,
2030
3000
0002
0003
0020
0000
0230
0000
2300
0000
3001
0000
1000
0000
0000
0000
,
0011
0000
1100
0000
0001
0010
0100
0000
,
1000
0010
0000
0100
0001
0000
1000
0000
,
0200
0010
0300
0010
0000
0200
2300
3002
,
0203
0000
0010
0000
0300
0000
0020
0030
2000
0000
0100
0000
3000
0000
0100
0000
,
0010
0000
0002
0000
1003
0000
0020
0000
0230
0000
0301
0000
2000
3000
0002
0003
,
0020
0000
0000
0030
0000
0000
0100
0000
1000
0000
0100
0000
1000
0000
0000
0000
0000
0000
1001
0000
0000
0000
0000
0000
0101
0000
0000
0000
0000
0000
0000
0000
0000
0000
0000
0000
0002
0000
0000
0000
0000
0000
0000
0000
0000
0000
0000
0000
,
0003
0000
1000
0000
1001
0000
0000
0001
0100
0000
1001
0000
0000
1000
0100
0000
,
1001
0000
0000
0001
0010
0000
1001
0000
0000
1000
0010
0000
1001
0000
0010
0000
,
0100
1000
0002
0000
1003
0020
0000
1030
,
0200
0000
0000
1300
0010
0001
0010
1000
,
0001
1000
0010
0000
0010
0100
0010
0000
,
0100
0001
1000
0000
1001
0000
1100
0000
,
0110
0000
0012
0000
0100
0000
1003
0010
,
0100
0010
1000
0100
0010
0001
1000
0001
,
0010
0000
0100
0000
0110
0000
0000
0010
0001
0000
1010
0000
0000
0100
0001
0000
,
1100
0000
0000
0010
0001
0000
1010
0000
0000
0100
0001
0000
0110
0000
1000
0000
,
0001
0100
0020
0000
1030
0200
0000
0310
,
0002
0000
0000
0000
0000
0000
2003
3000
0020
0030
0200
0300
0002
0003
0200
0300
,
0020
0030
2000
3000
1004
0000
0000
0000
1000
0000
0000
0000
0100
0000
0000
0000
,
0103
0011
0110
1100
,
1001
0000
0110
0100
1000
0100
0001
1000
,
1000
0001
0001
0010
1000
0010
0001
0100
,
0100
0000
0010
0000
0010
0000
1000
0000
0001
0000
1000
0000
0001
0100
0001
0100
,
0010
0000
0000
1000
0000
0000
0010
0000
0000
1000
0000
0000
0001
0000
0000
0000
0000
0000
0000
0000
0000
0000
0000
0000
0000
0000
0000
0000
0000
0000
0000
0000
0000
0000
0000
0000
1001
0000
0000
0000
0000
0000
0000
0000
1001
0000
0000
0000
,
0000
0000
1001
0000
0000
0000
1001
0000
0000
0010
0000
0000
0100
0000
0000
1000
0000
0000
0010
0000
0000
0100
0000
0000
,
0100
0001
0001
1000
1000
0100
0100
0010
,
0100
1000
0002
0000
1003
0020
0000
1030
,
0200
0010
0310
0001
1000
0010
1000
0100
,
0010
0001
0100
0001
0100
0010
1000
0010
,
1000
0002
0000
0103
0020
0000
1030
2000
,
0000
3001
1001
0100
0001
0100
0110
0010
,
1001
0000
0000
0000
0000
0000
1001
0000
0000
0000
0000
0000
0001
0000
0000
0010
0000
0000
0100
0000
0000
1000
0000
0000
0001
0000
0000
0100
0000
0000
0010
0000
0000
1000
0000
0000
0001
0000
0000
0000
0000
0000
0000
0000
1000
0000
0000
0000
,
0000
0000
0000
0000
1001
0000
0000
0000
0000
0000
0000
0000
1001
0000
0000
0000
0000
0000
0010
0000
0000
0000
0000
0000
1000
0000
0000
0010
0000
0000
1000
0000
0000
0000
0000
0000
0001
0000
0000
0000
0000
0000
1000
0000
0000
0000
0000
0000
,
0001
0100
0001
0000
1000
0000
0100
0000
0010
0001
0010
0000
0100
0000
0010
0000
,
0100
1000
0100
0000
0010
0000
0001
0000
0100
0010
0100
0000
0001
0000
1000
0000
,
0100
0010
0100
0000
1000
0100
1000
0000
0001
0100
0001
0000
1000
0001
1000
0000
,
0010
0000
0100
0000
0001
0000
0010
0000
0100
1000
0001
0000
0100
0000
0010
0000
,
1000
0001
0100
0000
0001
0000
0100
0000
0010
1000
0001
0000
0100
0000
0010
0000
,
1000
0001
0010
0000
0100
0000
1000
0000
0001
0000
0010
0000
0001
0000
1000
0000
,
0100
0000
0000
0000
0000
0000
1000
0000
0000
0000
0000
0000
0010
0000
0000
0000
0000
0000
0100
0000
0000
0000
0000
0000
0001
0000
0000
0010
0000
0000
0100
0000
0000
1000
0000
0000
0001
0000
0000
0000
0000
0000
0000
0000
1001
0000
0000
0000
,
0000
0000
1000
0000
0000
0000
0020
0000
0000
0001
0000
0000
0130
0000
0000
0000
0000
0000
1000
0000
0000
0000
1001
0000
,
0000
0000
0001
0000
0000
0000
0200
0000
0000
1000
0000
0000
0310
0000
0000
0000
0000
0000
0001
0000
0000
0000
1001
0000
,
0000
0000
1000
0000
0000
0000
0020
0000
0000
0001
0000
0000
0130
0000
0000
0000
0000
0000
1000
0000
0000
0000
1001
0000
,
0000
0000
0000
0000
0001
0000
0000
0000
0000
0000
0000
0000
0200
0000
0000
0000
0000
0000
1000
0000
0000
0000
0000
0000
0310
0000
0000
0000
0000
0000
0000
0000
0000
0000
0000
0000
0011
0000
0000
0000
0000
0000
0000
0000
0000
1010
0000
0000
,
0000
0000
0101
0000
0012
0000
0000
0000
1003
0000
0000
0000
1100
0000
0000
0101
,
0000
0000
0000
1010
0000
0000
2100
0000
0000
0001
0000
0000
3000
0000
0001
0000
0000
0000
0110
0000
0000
0000
1000
0000
,
0000
0110
0000
1001
0000
0000
0010
0000
0000
0001
0000
0000
,
0100
0010
1000
0010
,
0100
0000
0000
0000
0000
0000
0000
0000
0000
0000
0000
0000
0000
0000
0000
0000
0000
0000
0000
0000
0000
0000
0000
0000
0000
0000
0000
0000
0000
0000
0000
0000
0000
0000
0000
0000
0000
0000
0000
0000
0000
0000
0000
0000
0000
0000
0000
0000
0002
0000
0000
0000
0000
0000
0000
0000
0000
0000
0000
0000
0000
0000
0000
0000
0000
0000
0000
0000
0000
0000
0000
0000
0000
0000
0000
0000
0000
0000
0000
0000
0000
0000
0000
0000
0000
0000
0000
0000
0000
0000
0000
0000
0000
0000
0000
0000
0000
0000
0000
0000
0000
0000
0000
0000
0000
0000
0000
0003
0000
0000
0000
0000
0000
0000
0000
0000
0000
0000
0000
0000
0000
0000
0000
0000
0000
0000
0000
0000
0000
0000
0000
0000
0000
0000
0000
0000
0000
0000
0000
0000
0000
0000
0000
0000
0000
0000
0000
0000
0000
0000
0000
0000
0000
0000
0000
0000
0000
0000
0000
0000
0000
0000
0000
0000
0000
0000
0000
0000
0000
0000
0000
0000
0000
0000
0000
0000
0000
0000
0000
0000
0000
0000
0000
0000
0000
0000
0000
0000
0000
0000
0000
0000
;
