#TITLE:Чумачечая Весна;
#SUBTITLE:;
#ARTIST:Потап и Настя;
#TITLETRANSLIT:Chumachechaja Vesna;
#SUBTITLETRANSLIT:;
#ARTISTTRANSLIT:Potap i Nastja;
#CREDIT:Lisek;
#BANNER:[Moon Runes] - Chumachechaja Vesna.png;
#BACKGROUND:[Moon Runes] - Chumachechaja Vesna-bg.png;
#LYRICSPATH:;
#CDTITLE:cdtitle.png;
#MUSIC:[Moon Runes] - Chumachechaja Vesna.ogg;
#OFFSET:-0.312;
#SAMPLESTART:83.030;
#SAMPLELENGTH:14.500;
#SELECTABLE:YES;
#BPMS:0.000=140.000;
#STOPS:;
#BGCHANGES:0.000=[Moon Runes] - Chumachechaja Vesna.avi=1.000=1=1=0,
99999=-nosongbg-=1.000=0=0=0 // don't automatically add -songbackground-
;

//---------------dance-single - Lisek----------------
#NOTES:
     dance-single:
     Lisek:
     Hard:
     8:
     0.482,0.572,0.118,0.032,0.126: // measure 1
0000
0000
0000
0000
,  // measure 2
0000
0000
0000
0000
,  // measure 3
0000
0000
0000
0000
,  // measure 4
0000
0000
0000
0000
,  // measure 5
0000
0000
0000
0000
,  // measure 6
0000
0000
0000
0000
,  // measure 7
0000
0000
0000
0000
,  // measure 8
0000
0000
0000
0000
,  // measure 9
1000
0000
0001
0000
1000
0010
0100
0010
,  // measure 10
1000
0100
0010
0000
0001
0100
1000
0100
,  // measure 11
0001
0000
1001
0000
0001
0010
0100
1000
,  // measure 12
0010
0100
0001
1000
0100
0010
0001
1000
,  // measure 13
0001
0000
1001
0000
1000
0001
0100
0001
,  // measure 14
1000
0001
0010
0000
0100
1000
0001
0100
,  // measure 15
0010
0000
0110
0000
0010
1000
0100
0001
,  // measure 16
0100
1000
0010
0001
0010
1000
0001
0000
,  // measure 17
1000
0000
0001
0000
1001
0000
1000
0010
,  // measure 18
0100
0001
0100
0010
1000
0100
0010
0001
,  // measure 19
0000
0000
0010
0001
0100
0000
0010
1000
,  // measure 20
0000
0100
0000
0010
0000
0001
1000
0000
,  // measure 21
0010
0100
0000
0001
1001
0000
0001
0100
,  // measure 22
0010
1000
0100
0010
0100
1000
0001
0100
,  // measure 23
0000
0000
0001
0010
0100
0000
1000
0010
,  // measure 24
0000
0100
0000
0001
0000
0000
0010
0100
,  // measure 25
1000
0001
0100
0010
0110
0000
1000
0100
,  // measure 26
0010
0100
0000
1000
0000
0001
0000
1000
,  // measure 27
0000
0010
0000
0100
0000
0001
0000
1000
,  // measure 28
0000
0100
0000
1000
0000
0001
0000
0100
,  // measure 29
0000
0010
0000
1000
1001
0000
0001
0010
,  // measure 30
0100
0010
0000
0001
0000
0100
0000
0010
,  // measure 31
0000
1000
0000
0100
0000
1000
0000
0001
,  // measure 32
0000
0100
0000
0010
0000
1000
0100
0010
,  // measure 33
0000
0000
0001
0000
0010
0000
0100
0000
1000
0001
0100
0001
1000
0000
0001
0000
,  // measure 34
1000
0000
0010
0000
0100
0000
0001
0000
1000
0100
1000
0010
1000
0000
0001
0000
,  // measure 35
0100
0000
0001
0000
1000
0000
0010
0000
0100
0001
1000
0001
0100
0000
0010
0000
,  // measure 36
1000
0000
0001
0000
1000
0010
1000
0100
0020
0000
0000
0000
0000
0000
0130
0000
,  // measure 37
1000
0000
0010
0000
1000
0000
0010
0000
1000
0001
0100
0001
1000
0000
0000
0000
,  // measure 38
0000
0000
0010
0000
0000
0000
1000
0000
0001
1000
0010
1000
0001
0000
0000
0000
,  // measure 39
0100
0000
0010
0000
1000
0000
0100
0020
,  // measure 40
0000
0000
0000
0000
0000
0000
0000
0000
0031
0010
0001
0000
0000
0000
1000
0000
,  // measure 41
0010
1000
0010
1000
0001
0100
0001
0000
1000
0000
0010
0000
1000
0000
0100
0000
,  // measure 42
0010
0001
1000
0000
0001
0010
0100
1000
,  // measure 43
0001
0000
1001
0000
0001
0100
1000
0000
,  // measure 44
0100
0001
0010
0100
0010
0001
1000
0100
,  // measure 45
1000
0000
1010
0000
1000
0001
0100
0001
,  // measure 46
1000
0100
0010
0100
1000
0001
0010
0001
,  // measure 47
0011
0000
0010
0000
0001
0100
1000
0100
,  // measure 48
0001
1000
0100
0001
0100
0000
0010
0000
,  // measure 49
0001
0000
1000
0000
1001
0000
0001
1000
,  // measure 50
0100
0010
0100
1000
0001
0100
0010
0100
,  // measure 51
0000
0000
0001
0010
0100
0000
1000
0010
,  // measure 52
0000
0100
0000
0001
0000
0010
0100
0000
,  // measure 53
0010
0001
1000
0010
0110
0000
0010
0000
,  // measure 54
1000
0100
0010
0001
1000
0010
0100
0010
,  // measure 55
0000
0000
1000
0100
0010
0000
0001
1000
,  // measure 56
0000
0010
0000
0100
0000
0000
0001
0010
,  // measure 57
0100
1000
0000
0010
1010
0000
1000
0100
,  // measure 58
0010
0001
0000
0100
0000
0010
0000
0100
,  // measure 59
0000
0001
0000
1000
0000
0100
0000
0010
,  // measure 60
0000
0001
0000
1000
0000
0010
0000
0100
,  // measure 61
0000
0010
0000
1000
1010
0000
0010
1000
,  // measure 62
0100
0010
0000
0001
0000
0100
0000
0001
,  // measure 63
0000
1000
0000
0100
0000
0010
0000
0100
,  // measure 64
0000
1000
0000
0001
0000
0100
0010
1000
,  // measure 65
0000
0000
0100
0000
0010
0000
0001
0000
1000
0100
1000
0010
1000
0000
0010
0000
,  // measure 66
0100
0000
0001
0000
0010
0000
0001
0000
0100
0010
0100
0001
0100
0000
0010
0000
,  // measure 67
1000
0000
0100
0000
1000
0000
0010
0000
1000
0010
1000
0001
1000
0000
0100
0000
,  // measure 68
0010
0000
0001
0000
0100
0010
1000
0001
0200
0000
0000
0000
0000
0000
0301
0000
,  // measure 69
0010
0000
0001
0000
1000
0000
0001
0000
0100
0010
1000
0100
0010
0000
0000
0000
,  // measure 70
0000
0000
0001
0000
0000
0000
1000
0000
0010
0100
0001
0100
0010
0000
0000
0000
,  // measure 71
1000
0000
0001
0000
0100
0000
0010
2000
,  // measure 72
0000
0000
0000
0000
0000
0000
0000
0000
3001
0100
0001
0000
0000
0000
1000
0000
,  // measure 73
0010
0100
0010
0100
0001
1000
0001
0000
1001
0000
0000
0000
0000
0000
0000
0000
;

//---------------dance-single - ----------------
#NOTES:
     dance-single:
     Lisek:
     Medium:
     5:
     0.338,0.343,0.110,0.110,0.000:
0000
0000
0000
0000
,
0000
0000
0000
0000
,
0000
0000
0000
0000
,
0000
0000
0000
0000
,
0000
0000
0000
0000
,
0000
0000
0000
0000
,
0000
0000
0000
0000
,
0000
0000
0000
0000
,
1000
0001
1000
0010
,
0100
0010
1000
0000
0100
0000
0010
0000
,
0001
1001
1000
0010
,
0100
0001
0010
0000
0100
0000
1000
0000
,
0001
1001
1000
0010
,
1000
0100
0010
0000
0001
0000
0100
0000
,
0001
1001
1000
0100
,
1000
0100
1000
0000
0001
0000
0100
0000
,
0010
0110
1001
1000
,
0010
0000
1000
0000
0100
1000
0100
1000
,
0000
0010
0100
0001
,
0010
0001
1000
0010
,
0100
0010
0000
0100
0000
0000
0000
0000
,
0001
0000
0010
0000
0100
1000
0100
1000
,
0000
0100
0010
0001
,
1000
0000
0010
0000
0100
0000
0001
0100
,
0010
0100
0001
0100
0000
0000
0001
0000
,
1000
0010
0100
0001
,
1000
0010
0100
0010
,
1000
0100
0010
0001
,
1000
0001
1001
1000
,
0010
0100
0010
1000
,
0001
0100
0010
1000
,
0001
0000
0100
0000
0001
0000
1000
0001
,
0000
1000
0001
1000
0002
0000
1003
0000
,
0010
0100
0020
0130
,
0010
1000
0200
1300
,
0001
0200
0301
1000
,
0010
0100
0002
0013
,
0001
0100
0020
0130
,
0010
0000
1000
0000
0001
0000
1000
0002
,
0000
0000
1003
0000
,
0001
1000
0001
0100
,
0010
1000
0100
0000
0010
0000
0001
0000
,
1000
1001
0001
1000
,
0010
0100
0001
0000
1000
0000
0100
0000
,
1000
1001
1000
0010
,
1000
0100
0010
0000
0001
0000
0100
0000
,
0110
0000
0010
1000
,
0100
0010
0001
1000
,
0001
1001
1001
1000
,
0001
0000
0100
0000
0001
0100
0001
0100
,
0000
0010
1000
0100
,
0010
0001
1000
0010
,
1000
0001
1001
1000
,
0001
0000
0100
0000
0010
0100
0010
0100
,
0000
0010
1000
0100
,
0010
0000
0001
0000
1000
0000
0001
1000
,
0001
0100
0001
1000
0000
0000
0010
0000
,
0100
0001
0010
0100
,
1000
0100
0010
0001
,
1000
0010
0100
0001
,
1000
0001
1001
1000
,
0100
0010
0001
1000
,
0010
0100
0010
1000
,
0100
0000
0010
0000
0001
0000
1000
0001
,
0000
1000
0001
1000
0020
0000
0130
0000
,
0001
0010
0200
1300
,
0010
0100
0002
1003
,
0100
0020
0031
1000
,
0010
1000
0200
1300
,
0010
0100
0002
0013
,
0001
0000
1000
0000
0001
0000
1000
0002
,
0000
0000
1003
0000
,
0001
1000
1001
0000
;

//---------------dance-single - ----------------
#NOTES:
     dance-single:
     Lisek:
     Beginner:
     1:
     0.083,0.114,0.008,0.110,0.000:
0000
0000
0000
0000
,
0000
0000
0000
0000
,
0000
0000
0000
0000
,
0000
0000
0000
0000
,
0000
0000
0000
0000
,
0000
0000
0000
0000
,
0000
0000
0000
0000
,
0000
0000
0000
0000
,
0000
0000
1000
0000
,
0000
0000
0001
0000
,
0000
0000
0100
0000
,
0000
0000
0010
0000
,
0000
0000
1000
0000
,
0000
0000
0001
0000
,
0000
0000
0200
0000
,
0000
0000
0300
0000
,
0000
0000
0001
0000
,
0000
0000
1000
0000
,
0000
0000
0010
0000
,
0000
0000
0100
0000
,
0000
0000
0001
0000
,
0000
0000
0010
0000
,
0000
0000
0100
0000
,
0000
0000
1000
0000
,
0000
0000
0001
0000
,
0000
0000
1000
0000
,
0000
0000
0010
0000
,
0000
0000
0100
0000
,
0000
0000
0001
0000
,
0000
0000
1000
0000
,
0000
0000
0010
0000
,
0000
0000
0100
0000
,
0000
0000
0002
0000
,
0003
0000
2000
0000
,
3000
0000
0002
0000
,
0003
0000
0000
0000
,
0000
0000
2000
0000
,
3000
0000
0002
0000
,
0003
0000
2000
0000
,
0000
0000
3000
0000
,
0000
0000
0001
0000
,
0000
0000
0100
0000
,
0000
0000
0010
0000
,
0000
0000
1000
0000
,
0000
0000
0001
0000
,
0000
0000
0010
0000
,
0000
0000
0200
0000
,
0000
0000
0300
0000
,
0000
0000
1000
0000
,
0000
0000
0001
0000
,
0000
0000
0100
0000
,
0000
0000
0010
0000
,
0000
0000
1000
0000
,
0000
0000
0100
0000
,
0000
0000
1000
0000
,
0000
0000
0001
0000
,
0000
0000
0100
0000
,
0000
0000
0010
0000
,
0000
0000
1000
0000
,
0000
0000
0001
0000
,
0000
0000
0100
0000
,
0000
0000
0001
0000
,
0000
0000
1000
0000
,
0000
0000
0010
0000
,
0000
0000
2000
0000
,
3000
0000
0002
0000
,
0003
0000
2000
0000
,
3000
0000
0000
0000
,
0000
0000
0002
0000
,
0003
0000
2000
0000
,
3000
0000
0002
0000
,
0000
0000
0003
0000
,
0000
0000
1001
0000
;

//---------------dance-single - ----------------
#NOTES:
     dance-single:
     Lisek:
     Easy:
     2:
     0.165,0.200,0.039,0.126,0.000:
0000
0000
0000
0000
,
0000
0000
0000
0000
,
0000
0000
0000
0000
,
0000
0000
0000
0000
,
0000
0000
0000
0000
,
0000
0000
0000
0000
,
0000
0000
0000
0000
,
0000
0000
0000
0000
,
0000
0000
1000
0000
,
0000
0000
0010
0000
,
0000
0000
1000
0000
,
0001
0000
0100
0000
,
0001
0000
1000
0000
,
0000
0000
0010
0000
,
0000
0000
1000
0000
,
0100
0000
1000
0000
,
0001
0000
0100
0000
,
0001
0000
1000
0000
,
0010
0000
1000
0000
,
0100
0000
1000
0000
,
0001
0000
1001
0000
,
1000
0000
0001
0000
,
0100
0000
0010
0000
,
1000
0000
0001
0000
,
1000
0000
1001
0000
,
0001
0000
0010
0000
,
0001
0000
0100
0000
,
0010
0000
1000
0001
,
1000
0001
1000
0000
,
0001
0000
0100
0000
,
0010
0000
1000
0000
,
0001
0000
1000
0001
,
1000
0001
1000
2000
,
0000
0000
3001
0002
,
0000
0000
1003
2000
,
0000
3001
0002
0000
,
0000
0000
1003
2000
,
0000
3001
0002
0000
,
0000
1003
2002
0000
,
0000
0000
3003
0000
,
0000
0000
0001
0000
,
0000
0000
0100
0000
,
0000
0000
0010
0000
,
1000
0000
0001
0000
,
0100
0000
0001
0000
,
0000
0000
1000
0000
,
0000
0000
0010
0000
,
1000
0000
0001
0000
,
0100
0000
0001
0000
,
1000
0000
0010
0000
,
1000
0000
0100
0000
,
0010
0000
0001
0000
,
1000
0000
0001
0000
,
0100
0000
0010
0000
,
1000
0000
0100
0000
,
1000
0000
0001
0000
,
1000
0000
0001
0000
,
0100
0000
0010
0000
,
1000
0000
0100
0000
,
0010
0000
0001
1000
,
0001
1000
0001
0000
,
1000
0000
0010
0000
,
0100
0000
0010
0000
,
1000
0000
0001
1000
,
0001
1000
0001
0002
,
0000
0000
1003
2000
,
0000
0000
3001
0002
,
0000
1003
2000
0000
,
0000
0000
3001
0002
,
0000
1003
2000
0000
,
0000
3001
2002
0000
,
0000
0000
3003
0000
,
0000
0000
1001
0000
;
