#VERSION:0.81;
#TITLE:チョコレイト・ディスコ;
#SUBTITLE:;
#ARTIST:PERFUME;
#TITLETRANSLIT:CHOKOREITO DISUKO;
#SUBTITLETRANSLIT:;
#ARTISTTRANSLIT:;
#GENRE:;
#ORIGIN:;
#CREDIT:;
#BANNER:Chokoreito Disuko-bn.png;
#BACKGROUND:Chokoreito Disuko-bg.png;
#PREVIEWVID:;
#JACKET:Chokoreito Disuko-Jacket.png;
#CDIMAGE:;
#DISCIMAGE:;
#LYRICSPATH:;
#CDTITLE:;
#MUSIC:Chokoreito Disuko.mp3;
#OFFSET:-4.009000;
#SAMPLESTART:67.723999;
#SAMPLELENGTH:12.000000;
#SELECTABLE:YES;
#BPMS:0.000=127.980;
#STOPS:;
#DELAYS:;
#WARPS:;
#TIMESIGNATURES:0.000=4=4;
#TICKCOUNTS:0.000=4;
#COMBOS:0.000=1;
#SPEEDS:0.000=1.000=0.000=0;
#SCROLLS:0.000=1.000;
#FAKES:;
#LABELS:0.000=Song Start;
#BGCHANGES:;
#KEYSOUNDS:;
#ATTACKS:
;

//---------------dance-single - ----------------
#NOTEDATA:;
#CHARTNAME:;
#STEPSTYPE:dance-single;
#DESCRIPTION:;
#CHARTSTYLE:;
#DIFFICULTY:Hard;
#METER:8;
#RADARVALUES:0.504774,0.412791,0.284683,0.008373,0.180020,387.000000,34.000000,1.000000,0.000000,0.000000,0.000000,0.000000,0.000000,0.504774,0.412791,0.284683,0.008373,0.180020,387.000000,34.000000,1.000000,0.000000,0.000000,0.000000,0.000000,0.000000;
#CREDIT:;
#NOTES:
0001
0000
1000
0000
0010
0000
0100
0000
0001
0000
0000
0010
0000
0000
0100
0000
,
0010
0000
0001
0000
1000
0000
0100
0000
0010
0000
0000
0001
0000
0000
0100
0000
,
0001
0010
0001
0100
0010
0010
1000
0000
,
0010
0100
0010
1000
0001
0001
0010
0000
,
0001
1000
0001
0010
0100
0100
1000
0000
,
0010
0100
0010
1000
0001
0001
0010
0000
,
0100
1000
0100
0010
0001
0100
0001
0000
,
1000
0010
1000
0100
0010
0001
0010
0000
,
0001
0100
0001
0010
0100
1000
0100
0000
,
0010
0001
0010
0100
0010
0000
0101
0100
,
1100
0000
0000
0000
1000
0000
0000
0000
0001
0010
0000
0010
0001
0000
0100
0000
,
0010
1000
0010
0100
0001
0000
1100
0100
,
0101
0000
0000
0000
0001
0000
0000
0000
1000
0100
0000
0100
1000
0000
0010
0000
,
0100
0001
0010
0100
1000
0000
0011
0010
,
1010
0000
0000
0000
1000
0000
0000
0000
0001
1000
0000
1000
0001
0000
0010
0000
,
0100
1000
0100
0010
0001
0000
1010
0010
,
0011
0000
0000
0000
0001
0000
0000
0000
1000
0001
0000
0001
1000
0000
0100
0000
,
0011
0011
0012
0103
,
1000
0000
0010
0000
0100
0000
0001
0000
0010
0000
0000
0100
0000
0000
1000
0000
,
0001
0000
0100
0000
0010
0000
1000
0100
0000
0010
0000
0001
1000
0001
1000
0000
,
0000
0000
0100
0000
1000
0000
0010
0000
0100
0000
0000
0001
0000
0000
0010
0000
,
0100
0000
1000
0000
0010
0000
0100
0001
0000
0010
0000
0100
1000
0100
1000
0000
,
0000
0000
0010
0000
0100
0000
0001
0000
0010
0000
0000
0100
0000
0000
1000
0000
,
0001
0000
1000
0000
0100
0000
0010
0001
0000
1000
0000
0010
0100
0010
0100
0000
,
0000
0000
0001
0000
0010
0000
0100
0000
1000
0000
0000
0001
0000
0000
0100
0000
,
0010
0000
1000
0000
0100
0000
0010
0001
0000
0000
0000
0000
0011
0000
1000
0000
,
0100
0000
0000
1000
0000
0000
0001
0000
0010
0000
0000
0001
0000
0000
0100
0000
,
0010
0000
0000
0100
0000
0000
0001
0000
1000
0010
1000
0000
0000
0000
0001
0000
,
1000
0000
0000
0001
0000
0000
1000
0000
0010
0000
0000
1000
0000
0000
0100
0000
,
0010
0000
0000
0100
0000
0000
1000
0000
0001
0100
0001
0000
0000
0000
0010
0000
,
0001
0000
0000
0010
0000
0000
0100
0000
0010
0000
0000
0100
0000
0000
1000
0000
,
0100
0000
0000
1000
0000
0000
0001
0000
0100
0010
0100
0000
0000
0000
0001
0000
,
1000
0100
0010
0001
,
1100
1010
0101
0011
,
0100
1000
0001
0100
0010
1000
0010
0000
,
0100
0001
1000
0100
0010
0001
0010
0000
,
0001
1000
0001
0010
0100
1000
0100
0000
,
0010
0001
1000
0010
0100
0001
0100
0000
,
0001
0010
1000
0010
0100
0001
0100
0000
,
1000
0010
0001
0010
0100
1000
0100
0000
,
0001
0100
1000
0100
0010
0001
0010
0000
,
1000
0000
0001
0000
0100
0000
0010
0000
0100
0001
0000
0001
1000
0000
0100
0000
,
0001
0000
0100
1000
0010
0000
1000
0100
,
0001
0000
0100
1000
0010
0000
0001
0010
,
1000
0000
0010
0001
0100
0000
0001
0010
,
1000
0000
0010
0001
0100
0000
1000
0100
,
0001
0000
0100
1000
0010
0000
1000
0100
,
0001
0000
0100
1000
0010
0000
0001
0010
,
1000
0000
0010
0001
0100
0000
0001
0010
,
1000
0000
1100
0000
0101
0000
1010
0010
,
0011
0000
0000
0000
0001
0000
0000
0000
1000
0010
0000
0010
1000
0000
0000
0000
,
0100
1000
0001
0100
0010
0000
1100
0100
,
0101
0000
1010
1000
1100
0000
0001
0000
,
0100
0001
1000
0010
0100
0000
0011
0010
,
1010
0000
0101
0001
0011
0000
1000
0000
,
0010
1000
0001
0010
0100
0000
1010
1000
,
1100
0000
0101
0100
1100
0000
0001
0000
,
0010
0001
1000
0010
0100
0000
0101
0100
,
1100
0000
0000
0000
;

//---------------dance-single - ----------------
#NOTEDATA:;
#CHARTNAME:;
#STEPSTYPE:dance-single;
#DESCRIPTION:;
#CHARTSTYLE:;
#DIFFICULTY:Medium;
#METER:6;
#RADARVALUES:0.342098,0.339945,0.100476,0.066984,0.000000,266.000000,12.000000,8.000000,0.000000,0.000000,0.000000,0.000000,0.000000,0.342098,0.339945,0.100476,0.066984,0.000000,266.000000,12.000000,8.000000,0.000000,0.000000,0.000000,0.000000,0.000000;
#CREDIT:;
#NOTES:
2000
0000
0100
3100
,
0002
0000
0010
0013
,
0100
0000
1000
0000
0001
0010
0100
0000
,
1000
0000
0010
0000
0100
0001
0010
0000
,
0100
0000
1000
0000
0001
0100
0010
0000
,
1000
0000
0001
0000
0010
0001
0100
0000
,
1000
0010
1000
0000
0010
1000
0010
0000
,
0100
0001
0100
0000
0001
0100
0001
0000
,
0010
0001
0010
0000
0001
0010
0001
0000
,
1100
0011
2100
0100
,
3100
0010
0001
0100
,
0010
1000
0001
1000
0010
0000
1000
0100
,
1000
0000
0100
0000
,
0010
0001
1000
0001
0010
0000
0001
0100
,
0001
0000
0100
0000
,
0001
1000
0001
0100
0001
0000
0010
0001
,
0010
0000
0000
0000
0000
0000
1000
0001
,
1000
1001
0210
0310
,
1000
0001
0200
0300
,
0010
0100
0010
1000
0010
0000
0000
0000
,
0100
0001
2000
3000
,
0001
0010
0001
1000
0001
0000
0000
0000
,
0000
1000
0010
1000
0010
0000
0100
0000
,
0001
0000
0010
0001
0010
0000
0000
0000
,
0000
0100
1000
0100
1000
0000
0001
0000
,
0100
0000
0010
0100
0010
0000
0000
1000
,
0100
0000
0010
0001
0010
0000
0000
0000
,
0001
0000
0001
0000
0001
0000
0000
1000
,
0100
0000
0010
0001
0010
0000
0000
0000
,
0100
0000
0100
0000
0100
0000
0000
1000
,
0100
0000
0010
0001
0010
0000
0000
0000
,
1000
1000
1000
0000
,
0001
0100
0010
1000
,
1002
0103
2001
3100
,
1000
0000
0100
0000
0010
0001
0010
0000
,
0001
0000
0100
0000
0010
1000
0010
0000
,
1000
0000
0001
0000
0010
0100
0010
0000
,
0001
0000
1000
0000
0100
0010
0100
0000
,
1000
0100
1000
0000
0100
1000
0100
0000
,
0010
0001
0010
0000
0001
0010
0001
0000
,
0100
0001
0100
0000
0001
0100
0001
0000
,
1000
0010
1000
0001
1000
0000
0010
0000
,
1000
0100
0001
0010
,
1000
0100
0001
0010
,
1000
0100
0001
0010
,
0001
0100
1000
0010
,
0001
0100
1000
0010
,
0001
0100
1000
0010
,
0001
0100
1000
0010
,
1001
0110
1001
0110
,
1001
0000
1000
0000
,
0001
1000
0100
0000
0100
0000
0010
0001
,
0010
0000
0001
0100
0001
0000
0000
0000
,
1000
0001
0100
0000
0100
0000
0010
1000
,
0010
0000
1000
0100
1000
0000
0000
0000
,
0001
1000
0010
0000
0010
0000
0100
0001
,
0100
0000
0001
0010
0001
0000
0000
0000
,
1000
0100
0010
0001
0010
0000
0100
1000
,
0100
0000
0000
0000
;

//---------------dance-single - ----------------
#NOTEDATA:;
#CHARTNAME:;
#STEPSTYPE:dance-single;
#DESCRIPTION:;
#CHARTSTYLE:;
#DIFFICULTY:Easy;
#METER:3;
#RADARVALUES:0.230857,0.218536,0.133969,0.108849,0.000000,164.000000,16.000000,13.000000,0.000000,0.000000,0.000000,0.000000,0.000000,0.230857,0.218536,0.133969,0.108849,0.000000,164.000000,16.000000,13.000000,0.000000,0.000000,0.000000,0.000000,0.000000;
#CREDIT:;
#NOTES:
2000
0000
3020
0000
,
0032
0000
0203
0000
,
1300
0000
0100
0000
,
0001
0000
0010
0000
,
1000
0000
0100
0000
,
0001
0000
0010
0000
,
1000
0010
1000
0010
,
0100
0001
0100
0001
,
0010
0100
0010
0100
,
1000
0001
1000
1001
,
1001
0000
1000
0000
,
0001
0100
0001
0100
,
0101
0000
0000
0000
,
0010
1000
0010
1000
,
1010
0000
0000
0000
,
0001
0010
0001
0010
,
0011
0000
0000
0000
,
1001
1001
1001
0000
,
0010
0000
0100
0000
,
0010
0100
0010
0000
,
1000
0000
0001
0000
,
1000
0001
1000
0000
,
0001
0000
0010
0000
,
0100
1000
0100
0000
,
1000
0000
0010
0000
,
0100
0001
0100
0000
,
2000
0000
3002
0000
,
0203
0000
0010
0310
,
2000
0000
3002
0000
,
0203
0000
0010
0310
,
2000
0000
3002
0000
,
0203
0000
0010
0310
,
1000
1000
0001
0001
,
1000
0001
1000
0001
,
1000
0100
1000
0100
,
0010
0001
0010
0001
,
0100
0001
0100
0001
,
1000
0010
1000
0010
,
1000
1000
0001
0001
,
0100
0100
0010
0010
,
1000
1000
0001
0001
,
0100
0100
0100
0000
,
0010
0000
1000
0000
,
0100
0000
0001
0000
,
0010
0000
1000
0000
,
0100
0000
0001
0000
,
0010
0000
1000
0000
,
0100
0000
0001
0000
,
0010
0000
1000
0000
,
0100
0100
0100
0000
,
1001
0000
1000
0000
,
0001
0100
0001
0100
,
0101
0000
0101
0000
,
1000
0100
1000
0100
,
1100
0000
1100
0000
,
0010
0100
0010
0100
,
0110
0000
0110
0000
,
0001
1000
0001
1000
,
1001
0000
0000
0000
;

//---------------dance-single - ----------------
#NOTEDATA:;
#CHARTNAME:;
#STEPSTYPE:dance-single;
#DESCRIPTION:;
#CHARTSTYLE:;
#DIFFICULTY:Beginner;
#METER:1;
#RADARVALUES:0.141145,0.145691,0.058611,0.016746,0.000000,109.000000,7.000000,2.000000,0.000000,0.000000,0.000000,0.000000,0.000000,0.141145,0.145691,0.058611,0.016746,0.000000,109.000000,7.000000,2.000000,0.000000,0.000000,0.000000,0.000000,0.000000;
#CREDIT:;
#NOTES:
// measure 0
2000
0000
0000
3000
,  // measure 1
0002
0000
0000
0003
,  // measure 2
1000
0000
0000
0000
,  // measure 3
1000
0000
0000
0000
,  // measure 4
0001
0000
0000
0000
,  // measure 5
0001
0000
0000
0000
,  // measure 6
0100
0000
0100
0000
,  // measure 7
0010
0000
0010
0000
,  // measure 8
0100
0000
0100
0000
,  // measure 9
0010
0000
0000
0000
,  // measure 10
1001
0000
0000
0000
,  // measure 11
1000
0000
1000
0000
,  // measure 12
1000
0000
0000
0000
,  // measure 13
0001
0000
0001
0000
,  // measure 14
0001
0000
0000
0000
,  // measure 15
0010
0000
0010
0000
,  // measure 16
0010
0000
0000
0000
,  // measure 17
0100
0100
0100
0000
,  // measure 18
1000
0000
1000
0000
,  // measure 19
1000
0000
1000
0000
,  // measure 20
0001
0000
0001
0000
,  // measure 21
0001
0000
0001
0000
,  // measure 22
0100
0000
0100
0000
,  // measure 23
0100
0000
0100
0000
,  // measure 24
0010
0000
0010
0000
,  // measure 25
0010
0000
0010
0000
,  // measure 26
1000
0000
0001
0000
,  // measure 27
1000
0000
0001
0000
,  // measure 28
0100
0000
0010
0000
,  // measure 29
0100
0000
0010
0000
,  // measure 30
1000
0000
0001
0000
,  // measure 31
1000
0000
0001
0000
,  // measure 32
0100
0000
0100
0000
,  // measure 33
0100
0100
0100
0000
,  // measure 34
0001
0000
0001
0000
,  // measure 35
1000
0000
1000
0000
,  // measure 36
0010
0000
0010
0000
,  // measure 37
0100
0000
0100
0000
,  // measure 38
0001
0001
0001
0000
,  // measure 39
1000
1000
1000
0000
,  // measure 40
0010
0010
0010
0000
,  // measure 41
0100
0100
0100
0000
,  // measure 42
1001
0000
1000
0000
,  // measure 43
1000
0000
0001
0000
,  // measure 44
0001
0000
1000
0000
,  // measure 45
1000
0000
0001
0000
,  // measure 46
0001
0000
0100
0000
,  // measure 47
0100
0000
0010
0000
,  // measure 48
0010
0000
0100
0000
,  // measure 49
0100
0100
0100
0000
,  // measure 50
1001
0000
0000
0000
,  // measure 51
1000
0000
1000
0000
,  // measure 52
1001
0000
0000
0000
,  // measure 53
0001
0000
0001
0000
,  // measure 54
1001
0000
0000
0000
,  // measure 55
0010
0000
0010
0000
,  // measure 56
0110
0000
0000
0000
,  // measure 57
0100
0000
0100
0000
,  // measure 58
0110
0000
0000
0000
;
