#TITLE:Chocolate Disco;
#SUBTITLE:;
#ARTIST:Perfume;
#TITLETRANSLIT:;
#SUBTITLETRANSLIT:;
#ARTISTTRANSLIT:;
#CREDIT:;
#BANNER:chocolate disco-bn.png;
#BACKGROUND:chocolate disco-bg.png;
#LYRICSPATH:;
#CDTITLE:;
#MUSIC:05. Chocolate Disco.mp3;
#OFFSET:0.140;
#SAMPLESTART:82.777;
#SAMPLELENGTH:12.000;
#SELECTABLE:YES;
#BPMS:0.000=128.000;
#STOPS:;
#BGCHANGES:;

//---------------dance-single - ----------------
#NOTES:
     dance-single:
     :
     Hard:
     8:
     0.471,0.454,0.042,0.092,0.159: // measure 1
0000
0000
0000
0000
,  // measure 2
0000
0000
0000
0000
,  // measure 3
0000
0000
0000
0000
,  // measure 4
0000
0000
0000
0000
,  // measure 5
0000
0000
1000
0000
0100
0000
0010
0001
,  // measure 6
0010
0000
0001
0000
0100
0000
0010
1000
,  // measure 7
0010
0000
1000
0000
0100
0000
0010
0100
,  // measure 8
0010
0000
0001
0000
1000
0000
0001
1000
,  // measure 9
0001
0000
1000
0100
1000
0010
1000
0001
,  // measure 10
1000
0000
0001
0100
0001
1000
0001
0010
,  // measure 11
0001
0000
0001
0100
0010
1000
0010
0100
,  // measure 12
0010
0110
0000
0000
,  // measure 13
0000
0000
0000
0000
0001
0000
1000
0000
0001
0000
0100
0000
0010
0000
0000
0010
,  // measure 14
1000
0000
0010
0000
1000
0000
0100
0000
0010
0000
0001
0000
0010
0000
0000
0010
,  // measure 15
0001
0000
1000
0000
0001
0000
0100
0000
0010
0000
1000
0000
0010
0000
0000
0010
,  // measure 16
1000
0000
0100
0000
1000
0000
0001
0000
0100
0000
0001
0000
0010
0000
0000
0010
,  // measure 17
0001
0000
0010
0000
0100
0000
1000
0000
0010
0000
0100
0000
0001
0000
0000
0001
,  // measure 18
1000
0000
0001
0000
0100
0000
0010
0000
1000
0000
0010
0000
0100
0000
0000
0100
,  // measure 19
0010
0000
1000
0000
0001
0000
0100
0000
0010
0000
1000
0000
0001
0000
0000
0001
,  // measure 20
0100
0010
0200
0000
0010
0000
0310
0000
,  // measure 21
1001
0000
0000
0000
0001
0000
0100
0000
0010
0000
1000
0000
0001
0000
0000
1000
,  // measure 22
0000
0000
0001
0000
1000
0000
0100
0000
1000
0000
0010
0100
0000
0000
0000
0000
,  // measure 23
0001
0000
0000
0000
0010
0000
0001
0000
1000
0000
0001
0000
0100
0000
0000
0100
,  // measure 24
0000
0000
0001
0000
0010
0000
0001
0000
0100
0000
0010
1000
0000
0000
0000
0000
,  // measure 25
0100
0000
0000
0000
0010
0000
0100
0000
0010
0000
0001
0000
1000
0000
0000
0001
,  // measure 26
0000
0000
0100
0000
0001
0000
0100
0000
0010
0000
1000
0100
0000
0000
0000
0000
,  // measure 27
0010
0000
0000
0000
0001
0000
0100
0000
0010
0000
1000
0000
0001
0000
0000
0100
,  // measure 28
0000
0000
0001
0000
1000
0000
0100
0000
1000
0000
0001
1000
0000
0000
0001
0010
,  // measure 29
0100
1000
0000
0000
0001
0000
0100
0000
1000
0000
0100
0000
0010
0000
0000
1000
,  // measure 30
0000
0000
0100
0000
1000
0000
0010
0000
0100
0000
0001
0010
0000
0000
0000
0000
,  // measure 31
0100
0000
1000
0000
0001
0000
0010
0000
1000
0000
0010
0000
0100
0000
0000
0010
,  // measure 32
0000
0000
0001
0000
1000
0000
0010
0000
0100
0000
0010
1000
0000
0000
0000
0000
,  // measure 33
0001
0000
0010
0000
0001
0000
1000
0000
0001
0000
0010
0000
0100
0000
0000
1000
,  // measure 34
0000
0000
0010
0000
1000
0000
0100
0000
0001
0000
0100
1000
0000
0000
0000
0000
,  // measure 35
0010
0000
0100
0000
0001
0000
1000
0000
0001
0000
0100
0000
0010
0000
0000
0100
,  // measure 36
0000
0000
0010
0000
1000
0000
0100
0000
1000
0000
0001
0100
0000
0000
0000
0000
,  // measure 37
0110
0000
0000
0000
0200
0000
0000
0301
0000
0000
0100
0000
0020
0000
0000
1030
,  // measure 38
0000
0000
0010
0000
2000
0000
0000
3100
0000
0000
0010
0000
0001
0100
0001
0000
,  // measure 39
0100
0000
0010
0000
0200
0000
0000
0301
0000
0000
0001
0000
0200
0000
0000
0310
,  // measure 40
0000
0000
1000
0000
0002
0000
0000
0013
0000
0000
0100
0000
1000
0100
1000
0000
,  // measure 41
0001
0000
0100
0000
0020
0000
0000
1030
0000
0000
0010
0000
2000
0000
0000
3001
,  // measure 42
0000
0000
0100
0000
0002
0000
0000
0013
0000
0000
0100
0000
0010
0100
0010
0000
,  // measure 43
0001
1000
0001
0100
1000
0100
0001
0010
,  // measure 44
0100
1000
0020
0000
0001
0000
0130
0000
,  // measure 45
1001
0000
1000
0100
0010
0001
0100
0010
,  // measure 46
0010
0000
0010
1000
0001
1000
0100
0010
,  // measure 47
0010
0000
0001
1000
0001
0100
0001
0100
,  // measure 48
0100
0000
0001
0100
0010
1000
0010
0100
,  // measure 49
0100
0000
0001
0100
1000
0100
0001
0010
,  // measure 50
0010
0000
0100
1000
0010
0001
0010
1000
,  // measure 51
1000
0000
0100
0010
0001
1000
0001
0100
,  // measure 52
0100
0000
0001
0010
0100
1000
0001
0000
,  // measure 53
1000
0000
0001
0000
0100
0000
0010
0000
1000
0000
0010
0000
0100
0000
0000
0100
,  // measure 54
0001
1000
0100
1000
0010
1000
0001
0000
,  // measure 55
1000
0100
0001
0000
1000
0010
0001
0000
,  // measure 56
0100
0010
1000
0010
0100
0001
0100
0000
,  // measure 57
0001
0100
1000
0000
0001
0010
1000
0000
,  // measure 58
0001
0100
0010
1000
0001
0100
0010
0000
,  // measure 59
1000
0100
0001
0000
1000
0010
0001
0000
,  // measure 60
0100
0010
1000
0001
0100
0010
1000
0100
,  // measure 61
0010
0001
1001
0000
0000
0000
0000
0000
;

//---------------dance-single - ----------------
#NOTES:
     dance-single:
     :
     Medium:
     5:
     0.322,0.378,0.109,0.000,0.038:
0000
0000
0000
0000
,
0000
0000
0000
0000
,
0000
0000
0000
0000
,
0000
0000
0000
0000
,
0000
1000
0100
0010
,
0010
0001
0100
0010
,
0010
1000
0100
0010
,
0010
0001
0100
0010
,
0010
0000
1000
0000
0100
0000
0001
0100
,
1000
0000
1000
0000
0010
0000
0001
0010
,
1000
0000
1000
0000
0100
0000
0001
0100
,
1000
1001
0000
0000
,
0000
0100
0010
1000
,
1000
0100
0010
0000
0001
0000
0101
0000
,
0001
1000
0001
0000
0100
0000
0010
0000
,
1000
0001
0010
0000
0100
0000
1100
0000
,
1000
0010
1000
0000
0001
0000
0100
0000
,
0010
0100
0010
0000
0100
0000
0001
0000
,
1000
0100
1000
0000
0010
0000
0100
0000
,
0001
0101
0101
0101
,
0000
1000
0100
0001
,
1000
0010
0001
0010
,
0000
1000
0010
0001
,
1000
0100
0001
0010
,
0000
0001
0100
1000
,
0001
0010
1000
0100
,
0000
1000
0010
0001
,
0100
1000
0001
1001
,
0000
0001
0010
0100
,
0010
0000
0100
1000
0100
1000
0001
0000
,
0000
1001
0001
0100
,
0001
0000
0100
0010
0100
0010
1000
0000
,
1100
0000
1000
0100
,
1000
0000
0010
0100
0010
0100
0001
0000
,
0110
0100
0010
1000
,
0001
1000
0100
0010
,
0110
0000
0000
0000
0010
0000
0000
0010
0000
0000
0000
0000
0001
0000
0000
0001
,
0000
0000
0000
0000
0100
0000
0000
0100
0000
0000
0010
0000
1000
0000
0001
0000
,
0000
0000
0000
0000
1000
0000
0000
1000
0000
0000
0000
0000
0100
0000
0000
0100
,
0000
0000
0000
0000
0010
0000
0000
0010
0000
0000
0001
0000
0100
0000
0010
0000
,
0000
0000
0000
0000
1000
0000
0000
1000
0000
0000
0000
0000
0100
0000
0000
0100
,
0000
0000
0000
0000
0010
0000
0000
0010
0000
0000
0001
0000
1000
0000
0100
0000
,
0000
1000
0010
0001
,
0100
1000
0010
0100
,
1001
0000
1000
0000
0100
0000
1000
0100
,
1000
0000
0001
0000
0100
0000
0001
0100
,
0001
0000
0100
0000
0010
0000
0100
0010
,
0100
0000
0010
0000
1000
0000
0001
1000
,
0001
0000
1000
0100
1000
0100
1000
0010
,
1000
0000
0001
0100
0001
0100
0001
0010
,
0001
0000
0100
0010
0100
0010
0100
0010
,
0100
0000
0001
1000
0001
0100
0001
0000
,
0001
0100
0010
0000
1000
0000
0100
0000
,
1000
0010
0100
0101
,
0001
0100
1000
0000
1000
0100
0001
0000
,
0001
0010
0100
1000
,
1000
0010
0001
0000
0001
0010
1000
0000
,
0100
0010
0001
0100
,
1000
0100
0001
0000
0001
0100
1000
0000
,
0100
0010
1000
0001
,
0001
1000
0001
0000
0000
0000
0000
0000
;

//---------------dance-single - ----------------
#NOTES:
     dance-single:
     :
     Easy:
     2:
     0.192,0.252,0.033,0.067,0.000:
0000
0000
0000
0000
,
0000
0000
0000
0000
,
0000
0000
0000
0000
,
0000
0000
0000
0000
,
0000
1000
0000
0000
,
0000
0001
0000
0000
,
0000
0100
0000
0000
,
0000
0010
0000
0000
,
0000
1000
1000
1000
,
0000
0010
0010
0010
,
0000
0100
0100
0100
,
0000
1001
0000
0000
,
0000
1000
1000
1000
,
0000
0001
0001
0001
,
0000
1000
1000
1000
,
0000
0001
0001
0001
,
0000
0100
0100
0100
,
0000
0010
0010
0010
,
0000
0100
0100
0100
,
0000
0010
0010
0010
,
0000
1000
0000
0100
,
0000
0010
0010
0010
,
0000
0001
0000
0100
,
0000
0010
0010
0010
,
0000
1000
0000
0001
,
0000
0100
0100
0100
,
0000
0001
0000
1000
,
0000
0010
0010
0010
,
0000
0100
0000
0100
,
0000
0001
0000
0001
,
0000
1000
0000
1000
,
0000
0010
0000
0010
,
0000
0001
0000
0001
,
0000
0010
0000
0010
,
0000
1000
0000
1000
,
0000
0001
0100
0010
,
1001
2000
3000
0002
,
0003
0100
0100
0100
,
0000
0020
0030
0200
,
0300
0001
0001
0001
,
0000
2000
3000
0200
,
0300
0010
0010
0010
,
0000
0002
0003
0200
,
0300
0010
1000
0001
,
1001
1000
0100
0010
,
0001
0001
0100
0010
,
1000
1000
0100
0010
,
0001
0001
0100
0010
,
1000
0100
0100
0100
,
0100
0010
0010
0010
,
0010
0001
0001
0001
,
0001
1000
1000
1000
,
0001
0100
0000
0100
,
0000
0100
0000
0010
,
1000
1000
0000
1000
,
0000
0001
0000
0100
,
0001
0001
0000
0100
,
0000
0010
0000
1000
,
0100
0100
0000
0010
,
0000
0001
0000
1000
,
0000
1001
0000
0000
;
