#VERSION:0.81;
#TITLE:キャプテン・ムラサのケツアンカ;
#SUBTITLE:;
#ARTIST:ARM;
#TITLETRANSLIT:Captain Marusa's Ass Anchor;
#SUBTITLETRANSLIT:;
#ARTISTTRANSLIT:;
#GENRE:;
#ORIGIN:;
#CREDIT:;
#BANNER:[Moon Runes] - キャプテン・ムラサのケツアンカ.png;
#BACKGROUND:[Moon Runes] - キャプテン・ムラサのケツアンカ-bg.png;
#PREVIEWVID:;
#JACKET:[Moon Runes] - キャプテン・ムラサのケツアンカ-jacket.png;
#CDIMAGE:;
#DISCIMAGE:;
#LYRICSPATH:;
#CDTITLE:scarzcdtitle.png;
#MUSIC:キャプテン・ムラサのケツアンカ.mp3;
#OFFSET:-0.020;
#SAMPLESTART:13.637;
#SAMPLELENGTH:12.000;
#SELECTABLE:YES;
#BPMS:0.000=190.000;
#STOPS:;
#DELAYS:;
#WARPS:;
#TIMESIGNATURES:0.000=4=4;
#TICKCOUNTS:0.000=4;
#COMBOS:0.000=1;
#SPEEDS:0.000=1.000=0.000=0;
#SCROLLS:0.000=1.000;
#FAKES:;
#LABELS:0.000=Song Start;
#BGCHANGES:0.000=キャプテン・ムラサのケツアンカ.avi=1.000=0=0=0=StretchNoLoop====,
99999=-nosongbg-=1.000=0=0=0 // don't automatically add -songbackground-
;
#KEYSOUNDS:;
#ATTACKS:
;

//---------------dance-single - ----------------
#NOTEDATA:;
#CHARTNAME:;
#STEPSTYPE:dance-single;
#DESCRIPTION:;
#CHARTSTYLE:;
#DIFFICULTY:Hard;
#METER:9;
#RADARVALUES:0.579,0.621,0.414,0.192,0.096,341.000,41.000,19.000,0.000,0.000,0.000,0.000,0.000,0.579,0.621,0.414,0.192,0.096,341.000,41.000,19.000,0.000,0.000,0.000,0.000,0.000;
#CREDIT:;
#NOTES:
// measure 0
0000
0000
0000
0000
,  // measure 1
0000
0000
0000
0000
,  // measure 2
0000
0000
0000
0000
,  // measure 3
0000
0000
0000
0000
,  // measure 4
0000
0000
0000
0000
,  // measure 5
0000
0000
0000
0000
,  // measure 6
0000
0000
0000
0000
,  // measure 7
0000
0000
0000
0000
,  // measure 8
0000
0000
0000
0000
,  // measure 9
0000
0000
0000
0000
,  // measure 10
0000
0000
0000
1100
,  // measure 11
1010
0000
1000
0100
0000
0110
0000
0010
,  // measure 12
0001
0101
0011
0101
,  // measure 13
0011
0000
0001
0100
0000
0110
0000
0010
,  // measure 14
1000
1100
0000
1010
,  // measure 15
1100
0000
1000
0010
0000
0110
0000
0100
,  // measure 16
0001
0000
0011
0000
0101
0000
0001
0010
,  // measure 17
0100
0000
1000
0000
0001
1000
0001
1000
0001
0000
1000
0000
0010
0000
0010
0000
,  // measure 18
0100
0100
0002
0000
0000
0000
1003
0000
,  // measure 19
0000
1000
0001
0000
0000
1000
0010
0100
,  // measure 20
0001
0020
0000
0000
0030
0000
0001
0100
,  // measure 21
0010
0000
1010
0000
1001
0000
0001
0010
,  // measure 22
1000
0010
0001
0100
1000
0100
0001
0000
,  // measure 23
0000
0001
1000
0000
0000
0001
0100
0010
,  // measure 24
1000
0100
0020
0000
0031
0000
1000
0010
,  // measure 25
0100
0000
0101
0000
1001
0000
1000
1000
,  // measure 26
0010
0000
0010
0000
0100
0000
0100
0000
0001
0000
0001
0000
1000
0000
0010
0100
,  // measure 27
0000
0010
0100
0000
0001
0000
0010
0000
1000
0000
0010
0000
0001
0000
0100
0000
,  // measure 28
0010
1000
0100
0000
1100
0000
1000
0010
,  // measure 29
0100
0000
0101
0000
1001
0000
0001
0010
,  // measure 30
0100
0000
1000
0000
0001
0000
0100
0000
0010
0000
1000
0000
0001
0000
0010
0100
,  // measure 31
0000
0010
0100
0000
1000
0000
0010
0000
0001
0000
0010
0000
1000
0000
0100
0000
,  // measure 32
0010
0001
0100
0000
0101
0000
0001
0100
,  // measure 33
0010
0000
1010
0000
1001
0000
1000
0100
,  // measure 34
0010
0000
0001
0000
1000
0001
1000
0001
1000
0000
0010
0000
0100
0000
0001
0000
,  // measure 35
0000
0000
0010
0100
0000
0100
1000
0000
,  // measure 36
0010
0100
0000
0100
0001
0000
1000
0100
,  // measure 37
0000
1000
0100
0010
0001
0010
0100
0000
,  // measure 38
1000
0010
0000
0100
0001
0010
0100
1000
,  // measure 39
0000
0000
0010
0100
0000
0100
0001
0000
,  // measure 40
0010
0100
0000
0100
1000
0000
0001
0100
,  // measure 41
0000
0001
0100
0010
1000
0100
0010
0000
,  // measure 42
0001
0100
0000
0010
1000
0000
0001
0010
,  // measure 43
1000
0000
0010
0000
0001
0100
0001
0100
0001
0000
0010
0000
0100
0000
1000
0000
,  // measure 44
0001
0000
0100
0010
0100
0000
0010
0000
0010
0000
0000
0000
1000
0000
0100
0000
,  // measure 45
0001
0000
0100
0000
1000
0010
1000
0010
1000
0000
0100
0000
0010
0000
0001
0000
,  // measure 46
1000
0000
0010
0100
0010
0000
0100
0000
0100
0000
0000
0000
0001
0000
0010
0000
,  // measure 47
0000
0000
0001
0010
0100
0000
0110
0000
,  // measure 48
0100
1000
0010
0100
0001
0000
1000
0010
,  // measure 49
0100
0000
0001
0000
1000
0000
0100
0000
0010
0000
0001
0000
1000
0001
1000
0000
,  // measure 50
0001
0001
0010
0010
0100
0100
2000
0000
,  // measure 51
3020
0000
0100
0130
0000
0002
0000
0013
,  // measure 52
0020
0000
0100
0130
0000
2000
0000
3010
,  // measure 53
0020
0000
0000
0000
0100
0000
0130
0000
0000
0000
0001
1000
0002
0000
0000
0000
,  // measure 54
2003
0000
0001
3001
0000
0000
0002
0000
,  // measure 55
0023
0000
0100
0130
0000
2000
0000
3010
,  // measure 56
0020
0000
0000
0000
0100
0000
0130
0000
0000
0000
0001
0010
0002
0000
0000
0000
,  // measure 57
0000
0203
0000
0000
0320
0000
0000
1000
,  // measure 58
1000
1000
1000
1000
1000
1000
1030
0000
,  // measure 59
0000
1001
0000
0011
,  // measure 60
0101
0000
0001
0010
0000
0110
0000
0100
,  // measure 61
1000
1010
1100
1010
,  // measure 62
1100
0000
1000
0010
0000
0110
0000
0100
,  // measure 63
0001
0011
0000
0101
,  // measure 64
0011
0000
0001
0100
0000
0110
0000
0010
,  // measure 65
1000
0000
1100
0000
1010
0000
1000
0100
,  // measure 66
0010
0000
0001
0000
1000
0001
1000
0001
1000
0000
0001
0000
0010
0000
0010
0000
,  // measure 67
0100
0100
2000
0000
0001
0001
0001
3001
,  // measure 68
0000
1001
0000
0000
;

//---------------dance-single - ----------------
#NOTEDATA:;
#CHARTNAME:;
#STEPSTYPE:dance-single;
#DESCRIPTION:;
#CHARTSTYLE:;
#DIFFICULTY:Medium;
#METER:6;
#RADARVALUES:0.375,0.517,0.111,0.040,0.000,245.000,11.000,4.000,0.000,0.000,0.000,0.000,0.000,0.375,0.517,0.111,0.040,0.000,245.000,11.000,4.000,0.000,0.000,0.000,0.000,0.000;
#CREDIT:;
#NOTES:
0000
0000
0000
0000
,
0000
0000
0000
0000
,
0000
0000
0000
0000
,
0000
0000
0000
0000
,
0000
0000
0000
0000
,
0000
0000
0000
0000
,
0000
0000
0000
0000
,
0000
0000
0000
0000
,
0000
0000
0000
0000
,
0000
0000
0000
0000
,
0000
0000
0000
1000
,
0010
0000
0100
0001
0000
0101
0000
0001
,
0010
0100
1000
0001
,
0100
0000
0010
1000
0000
1010
0000
1000
,
0100
0010
0000
0001
,
0010
0000
0100
1000
0000
1100
0000
1000
,
0010
0000
0100
0000
0001
0000
1000
0001
,
1000
0000
0001
0010
0100
1000
0100
0000
,
0010
0011
0000
0001
,
0000
0100
0001
0000
0000
0100
0001
0010
,
0100
1000
0000
0000
0000
0000
0001
0010
,
0001
0100
0010
2000
,
0000
3001
0000
1000
,
0000
0010
1000
0000
0000
0010
1000
0010
,
0100
0001
0010
0000
0000
0000
0001
0010
,
0001
0100
0010
2000
,
0000
3001
0000
1000
,
0000
0010
1000
0000
0000
0010
1000
0100
,
0010
0001
0000
0000
0000
0000
1000
0001
,
1000
0010
0100
0002
,
0000
1003
0000
0001
,
0000
0100
0001
0000
0000
0100
0001
0010
,
0100
1000
0010
0000
0000
0000
1000
0001
,
1000
0010
0100
0002
,
0000
1003
0000
0001
,
0000
0010
0000
0100
,
0000
1000
0000
0001
,
0000
0100
0000
0010
,
0000
1000
0000
1000
,
0000
0010
0000
0100
,
0000
0001
0000
1000
,
0000
0100
0000
0010
,
0000
0000
0001
0000
0000
0000
1000
0010
,
1000
0010
1000
0100
0001
0100
1000
0010
,
0100
0001
0010
0100
1000
0000
0001
0100
,
0001
0100
0001
0010
1000
0010
0001
0100
,
0010
1000
0100
0010
0001
0000
1000
0001
,
0000
0000
1000
0001
0010
0000
0011
0000
,
0001
0010
0100
1000
0001
0000
1000
0010
,
0100
0001
1000
0010
0100
0001
1000
1000
,
0010
0010
0100
0100
0001
0001
0010
0000
,
0001
0000
0100
0010
0000
0100
0000
0010
,
1000
0000
0100
0010
0000
0001
0000
0100
,
0010
0000
0100
0010
0000
1000
0100
0000
,
0010
0000
0001
0100
0000
0000
0001
0000
,
0010
0000
0100
1000
0000
0010
0000
0100
,
0001
0000
0010
0100
0000
1000
0010
0000
,
0000
0100
0000
0000
0001
0000
0000
0000
,
0000
0000
0000
1001
,
0000
0000
0000
1000
,
0010
0000
0100
0001
0000
0101
0000
0001
,
0010
0100
1000
0001
,
0010
0000
0100
1000
0000
1100
0000
1000
,
0010
0100
0000
0001
,
0010
0000
0100
1000
0000
1100
0000
1000
,
0010
0000
0100
0000
0001
0000
1000
0001
,
1000
0000
0001
1000
0001
1000
0001
0000
,
1000
0000
1001
0000
0001
1000
0001
1000
,
0000
1001
0000
0000
;

//---------------dance-single - ----------------
#NOTEDATA:;
#CHARTNAME:;
#STEPSTYPE:dance-single;
#DESCRIPTION:;
#CHARTSTYLE:;
#DIFFICULTY:Easy;
#METER:3;
#RADARVALUES:0.237,0.276,0.071,0.020,0.000,155.000,7.000,2.000,0.000,0.000,0.000,0.000,0.000,0.237,0.276,0.071,0.020,0.000,155.000,7.000,2.000,0.000,0.000,0.000,0.000,0.000;
#CREDIT:;
#NOTES:
0000
0000
0000
0000
,
0000
0000
0000
0000
,
0000
0000
0000
0000
,
0000
0000
0000
0000
,
0000
0000
0000
0000
,
0000
0000
0000
0000
,
0000
0000
0000
0000
,
0000
0000
0000
0000
,
0000
0000
0000
0000
,
0000
0000
0000
0000
,
0000
0000
0000
1000
,
0000
0010
0000
0100
,
0000
0101
0000
0001
,
0000
0010
0000
0100
,
0000
1100
0000
1000
,
0000
0010
0000
0100
,
0000
0101
0000
0001
,
0000
1000
0000
0001
,
1000
0001
0000
1000
,
0000
0010
0000
0100
,
0001
0100
0000
0001
,
0000
0010
0000
0200
,
0000
1300
0000
1000
,
0000
0010
0000
0100
,
0001
0100
0000
0001
,
0000
0010
0000
0200
,
0000
1300
0000
0001
,
0010
0100
1000
0100
,
0010
0001
0001
1000
,
0010
0100
0001
0100
,
0010
1000
0000
1000
,
0100
0010
0001
0010
,
0100
1000
0000
0001
,
0000
1000
0000
1001
,
0000
1001
0000
0001
,
0000
0010
0000
0100
,
0000
1000
0000
0010
,
0000
0100
0000
0001
,
0000
0001
0000
1000
,
0000
0010
0000
0100
,
0000
0001
0000
0100
,
0000
0010
0000
1000
,
0000
0000
1000
0001
,
0100
0001
0010
0001
,
0100
0010
0010
1000
,
1000
0100
0010
0100
,
0100
1000
0010
0100
,
0000
0001
0000
0010
,
0000
0100
0000
1000
,
0010
0100
0001
1000
,
0010
0100
0001
1000
,
0000
1000
0000
0001
,
0000
0001
0000
1000
,
0000
0010
0000
0100
,
0000
0001
0000
1000
,
0000
1000
0000
0001
,
0000
0001
0000
1000
,
0000
0010
0000
0100
,
0000
0001
0000
1001
,
0000
0000
0000
0001
,
0010
0100
1000
0100
,
0100
0010
0010
0001
,
0100
0010
1000
0100
,
0100
0010
0010
0001
,
0100
0010
1000
0100
,
0100
0010
0010
0001
,
0100
0010
1000
0001
,
0010
0100
1000
0000
,
0000
1001
0000
0000
;
