#TITLE:僕の地球、僕らの地球;
#SUBTITLE:;
#ARTIST:椎名豪;
#TITLETRANSLIT:Boku no Chikyuu, Bokura no Chikyuu;
#SUBTITLETRANSLIT:;
#ARTISTTRANSLIT:Go C-Na;
#CREDIT:;
#BANNER:[Moon Runes] - Boku no Chikyuu Bokura no Chikyuu.png;
#BACKGROUND:[Moon Runes] - Boku no Chikyuu Bokura no Chikyuu-bg.png;
#LYRICSPATH:;
#CDTITLE:;
#MUSIC:[Moon Runes] - Boku no Chikyuu Bokura no Chikyuu.ogg;
#OFFSET:0.000;
#SAMPLESTART:22.092;
#SAMPLELENGTH:12.000;
#SELECTABLE:YES;
#BPMS:0.000=130.000,80.000=65.000,88.000=130.000;
#DISPLAYBPM:130;
#STOPS:;
#BGCHANGES:0.000=[Moon Runes] - Boku no Chikyuu Bokura no Chikyuu.avi=1.000=0=0=0,
99999=-nosongbg-=1.000=0=0=0 // don't automatically add -songbackground-
;

//---------------dance-single - ----------------
#NOTES:
     dance-single:
     :
     Hard:
     7:
     0.392,0.431,0.318,0.185,0.026:
0000
0000
0000
0000
,
0000
0000
0000
0000
,
0000
0000
0000
0000
,
0000
0000
0000
0000
,
0001
0100
0000
0000
1000
0100
0000
0000
,
0000
0010
0001
0001
0100
0010
0100
0001
,
1000
0100
0000
0000
0001
0100
0000
0000
,
0000
1000
0010
0010
0100
0001
1000
0100
,
0010
0001
0000
0000
1000
0010
0000
0000
,
0000
0100
0001
0001
1000
0100
1000
0010
,
0100
0001
0000
0000
1000
0010
0000
0000
,
0000
0100
0001
0001
1000
0100
1000
0010
,
1000
0001
1001
0000
0001
0100
0101
0000
,
0000
0010
1000
1000
0100
1000
0010
0100
,
0010
1000
1100
0000
0010
0001
0101
0000
,
0000
0100
0001
0001
1000
0100
1000
0010
,
1000
0000
0001
0000
0010
0100
0010
0000
0000
0000
0000
0000
0001
0100
0001
0100
,
0001
1000
0001
0001
1000
0010
0001
0010
,
1000
0100
1100
0000
0010
0001
0011
0000
,
0000
1000
0010
0010
0001
0010
1000
0100
,
0010
0000
1001
0000
0001
0100
1000
0100
,
1001
0000
0000
0000
0110
0000
0000
0000
0001
0000
1000
0000
0001
0000
0100
0010
,
0100
0000
0001
0000
1000
0100
0010
0001
,
0100
0000
0100
0000
0000
0000
1001
0000
0000
0000
0010
0100
0010
0100
0010
0000
,
0002
0000
0100
0000
1003
0100
0010
0001
,
0100
0100
0000
2002
0000
3003
0010
0000
,
2000
0000
0100
0000
3010
0001
1000
0100
,
0020
0000
0130
0100
0000
0000
0000
0000
,
1100
0100
0000
0011
0010
0000
1001
2002
,
0000
0000
3003
0000
,
1000
0000
0100
0000
1000
0000
0001
0100
,
0001
0000
1000
0100
0010
0000
1001
0000
,
0001
0000
0100
0000
0010
0100
0010
1000
,
0002
0003
2000
3000
,
0001
0000
1000
0000
0100
0000
1000
0010
,
0100
0000
0001
0010
0100
0000
0110
0000
,
1001
0101
1001
1100
,
0220
0000
0330
0000
,
1000
0000
1100
0000
0010
0000
0001
0100
,
0010
0000
0100
0001
1000
0000
1001
0000
,
1000
0000
1100
0000
1000
0100
0010
0001
,
2002
3003
0220
0330
,
0001
0000
0101
0000
0010
0000
0010
1000
,
0100
0000
0100
1000
0001
0000
1001
0000
,
0101
0000
0100
0000
0010
1000
0001
1000
,
0200
0000
0300
0000
,
0010
0000
0001
0000
0011
0000
0001
1000
,
0100
0000
0100
1000
0001
0000
1001
0000
,
0100
0000
0110
0000
0010
1000
0100
0001
,
0020
0000
0200
0330
,
1000
0100
0001
0100
,
1000
1000
0001
0001
,
1001
0000
0110
0000
0001
0010
0100
1000
,
0020
0000
0000
0030
,
2002
3003
0000
0000
;

//---------------dance-single - ----------------
#NOTES:
     dance-single:
     :
     Easy:
     3:
     0.212,0.311,0.079,0.194,0.000:
0000
0000
0000
0000
,
0000
0000
0000
0000
,
0000
0000
0000
0000
,
0000
0000
0000
0000
,
1000
0000
0001
0000
,
0000
0010
1000
0001
,
1000
0000
0001
0000
,
1000
0100
0001
0100
,
1000
0000
0001
0000
,
1000
0010
0001
0010
,
1000
0000
0001
0000
,
1000
0100
0001
1000
,
0010
0000
0010
0000
,
0010
1000
0010
1000
,
0001
0000
0001
0000
,
0001
0100
0010
0100
,
0001
0000
1000
0000
,
0001
0010
0100
1000
,
0001
0000
1000
0000
,
0010
0010
0100
0100
,
0010
1010
0100
0100
,
0010
0011
1000
0001
,
2000
0000
0000
3000
,
0001
0100
1000
0100
,
0002
0000
0000
0003
,
1000
0010
0001
0010
,
2000
0000
0000
3000
,
0001
0010
1000
0100
,
0002
0003
2000
3000
,
2002
0000
0000
3003
,
1000
0000
1000
0000
,
0001
0000
0001
0000
,
0010
0000
0100
0000
,
0010
0000
2002
3003
,
0010
0000
0010
0000
,
0100
0000
0100
0000
,
0010
0010
0100
0100
,
2002
0000
0000
3003
,
1000
0000
0100
0000
,
0001
0000
0100
0000
,
1000
1000
0001
0001
,
0020
0030
0200
0300
,
1000
0100
0001
0100
,
1000
1000
0001
0001
,
0010
0100
0010
0010
,
2002
0000
0000
3003
,
1000
0100
0010
0010
,
0100
0010
0001
0001
,
1000
1000
0001
0001
,
2002
3003
0220
0330
,
1000
0000
1000
0000
,
0001
0000
0001
0000
,
1000
0001
1000
0001
,
0020
0000
0000
0030
,
2002
3003
0000
0000
;

//---------------dance-single - ----------------
#NOTES:
     dance-single:
     :
     Medium:
     5:
     0.275,0.335,0.071,0.194,0.000: // measure 1
0000
0000
0000
0000
,  // measure 2
0000
0000
0000
0000
,  // measure 3
0000
0000
0000
0000
,  // measure 4
0000
0000
0000
0000
,  // measure 5
1000
1000
0000
0000
0001
0001
0000
0000
,  // measure 6
0000
1000
0100
0001
,  // measure 7
0010
0010
0000
0000
0100
0100
0000
0000
,  // measure 8
0010
0001
0010
1000
,  // measure 9
0001
0001
0000
0000
1000
1000
0000
0000
,  // measure 10
0010
0100
0001
1000
,  // measure 11
0001
0001
0000
0000
1000
1000
0000
0000
,  // measure 12
0010
0010
0010
1000
,  // measure 13
0001
0001
0000
0000
1000
1000
0000
0000
,  // measure 14
0100
0010
0001
0010
,  // measure 15
0100
0100
0000
0000
0010
0010
0000
0000
,  // measure 16
0001
0010
1000
0100
,  // measure 17
1000
1000
0001
0001
,  // measure 18
0100
0000
0010
0000
1000
0100
1000
0000
,  // measure 19
0010
0010
0100
0100
,  // measure 20
0001
0100
1000
0100
,  // measure 21
0010
0100
0010
0010
,  // measure 22
1000
0000
0001
0000
1000
0000
0001
1000
,  // measure 23
0020
0000
0000
0030
,  // measure 24
1000
0100
0001
0100
,  // measure 25
2000
0000
3000
0100
,  // measure 26
0010
0001
0010
0100
,  // measure 27
0020
0030
0100
0100
,  // measure 28
0010
0010
0001
1000
,  // measure 29
0010
0010
0000
0100
0100
0000
0010
0020
,  // measure 30
0000
0000
0000
0030
,  // measure 31
1000
0000
1000
0000
0100
0000
1000
0100
,  // measure 32
1000
0010
0100
0100
,  // measure 33
0010
0100
0001
1000
,  // measure 34
2002
3003
0220
0330
,  // measure 35
1000
1000
0001
0001
,  // measure 36
0010
0000
0100
0010
0100
0000
0010
0000
,  // measure 37
0001
0001
1000
1000
,  // measure 38
2002
0000
0000
3003
,  // measure 39
1000
0000
1000
0000
0010
0000
0010
0100
,  // measure 40
0010
0000
0100
0001
0100
0000
0001
0000
,  // measure 41
1000
0000
1000
0000
0001
1000
0001
0000
,  // measure 42
2002
3003
0220
0330
,  // measure 43
1000
0000
0100
0000
0001
0000
0001
0100
,  // measure 44
0001
0000
0001
0010
1000
0000
0010
0000
,  // measure 45
1000
1000
0001
0001
,  // measure 46
2002
0000
0000
3003
,  // measure 47
0010
0000
0010
0000
0100
0000
0010
1000
,  // measure 48
0010
0000
0100
0001
0100
0000
0001
0000
,  // measure 49
1000
0000
1000
0000
0100
0000
1000
0001
,  // measure 50
0200
0300
0020
0030
,  // measure 51
0100
0000
0100
0001
,  // measure 52
1000
0000
1000
0001
,  // measure 53
0010
0000
0010
0000
0100
0001
1000
0000
,  // measure 54
0220
0000
0000
0330
,  // measure 55
2002
0000
0000
0000
0000
0000
0000
0000
0000
0000
0000
0000
0000
0000
0000
0000
0000
0000
0000
0000
0000
0000
0000
0000
0000
0000
0000
0000
0000
0000
0000
0000
0000
0000
0000
0000
0000
0000
0000
0000
0000
0000
0000
0000
0000
0000
0000
0000
0000
3003
0000
0000
0000
0000
0000
0000
0000
0000
0000
0000
0000
0000
0000
0000
0000
0000
0000
0000
0000
0000
0000
0000
0000
0000
0000
0000
0000
0000
0000
0000
0000
0000
0000
0000
0000
0000
0000
0000
0000
0000
0000
0000
0000
0000
0000
0000
0000
0000
0000
0000
0000
0000
0000
0000
0000
0000
0000
0000
0000
0000
0000
0000
0000
0000
0000
0000
0000
0000
0000
0000
0000
0000
0000
0000
0000
0000
0000
0000
0000
0000
0000
0000
0000
0000
0000
0000
0000
0000
0000
0000
0000
0000
0000
0000
0000
0000
0000
0000
0000
0000
0000
0000
0000
0000
0000
0000
0000
0000
0000
0000
0000
0000
0000
0000
0000
0000
0000
0000
0000
0000
0000
0000
0000
0000
0000
0000
0000
0000
0000
0000
0000
0000
0000
0000
0000
0000
0000
0000
0000
0000
0000
0000
;

//---------------dance-single - ----------------
#NOTES:
     dance-single:
     :
     Beginner:
     1:
     0.110,0.140,0.009,0.000,0.000:
0000
0000
0000
0000
,
0000
0000
0000
0000
,
0000
0000
0000
0000
,
0000
0000
0000
0000
,
1000
0000
0001
0000
,
0000
0000
0000
0000
,
1000
0000
0001
0000
,
0000
0000
0000
0000
,
1000
0000
0001
0000
,
0000
0000
0000
0000
,
1000
0000
0001
0000
,
0000
0000
0000
0000
,
1000
0000
0100
0000
,
0000
0000
0000
0000
,
0001
0000
0100
0000
,
0000
0000
0000
0000
,
0010
0000
0000
0000
,
0010
0000
1000
0000
,
0100
0000
0000
0000
,
0010
0000
0001
0000
,
1000
0000
1000
0000
,
0001
0000
0001
0000
,
0010
0000
1000
0000
,
0100
0000
0010
0000
,
0001
0000
0001
0000
,
1000
0000
1000
0000
,
0010
0000
0100
0000
,
0010
0000
1000
0000
,
0001
0000
1000
0000
,
1001
0000
0000
0000
,
0010
0000
0010
0000
,
0100
0000
0100
0000
,
0010
0000
0010
0000
,
0100
0000
0100
0000
,
0010
0000
0100
0000
,
0010
0000
0010
0000
,
1000
0000
0001
0000
,
1000
0000
0000
0000
,
0010
0000
0010
0000
,
0100
0000
0100
0000
,
0010
0000
1000
0000
,
0001
0000
1000
0000
,
0001
0000
1000
0000
,
0001
0000
1000
0000
,
0010
0010
0010
0010
,
0010
0000
0000
0000
,
1000
0000
0001
0000
,
0100
0000
1000
0000
,
0001
0000
0001
0000
,
1000
0000
0010
0000
,
1000
0000
1000
0000
,
0001
0000
0001
0000
,
0010
0010
0010
0010
,
0010
0000
0000
0000
;
