#TITLE:愛は勝つ;
#SUBTITLE:;
#ARTIST:KAN;
#TITLETRANSLIT:Ai wa Katsu;
#SUBTITLETRANSLIT:;
#ARTISTTRANSLIT:;
#CREDIT:;
#BANNER:[Moon Runes] - Ai Wa Katsu.png;
#BACKGROUND:[Moon Runes] - Ai Wa Katsu-bg.png;
#LYRICSPATH:;
#CDTITLE:cd.png;
#MUSIC:[Moon Runes] - Ai Wa Katsu.ogg;
#OFFSET:0.015;
#SAMPLESTART:15.262;
#SAMPLELENGTH:12.000;
#SELECTABLE:YES;
#BPMS:0.000=124.870;
#STOPS:;
#BGCHANGES:0.000=[Moon Runes] - Ai Wa Katsu.avi=1.000=0=0=0,
99999=-nosongbg-=1.000=0=0=0 // don't automatically add -songbackground-
;

//---------------dance-single - ----------------
#NOTES:
     dance-single:
     :
     Hard:
     6:
     0.402,0.400,0.172,0.327,0.034:
0000
0000
0000
0000
,
0000
0000
0000
0000
,
0100
0000
0000
0000
0000
0000
0001
0010
0001
0000
0000
0000
0100
0000
0000
0000
,
1000
0000
0100
0000
0002
0000
0013
0100
,
1000
0000
0000
0000
0000
0000
0010
0100
0010
0000
0000
0000
0100
0000
0000
0000
,
0001
1000
0100
1000
,
0001
0001
0200
0300
,
1010
1001
0202
0303
,
0002
0000
2003
0000
,
3100
0000
0010
0010
0002
0000
0003
0000
,
1000
0000
0010
0100
0001
0100
0010
0000
,
1000
1000
0002
0003
,
0100
0000
0001
0010
0100
1000
0010
0000
,
0100
0101
2000
3000
,
0001
0010
0011
0100
,
1100
0000
1000
0100
2000
0000
3010
0010
,
0200
0301
0020
0130
,
1000
0000
0010
0100
0020
0000
0030
0000
,
1000
0000
0001
0010
0100
0010
0001
0000
,
0010
0000
0100
1000
0002
0000
0013
0000
,
0100
1000
1100
0010
,
0100
0001
0202
0303
,
0010
0010
0100
0100
,
0010
0000
0010
1000
0001
1000
0100
0100
,
0010
0000
0000
0000
1001
0000
0000
0001
0010
0000
0100
0000
1000
0000
0000
0000
,
0010
0000
0000
0000
1001
0000
0000
1000
0010
0000
0100
0000
0101
0000
0000
0000
,
1000
0000
0001
0100
0010
0000
0100
0000
,
0001
0000
1000
0100
0002
0000
0103
0000
,
1000
0000
0010
0100
0002
0000
0013
0000
,
0100
0000
1000
0100
0002
0000
0103
0000
,
0010
0001
1000
0010
,
0100
0000
0010
0100
0001
0001
1000
0100
,
0020
0000
0001
0000
0031
1000
0010
0100
,
0020
0000
1000
0000
1030
0001
0010
0100
,
0020
0000
0031
0100
1000
0000
0100
0000
,
0001
0000
1000
0100
0002
0000
0003
0000
,
0100
0000
1000
0001
0100
0000
0010
0000
,
0100
0000
0001
0001
0020
0000
0030
0000
,
0100
1000
1100
0010
,
0100
0000
0001
1000
0100
0000
0010
0010
,
0002
0000
0000
0000
1003
0000
0010
0000
1000
0000
0000
0001
0010
0001
0010
0000
,
0200
1300
0020
0130
,
0001
0000
1000
0100
2000
0000
3001
0000
,
0010
0010
0011
0100
,
1000
0100
2200
3300
,
0010
0001
0011
0010
,
0100
1000
2200
3300
,
0010
0010
0100
0010
,
1010
0000
0000
0000
1000
0000
0001
0000
0100
0000
0000
0001
1000
0000
0001
1000
,
0200
1300
0020
0130
,
0001
0000
1000
0100
0020
0000
0130
0000
,
1000
0000
0010
0010
0200
0001
0301
0000
,
1000
0000
0100
0100
0020
0001
0031
1000
,
0100
0000
0010
0001
0010
0100
1000
0000
,
0010
0000
0100
0001
1000
0100
0010
0000
,
0110
0000
0001
1000
0100
0000
0110
0000
,
0011
0000
0001
0010
0100
1000
0001
0100
,
0020
0000
0000
0000
,
0030
0000
0000
0000
;

//---------------dance-single - ----------------
#NOTES:
     dance-single:
     :
     Easy:
     2:
     0.192,0.224,0.000,0.215,0.000:
0000
0000
0000
0000
,
0000
0000
0000
0000
,
0000
0000
0000
0000
,
0000
0000
0000
0000
,
1000
0000
0000
0000
,
0001
0000
0000
0000
,
0100
0100
0200
0300
,
0010
0010
0020
0030
,
1000
0000
0001
0000
,
1000
0000
0100
0000
,
0010
0000
0010
0000
,
0100
0000
0100
0000
,
1000
0000
2000
3000
,
0001
0000
0002
0003
,
1000
0000
0001
0000
,
0010
0000
0020
0030
,
0100
0000
0010
0000
,
0100
0000
1000
0000
,
0001
0000
1000
0000
,
0010
0000
0020
0030
,
0100
0000
0001
0000
,
0100
0000
0002
0003
,
0010
0000
0010
0000
,
0100
0000
0200
0300
,
0020
0030
0200
0300
,
0020
0030
0200
0300
,
1000
0000
1000
0000
,
0001
0000
0001
0000
,
1000
0000
0001
0000
,
0100
0100
0100
0000
,
0010
0010
0010
0100
,
0010
0010
0010
0000
,
2000
0000
3000
0000
,
0002
0000
0003
0000
,
1000
0000
0100
0010
,
0100
0000
0020
0030
,
0001
0000
1000
0001
,
1000
0000
0020
0030
,
0100
0100
0100
0100
,
0010
0010
0010
0000
,
1000
0001
1000
0000
,
0020
0030
0200
0300
,
0020
0030
0200
0300
,
0001
1000
0001
1000
,
0001
1000
0001
0000
,
1000
1000
1000
0000
,
0001
0001
0001
0000
,
0010
0010
0010
0000
,
0100
0010
0100
0000
,
0020
0030
0200
0300
,
0020
0030
0200
0300
,
1000
0001
1000
0001
,
1000
0001
1000
0000
,
0010
0010
0010
0000
,
0100
0100
0100
0000
,
0001
1000
0001
1000
,
0010
0100
0010
0100
,
0020
0000
0000
0030
;

//---------------dance-single - ----------------
#NOTES:
     dance-single:
     :
     Medium:
     4:
     0.284,0.273,0.034,0.293,0.000:
0000
0000
0000
0000
,
0000
0000
0000
0000
,
1000
0000
0010
0010
,
1000
0001
0100
0100
,
0010
0000
1000
0000
,
0001
0000
1000
1000
,
0100
0100
0020
0030
,
0001
0100
0001
1000
,
0020
0030
2000
3000
,
0002
0003
2000
3000
,
0100
0100
0010
0010
,
0100
1000
0002
0003
,
1000
1000
0020
0030
,
0100
0100
0002
0003
,
0010
0010
0200
0300
,
0010
0000
0001
1000
0100
0000
0000
0000
,
0020
0030
0200
0300
,
1000
1000
0020
0030
,
0100
0100
0010
0010
,
1000
0001
2002
3003
,
1000
1000
0001
0001
,
0010
0010
0200
0300
,
0010
0010
0001
1000
,
0010
0000
0100
0010
0100
0000
0000
0000
,
0020
1000
1030
0000
,
0020
0001
0031
0000
,
1000
0000
0001
0100
0001
0000
1000
0000
,
0001
0000
1000
0100
1000
0000
0000
0000
,
0010
0000
0100
0010
0100
0000
0010
0000
,
1000
0000
0001
0100
0020
0000
0030
0000
,
1000
1000
0100
0001
,
0001
0000
0100
1000
0001
0000
0100
0001
,
2000
0000
0000
3000
,
0002
0000
0000
0003
,
0010
0000
0001
0010
0100
0000
0010
0000
,
0001
0000
0100
0010
1000
0000
0000
0000
,
1000
0000
0001
0100
0001
0000
1000
0000
,
0001
0000
1000
0100
1000
0000
0000
0000
,
0010
0010
0100
0100
,
0010
0000
1000
0001
1000
0000
1001
0000
,
0020
0000
0000
0030
,
2000
3000
0002
0003
,
1000
0000
0001
0100
0002
0000
0003
0000
,
1000
1000
0010
0001
,
0001
1000
2002
3003
,
0010
0010
0100
0100
,
0010
0010
2002
3003
,
1000
0100
0001
0100
,
1000
0000
0001
1000
0100
0000
0000
0000
,
0020
0030
0200
0300
,
0010
0000
0001
1000
0200
0000
0300
0000
,
1000
1000
0010
0010
,
0100
0010
0020
0030
,
0100
0001
1000
0100
,
1000
0001
0200
0300
,
0010
0010
1000
0001
,
0010
0000
0001
1000
0100
0000
1000
0001
,
0200
0000
0000
0300
;

//---------------dance-single - ----------------
#NOTES:
     dance-single:
     :
     Beginner:
     1:
     0.097,0.123,0.009,0.000,0.000: // measure 1
0000
0000
0000
0000
,  // measure 2
0000
0000
0000
0000
,  // measure 3
0000
0000
0000
0000
,  // measure 4
0000
0000
0000
0000
,  // measure 5
0010
0000
0000
0000
,  // measure 6
0100
0000
0000
0000
,  // measure 7
0010
0000
0010
0000
,  // measure 8
0100
0000
0100
0000
,  // measure 9
0010
0000
0000
0000
,  // measure 10
1000
0000
0000
0000
,  // measure 11
0010
0000
0000
0000
,  // measure 12
0100
0000
0000
0000
,  // measure 13
0001
0000
0000
0000
,  // measure 14
0001
0000
0000
0000
,  // measure 15
1000
0000
0000
0000
,  // measure 16
1000
0000
0000
0000
,  // measure 17
0001
0000
0000
0000
,  // measure 18
0010
0000
0000
0000
,  // measure 19
0100
0000
0000
0000
,  // measure 20
0100
0000
0000
0000
,  // measure 21
0010
0000
0000
0000
,  // measure 22
0001
0000
0000
0000
,  // measure 23
1000
0000
0001
0000
,  // measure 24
1000
0000
0001
0000
,  // measure 25
1000
0000
1000
0000
,  // measure 26
0001
0000
0001
0000
,  // measure 27
0010
0000
0000
0000
,  // measure 28
0100
0000
0000
0000
,  // measure 29
0010
0000
0000
0000
,  // measure 30
0100
0000
0000
0000
,  // measure 31
1000
0000
1000
0000
,  // measure 32
0001
0000
0001
0000
,  // measure 33
0010
0000
0000
0000
,  // measure 34
0100
0000
0000
0000
,  // measure 35
0010
0000
0010
0000
,  // measure 36
0100
0000
0100
0000
,  // measure 37
0010
0000
0000
0000
,  // measure 38
1000
0000
0000
0000
,  // measure 39
0001
0000
1000
0000
,  // measure 40
0001
0000
1000
0000
,  // measure 41
0010
0000
0000
0000
,  // measure 42
1000
0000
0001
0000
,  // measure 43
1000
0000
0001
0000
,  // measure 44
1000
0000
0001
0000
,  // measure 45
1000
0000
0001
0000
,  // measure 46
0010
0000
0000
0000
,  // measure 47
0100
0000
0000
0000
,  // measure 48
0010
0000
0010
0000
,  // measure 49
0100
0000
0100
0000
,  // measure 50
1000
0000
0001
0000
,  // measure 51
1000
0000
0001
0000
,  // measure 52
0010
0000
0100
0000
,  // measure 53
0010
0000
0100
0000
,  // measure 54
1000
0000
0000
0000
,  // measure 55
0001
0000
0000
0000
,  // measure 56
1000
0000
0001
0000
,  // measure 57
1000
0000
0001
0000
,  // measure 58
1001
0000
0000
0000
;
