#TITLE:1 2 3〜恋がはじまる〜;
#SUBTITLE:;
#ARTIST:いきものがかり;
#TITLETRANSLIT:1 2 3 ~Koi ga Hajimaru~;
#SUBTITLETRANSLIT:;
#ARTISTTRANSLIT:Ikimono-gakari;
#GENRE:;
#CREDIT:;
#BANNER:[Moon Runes] - 1 2 3 ~Koi ga Hajimaru~.png;
#BACKGROUND:[Moon Runes] - 1 2 3 ~Koi ga Hajimaru~-bg.png;
#LYRICSPATH:;
#CDTITLE:;
#MUSIC:1 2 3 ~Koi ga Hajimaru~.ogg;
#OFFSET:-0.459000;
#SAMPLESTART:99.504997;
#SAMPLELENGTH:12.000000;
#SELECTABLE:YES;
#BPMS:0.000000=158.000000
;
#STOPS:
;
#BGCHANGES:;
#KEYSOUNDS:;
#ATTACKS:;

//---------------dance-single - ----------------
#NOTES:
     dance-single:
     :
     Beginner:
     2:
     0.119048,0.118841,0.043478,0.014493,0.000000,107.000000,6.000000,2.000000,0.000000,0.000000,0.000000,0.119048,0.118841,0.043478,0.014493,0.000000,107.000000,6.000000,2.000000,0.000000,0.000000,0.000000:
0000
0000
0000
0000
,
0000
0000
0000
0000
,
0000
0000
0000
0000
,
0000
0000
0000
0000
,
0000
0000
0000
0000
,
0000
0000
0000
0000
,
1000
0000
1000
0000
,
1000
0000
0000
0000
,
1000
0000
1000
0000
,
1000
0000
0000
0000
,
1000
0000
1000
0000
,
1000
0000
0000
0000
,
1000
0000
1000
0000
,
1000
0000
0000
0000
,
1000
0000
0001
0000
,
1000
0000
0000
0000
,
1000
0000
0001
0000
,
1000
0000
0000
0000
,
1000
0000
0001
0000
,
1000
0000
0000
0000
,
1000
0000
0001
0000
,
1000
0000
0000
0000
,
0001
0000
0001
0000
,
0001
0000
0001
0000
,
1000
0000
1000
0000
,
1000
0000
1000
0000
,
1001
0000
0000
0000
,
0100
0000
0000
0000
,
0010
0000
0000
0000
,
1000
0000
0000
0000
,
0001
0000
0000
0000
,
1000
0000
0000
0000
,
0010
0000
0000
0000
,
1000
0000
0001
0000
,
1001
0000
0000
0000
,
0100
0000
0000
0000
,
0001
0000
0000
0000
,
1000
0000
0000
0000
,
0010
0000
0000
0000
,
1000
0000
0001
0001
,
0001
0000
0000
0000
,
1000
0000
0000
0000
,
0010
0000
0000
0000
,
0010
0000
0000
0000
,
0100
0000
0000
0000
,
0100
0000
0000
0000
,
0001
0000
0001
0000
,
1000
0000
1000
0000
,
1001
0000
0110
0000
,
0000
0000
0000
0000
,
1000
0000
0000
0000
,
1000
0000
0000
0000
,
0001
0000
0000
0000
,
0001
0000
0000
0000
,
0100
0000
0000
0000
,
0100
0000
0000
0000
,
0010
0000
1000
0000
,
0001
0000
1000
0000
,
0010
0000
0010
0000
,
1000
1000
0000
0000
,
1000
0000
0001
0000
,
1000
0000
0001
0000
,
1000
0000
1000
0000
,
0001
0000
0000
0000
,
1000
0000
0001
0000
,
1000
0000
0001
0000
,
1000
0000
1000
0000
,
0000
0000
0000
0000
,
0001
0000
0001
0000
,
0001
0000
0000
0000
,
0010
0000
0010
0000
,
0010
0000
0000
0000
,
0100
0000
0100
0000
,
0100
0000
0000
0000
,
1000
0000
1000
0000
,
1000
0000
0000
0000
,
0010
0000
0000
0000
,
0100
0000
0000
0000
,
0001
0000
0000
0000
,
1000
0000
0010
0000
,
2002
0000
0000
3003
,
0000
0000
0000
0000
,
1001
0000
0000
0000
;

//---------------dance-single - ----------------
#NOTES:
     dance-single:
     :
     Hard:
     8:
     0.492754,0.502899,0.275362,0.072464,0.014493,428.000000,38.000000,10.000000,0.000000,0.000000,0.000000,0.492754,0.502899,0.275362,0.072464,0.014493,428.000000,38.000000,10.000000,0.000000,0.000000,0.000000:
// measure 0
0000
0000
0000
0000
,  // measure 1
0000
0000
0000
0000
,  // measure 2
0000
0000
0000
0000
,  // measure 3
0000
0000
0000
0000
,  // measure 4
0000
0000
0000
0000
,  // measure 5
0000
0000
0000
0000
,  // measure 6
1000
0100
1000
0100
1000
0000
0001
0100
,  // measure 7
0001
0100
0001
0000
0010
0001
0100
1000
,  // measure 8
0010
0000
0001
0100
0000
1000
0100
0000
,  // measure 9
0001
0000
1000
0010
0000
0100
0001
0000
,  // measure 10
0001
0010
0001
0010
0001
0000
1000
0010
,  // measure 11
1000
0010
1000
0000
0100
1000
0010
0001
,  // measure 12
0100
0000
1000
0010
0000
0001
0010
0000
,  // measure 13
1000
0000
0001
0010
0001
0010
0100
0000
,  // measure 14
1000
0000
0010
0100
0000
0100
0010
0000
,  // measure 15
1000
0000
0100
0000
0010
0001
0100
0000
,  // measure 16
0010
0000
0010
0100
0000
0100
0010
0000
,  // measure 17
0100
0000
0001
0000
0010
0100
1000
0100
,  // measure 18
0001
0100
1000
0000
1000
0010
0010
0000
,  // measure 19
0100
0001
0010
0000
0010
0100
1000
0000
,  // measure 20
1000
0001
0100
0000
0010
1000
0001
0001
,  // measure 21
0000
1000
0010
0100
0001
0001
1000
1000
,  // measure 22
0001
0100
0100
1100
0000
0010
0010
1010
,  // measure 23
0000
0001
0001
0011
0000
0100
0110
0000
,  // measure 24
0001
0001
0001
1001
0000
0100
0100
0110
,  // measure 25
0000
0010
0010
0110
0000
1001
0000
0000
,  // measure 26
0100
0010
1000
0000
0100
0010
0001
0000
,  // measure 27
0100
0010
0100
0001
0001
0010
1000
0000
,  // measure 28
0010
0100
1000
0000
0010
0100
0001
0000
,  // measure 29
0010
0100
0001
0000
0100
1000
0010
0001
,  // measure 30
0001
0010
1000
0000
0100
0010
0001
0001
,  // measure 31
0100
0010
1000
0000
0100
0100
0010
0000
,  // measure 32
0001
0010
0001
0000
0100
0100
0100
0000
,  // measure 33
0110
0000
0001
1001
0000
1001
0000
0110
,  // measure 34
0000
0000
0010
0000
1000
0100
1000
0000
,  // measure 35
0001
0100
0001
0000
0010
0100
0010
0000
,  // measure 36
0001
1000
0001
0000
0100
1000
0100
0000
,  // measure 37
0001
0010
0001
0100
0010
0010
1000
0000
,  // measure 38
0100
1000
0100
0000
0001
0000
0100
0000
,  // measure 39
0010
0001
0100
0100
,  // measure 40
0011
0000
0100
0110
0000
1010
0000
0000
,  // measure 41
0101
0010
1000
0100
,  // measure 42
0010
0001
0011
0000
0000
0001
0001
0101
,  // measure 43
0000
1000
1010
0000
0100
0010
0100
0000
,  // measure 44
0001
0001
1001
0000
0110
0000
0100
0101
,  // measure 45
0000
0010
0110
0000
0001
0000
0010
0000
,  // measure 46
0100
1000
0010
0000
0100
0001
0010
0000
,  // measure 47
0001
0100
1000
0000
1000
0100
0001
0000
,  // measure 48
0010
0010
0010
0000
0100
0100
0100
0000
,  // measure 49
0011
1100
0101
1001
,  // measure 50
0100
1000
1100
0000
0000
1000
1000
1010
,  // measure 51
0000
0001
0101
0000
0010
0100
0010
0000
,  // measure 52
1000
1000
1001
0000
0110
0000
0010
0011
,  // measure 53
0000
0100
0110
0000
1000
0000
0100
0000
,  // measure 54
0010
0001
0100
0000
0010
0000
0010
1000
,  // measure 55
0100
0000
1000
0010
0001
0000
0001
0010
,  // measure 56
2000
0100
0010
0001
,  // measure 57
0010
0001
0100
0001
,  // measure 58
0010
0100
0001
3010
,  // measure 59
0010
0100
0010
0100
0000
0010
0100
0000
,  // measure 60
0001
0010
0001
0010
0001
0000
1000
0010
,  // measure 61
1000
0010
1000
0000
0100
1000
0010
0001
,  // measure 62
0100
0000
1000
0010
0000
0001
0010
0000
,  // measure 63
1000
0000
0001
0100
0000
0010
1000
0000
,  // measure 64
1000
0100
1000
0100
1000
0000
0001
0100
,  // measure 65
0001
0100
0001
0000
0010
0001
0100
1000
,  // measure 66
0010
0000
0001
0100
0000
1000
0100
0000
,  // measure 67
0001
0000
1000
0100
1000
0100
0010
0000
,  // measure 68
0001
0000
0100
0010
0000
0010
0100
0000
,  // measure 69
0001
0000
0010
0000
0100
1000
0010
0000
,  // measure 70
0100
0000
0100
0010
0000
0010
0100
0000
,  // measure 71
0010
0000
1000
0000
0100
0010
0001
0010
,  // measure 72
1000
0010
0001
0000
0001
0100
0100
0000
,  // measure 73
0010
1000
0100
0000
0100
0010
0001
0000
,  // measure 74
0001
1000
0010
0000
0100
0001
1000
1000
,  // measure 75
0000
0001
0100
0010
1000
1000
0001
0001
,  // measure 76
2000
0000
0000
0000
3001
0100
0010
2002
,  // measure 77
0000
3003
0010
0010
,  // measure 78
0220
0000
0000
0000
0330
0000
0000
0000
1000
0000
0000
0100
0000
0000
0010
0000
,  // measure 79
0001
0100
0010
1000
,  // measure 80
1000
0001
1000
0001
1000
0000
0010
0100
,  // measure 81
0000
0100
0010
0000
2002
0000
3003
0000
,  // measure 82
0210
0000
0000
0000
0000
0000
0000
0000
0000
1000
0000
0000
0000
0000
0000
0000
,  // measure 83
0000
0000
0000
0001
0000
0000
0000
0000
0000
0000
0000
0000
0000
0000
0000
0020
,  // measure 84
0000
0000
0000
0000
,  // measure 85
0000
0000
0000
0000
,  // measure 86
0000
0000
0000
0330
;

//---------------dance-single - ----------------
#NOTES:
     dance-single:
     :
     Easy:
     4:
     0.248447,0.282880,0.210145,0.108696,0.000000,196.000000,29.000000,15.000000,0.000000,0.000000,0.000000,0.248447,0.282880,0.210145,0.108696,0.000000,196.000000,29.000000,15.000000,0.000000,0.000000,0.000000:
0000
0000
0000
0000
,
0000
0000
0000
0000
,
0000
0000
0000
0000
,
0000
0000
0000
0000
,
0000
0000
0000
0000
,
0000
0000
0000
0000
,
1000
1000
1000
0000
,
0001
0000
0001
0000
,
0010
0001
0100
0000
,
0010
0000
0010
0000
,
1000
1000
1000
0000
,
0100
1000
0010
0000
,
0100
0000
0100
0000
,
0001
0000
0001
0000
,
0010
0001
1000
1000
,
0001
0000
0001
0000
,
0100
0010
1000
1000
,
0100
0000
0100
0000
,
1000
0001
0100
0000
,
0010
0010
0010
0000
,
1000
0100
1000
0000
,
0010
0000
0010
0000
,
1001
0000
0110
0000
,
1001
0000
0110
0000
,
1010
0000
0101
0000
,
0011
0000
1100
0000
,
1001
0000
0001
0000
,
0100
0010
1000
0000
,
0100
0000
1000
0000
,
1000
0100
0001
0100
,
1000
0000
1000
0000
,
1000
0010
1000
0010
,
0100
0000
0100
0000
,
0100
0000
0001
0010
0000
0001
0000
0001
,
0000
1000
0001
0000
,
0100
0010
1000
0000
,
1000
0100
1000
0000
,
1000
0010
0001
0010
,
1000
0000
1000
0000
,
0001
0000
0001
0000
,
0101
0000
0000
1001
0000
0000
0000
0000
,
1010
0000
0011
0000
,
2002
0000
0000
3003
0000
0010
0000
0010
,
0000
1000
1000
0000
,
2020
0000
0000
0000
3030
0000
0100
0100
,
0000
0001
0001
0000
,
0010
0000
1000
0000
,
0100
1000
0010
0000
,
2000
0001
3001
0000
,
0010
0001
1000
1000
,
2002
0000
0000
3003
0000
0010
0000
0010
,
0000
0100
0100
0000
,
0220
0000
0000
0330
0000
0001
0001
0001
,
0000
1000
1000
0000
,
0010
1000
0100
0000
,
0100
1000
0001
0000
,
0100
0000
0001
0000
,
0010
0000
0100
0000
,
1000
0000
0001
0000
,
2002
0000
0000
3003
,
1000
0001
1000
0000
,
0001
0000
0001
0000
,
0100
0010
1000
0000
,
0100
0100
1000
0010
,
1000
0000
1000
0000
,
0001
0000
0001
0000
,
0100
0001
0010
0000
,
0001
1000
0100
0000
,
1000
1000
0001
0001
,
1001
0000
0110
0000
,
0010
0100
0001
1000
,
1001
0000
1001
0000
,
1000
0010
1000
0100
,
0001
0100
1000
0010
,
0100
0000
0100
0000
,
0001
0001
1000
0010
,
1001
0000
0000
0000
0000
0000
0000
0110
,
0000
0000
0000
0000
,
1010
0000
0000
0000
,
0011
0000
0101
0000
,
0220
0000
0000
0000
,
0000
0000
0000
0330
,
2002
0000
0000
0000
,
0000
0000
0000
0000
,
0000
0000
0000
0000
,
0000
0000
0000
0000
,
0000
0000
0000
3003
;

//---------------dance-single - ----------------
#NOTES:
     dance-single:
     :
     Medium:
     6:
     0.305383,0.345743,0.173913,0.115942,0.000000,255.000000,24.000000,16.000000,0.000000,0.000000,0.000000,0.305383,0.345743,0.173913,0.115942,0.000000,255.000000,24.000000,16.000000,0.000000,0.000000,0.000000:
0000
0000
0000
0000
,
0000
0000
0000
0000
,
0000
0000
0000
0000
,
0000
0000
0000
0000
,
0000
0000
0000
0000
,
0000
0000
0000
0000
,
1000
1000
1000
0001
,
0001
0000
0001
0000
0100
0000
0010
1000
,
0100
0100
1000
1000
,
0010
0000
0010
0000
0100
0001
1000
0000
,
0010
0010
0010
0100
,
0100
0100
0001
0010
,
0100
1000
0010
0000
0100
0000
0001
0000
,
1000
0000
1000
0000
0010
0100
0001
0000
,
1000
1000
0100
0100
,
2000
0000
3001
0000
,
0010
0010
0001
0001
,
0200
0000
0310
0000
,
0010
1000
0100
0000
,
0100
1000
0010
0000
,
0100
0001
0010
0000
0001
0000
0000
0000
,
0001
1000
0010
0000
0100
0000
0001
0000
,
1100
0000
0000
0011
0000
0000
0000
0101
,
0000
0000
0000
1001
0000
0000
0000
0000
,
1010
0000
0000
0101
0000
0000
0000
0011
,
0000
0000
0000
1100
0000
0000
0000
0000
,
0010
0010
0100
0000
,
0100
0100
0001
0001
,
0010
0000
0001
0000
1000
0100
1000
0000
,
0010
0000
0100
0000
0001
0010
0001
0100
,
0010
0010
1000
1000
,
0100
0100
1000
1000
,
1001
0000
0100
0000
,
0010
0000
0000
0010
0000
0010
0000
1000
,
0000
1000
0000
0100
,
1000
0010
0000
0010
,
0100
0001
0000
0010
,
0001
0001
1000
1000
,
1100
0000
0011
0000
,
0100
0100
0001
0010
,
0011
0000
0000
1100
0000
0000
0000
0000
,
1010
0000
0101
0000
,
0010
0000
0020
0000
0000
0100
0000
0100
,
0030
0010
1000
0100
,
1000
0000
2000
0000
0000
0000
0001
0001
,
3000
1000
0100
0010
,
0001
0000
0100
0000
1000
0100
0010
0000
,
1000
0001
0010
0001
,
0200
0001
0301
0000
,
2000
0010
3010
0000
,
1000
0100
1000
0000
0000
0010
0000
0010
,
0000
0100
0001
0010
,
0001
0100
0001
0000
0000
0010
0010
0010
,
0000
0001
1000
0010
,
0100
0000
0100
0000
,
0001
0000
0001
0000
,
1000
0000
1000
0000
,
0100
0000
0100
0000
,
0010
0000
0010
0000
,
0001
1000
0001
1000
0000
0000
1001
0000
,
0100
0100
0100
0010
,
0010
0010
1000
0001
,
1000
0100
1000
0000
0001
0000
0010
0000
,
0100
0010
0001
0100
,
0001
0001
0001
1000
,
1000
1000
0010
0001
,
0010
1000
0010
0000
,
1000
0000
1000
0100
,
1000
0000
0010
0100
0001
0000
0010
0000
,
0002
0003
0100
0000
,
0010
0000
0010
0000
1000
0100
1000
0000
,
0020
0030
0100
0000
,
0001
0010
0001
0000
0100
0000
0000
0000
,
0010
0100
0001
0000
,
0010
0010
0100
0100
,
1000
0001
1000
0000
0100
0000
0010
0000
,
0022
0000
0000
0000
0000
0000
0033
2200
,
0000
0000
0000
3300
,
1010
0000
0101
0000
,
0011
0000
1001
0000
,
0220
0000
0000
0000
,
0000
0000
0000
0330
,
2002
0000
0000
0000
,
0000
0000
0000
0000
,
0000
0000
0000
0000
,
0000
0000
0000
0000
,
0000
0000
0000
3003
;
