#VERSION:0.81;
#TITLE:Yuusei Overdose;
#SUBTITLE:;
#ARTIST:PON;
#TITLETRANSLIT:;
#SUBTITLETRANSLIT:;
#ARTISTTRANSLIT:;
#GENRE:Rock;
#ORIGIN:;
#CREDIT:;
#BANNER:Yuusei Overdose.png;
#BACKGROUND:Yuusei Overdose-bg.png;
#PREVIEWVID:;
#JACKET:Yuusei Overdose-jacket.png;
#CDIMAGE:;
#DISCIMAGE:;
#LYRICSPATH:;
#CDTITLE:;
#MUSIC:Yuusei Overdose.mp3;
#OFFSET:-0.365;
#SAMPLESTART:61.780;
#SAMPLELENGTH:15.000;
#SELECTABLE:YES;
#BPMS:0.000=166.000;
#STOPS:;
#DELAYS:;
#WARPS:;
#TIMESIGNATURES:0.000=4=4;
#TICKCOUNTS:0.000=4;
#COMBOS:0.000=1;
#SPEEDS:0.000=1.000=0.000=0;
#SCROLLS:0.000=1.000;
#FAKES:;
#LABELS:0.000=Song Start;
#BGCHANGES:;
#KEYSOUNDS:;
#ATTACKS:
;

//---------------dance-single - ----------------
#NOTEDATA:;
#CHARTNAME:;
#STEPSTYPE:dance-single;
#DESCRIPTION:;
#CHARTSTYLE:;
#DIFFICULTY:Beginner;
#METER:2;
#RADARVALUES:0.198,0.228,0.195,0.074,0.000,120.000,21.000,8.000,0.000,0.000,0.000,0.000,0.000,0.198,0.228,0.195,0.074,0.000,120.000,21.000,8.000,0.000,0.000,0.000,0.000,0.000;
#CREDIT:;
#NOTES:
// measure 0
0000
0000
0100
0100
,  // measure 1
1000
0000
1000
0000
,  // measure 2
0001
0000
0000
0001
0000
0000
0000
0000
,  // measure 3
0010
0000
0010
0000
,  // measure 4
0100
0000
0000
0100
0000
0000
0000
0000
,  // measure 5
1000
0000
1000
0000
,  // measure 6
0010
0000
0000
0010
0000
0000
0000
0000
,  // measure 7
0100
0000
0100
0000
,  // measure 8
0001
0000
0001
0000
,  // measure 9
1000
0000
0000
0000
1000
0000
0000
1000
,  // measure 10
0000
0000
1001
0000
,  // measure 11
0000
0010
0000
0100
,  // measure 12
0000
0010
0000
0010
,  // measure 13
0000
0100
0000
0010
,  // measure 14
0100
0000
0000
0100
0000
0000
0000
0000
,  // measure 15
0000
1000
0000
1000
,  // measure 16
0000
0001
0000
1000
,  // measure 17
0002
0000
0000
2003
,  // measure 18
0000
0000
0000
0000
,  // measure 19
3200
0000
0000
0320
,  // measure 20
0000
0000
0000
0030
,  // measure 21
0011
0000
0000
0000
,  // measure 22
1100
0000
0000
0000
,  // measure 23
1001
0000
1001
0000
,  // measure 24
1001
0000
0000
0000
,  // measure 25
1010
0000
0000
0000
,  // measure 26
0101
0000
0000
0000
,  // measure 27
0110
0000
0110
0000
,  // measure 28
0110
0000
0000
0000
,  // measure 29
0010
0000
0000
0000
0010
0000
0000
0010
,  // measure 30
0000
0000
1000
0000
,  // measure 31
1000
0000
0001
0000
,  // measure 32
1000
0000
0001
0000
,  // measure 33
0010
0000
0100
0000
,  // measure 34
0010
0000
0100
0000
,  // measure 35
1000
0000
0001
0000
,  // measure 36
1000
0000
0000
0000
0001
0000
0000
0010
,  // measure 37
0000
0000
0000
0100
0000
0000
0000
0010
,  // measure 38
0000
0000
0000
0000
0000
0000
0000
0100
,  // measure 39
0000
0000
0000
0010
0000
0000
0000
0100
,  // measure 40
0000
0000
0000
1000
0000
0000
0000
0000
,  // measure 41
0001
0000
0000
0000
,  // measure 42
1001
0000
0100
0100
,  // measure 43
1000
0000
1000
0000
,  // measure 44
0001
0000
0000
0001
0000
0000
0000
0000
,  // measure 45
0010
0000
0010
0000
,  // measure 46
0100
0000
0000
0100
0000
0000
0000
0000
,  // measure 47
1000
0000
1000
0000
,  // measure 48
0010
0000
0000
0010
0000
0000
0000
0000
,  // measure 49
0100
0000
0100
0000
,  // measure 50
0001
0000
0001
0000
,  // measure 51
1000
0000
1000
0000
,  // measure 52
0001
0000
0000
0001
0000
0000
0000
0000
,  // measure 53
0020
0000
0000
0000
,  // measure 54
0230
0000
0000
0000
,  // measure 55
1300
0000
1000
0000
,  // measure 56
0010
0000
0000
0010
0000
0000
0000
0000
,  // measure 57
0100
0000
0100
0000
,  // measure 58
0001
0000
0001
0000
,  // measure 59
1001
0000
0000
0000
,  // measure 60
0110
0000
0000
0000
,  // measure 61
1010
0000
0000
0000
,  // measure 62
0101
0000
0000
0000
,  // measure 63
0011
0000
0000
0000
,  // measure 64
1100
0000
0000
0000
,  // measure 65
1001
0000
0000
0000
,  // measure 66
0110
0000
0000
0000
,  // measure 67
0010
0010
0010
0000
,  // measure 68
0100
0000
0100
0000
0100
0000
0000
2002
,  // measure 69
0000
0000
0000
0000
,  // measure 70
3003
0000
0000
0000
;

//---------------dance-single - ----------------
#NOTEDATA:;
#CHARTNAME:;
#STEPSTYPE:dance-single;
#DESCRIPTION:;
#CHARTSTYLE:;
#DIFFICULTY:Easy;
#METER:5;
#RADARVALUES:0.357,0.423,0.558,0.065,0.000,202.000,60.000,7.000,0.000,0.000,0.000,0.000,0.000,0.357,0.423,0.558,0.065,0.000,202.000,60.000,7.000,0.000,0.000,0.000,0.000,0.000;
#CREDIT:;
#NOTES:
1100
1100
0100
0010
,
0001
0001
1000
1000
,
0010
0000
0000
1001
0000
0000
1000
0000
,
0100
0010
0100
0100
,
1000
0000
0000
1001
0000
0000
0001
0000
,
0100
0100
0010
0010
,
1000
0000
0000
0110
0000
0000
0001
0000
,
0010
0010
0100
0100
,
0010
0001
0100
0010
,
1000
0000
1000
0000
0001
0000
0000
1001
,
0000
0001
0010
0100
,
0000
1100
0000
0011
,
0000
0101
0120
1030
,
0000
1001
0000
0110
,
0010
0000
0000
0011
0000
0000
0000
0000
,
0000
1100
0000
1010
,
0000
0101
1002
0013
,
0210
0000
1300
2100
,
0000
0000
3001
0000
,
1002
0000
0103
0120
,
0000
1000
0000
0130
,
0110
0000
0010
1000
,
1001
0000
0001
0010
,
0110
0000
0011
0000
,
0010
0100
1000
0001
,
0101
0000
0001
1000
,
1100
0000
0100
0010
,
0011
0000
1001
0000
,
1010
1010
0110
0110
,
0100
0000
0001
0000
1000
0000
0000
1100
,
0000
0100
0010
0001
,
0000
0000
0000
0010
0000
0000
0000
0100
,
0000
0000
0000
1000
0000
0000
0000
0001
,
0000
0000
0000
1000
0000
0000
0000
0010
,
0000
0000
0000
0010
0000
0000
0000
0110
,
0000
0000
0000
1001
0000
0000
0000
0110
,
0000
0000
0000
1001
0000
0000
0000
1000
,
0000
0100
0000
0010
0000
0010
0000
0100
,
0000
1100
0000
0000
0000
0000
0000
1000
,
0000
0001
0000
0100
0000
0010
0000
0110
,
0000
0000
0000
1001
0000
0000
0000
0000
,
1000
0000
0001
0000
1000
0001
0000
1001
,
0000
1000
1010
1010
,
0010
0010
0100
0100
,
0001
0000
0000
1001
0000
0000
1000
0000
,
0100
0100
0010
0010
,
0001
0000
0000
0110
0000
0000
1000
0000
,
0100
0100
0010
0010
,
0001
0000
0000
1001
0000
0000
1000
0000
,
0010
0000
0010
0000
0100
0000
0000
0101
,
0000
0001
0010
0100
,
1000
1000
0001
0001
,
0100
0000
0000
0110
0000
0000
0000
0010
,
0000
0000
0000
1000
0000
0000
0000
0001
,
0000
0000
0000
0100
0000
0000
0001
0000
,
1000
1000
0001
0001
,
0010
0000
0000
0110
0000
0000
0100
0000
,
1000
0000
1000
0000
0100
0000
0000
0110
,
0000
0010
0001
0100
,
0010
0000
0110
0000
,
0010
0000
1010
0000
,
1000
0000
1001
0000
,
0001
0000
0001
0000
,
0100
0000
0110
0000
,
0010
0000
1010
0000
,
1000
0000
1001
0000
,
0001
0000
0001
0000
,
0110
0000
0110
0000
0110
0000
0000
0100
,
0000
0000
1000
0000
0100
0000
0010
0002
,
0000
0000
0000
0000
,
0003
0000
0000
0000
;

//---------------dance-single - ----------------
#NOTEDATA:;
#CHARTNAME:;
#STEPSTYPE:dance-single;
#DESCRIPTION:;
#CHARTSTYLE:;
#DIFFICULTY:Medium;
#METER:7;
#RADARVALUES:0.518,0.520,0.613,0.037,0.112,320.000,66.000,4.000,0.000,0.000,0.000,0.000,0.000,0.518,0.520,0.613,0.037,0.112,320.000,66.000,4.000,0.000,0.000,0.000,0.000,0.000;
#CREDIT:;
#NOTES:
0010
0100
0010
0000
1000
0000
1000
0000
,
1001
1001
0001
0001
,
0010
0000
0100
0010
0000
0000
0001
0010
,
0100
1000
0200
0000
0000
1300
0100
1000
,
0001
0100
0000
0010
0000
0100
0010
0000
,
1010
1010
0010
0010
,
0100
0000
0010
1000
0000
1000
0001
0000
,
0010
0001
0010
0000
0001
0100
0010
1000
,
0000
1000
0001
1000
0100
0010
0100
1000
,
0001
0000
0101
0000
0100
0100
0000
0110
,
0000
0010
1000
0001
,
0000
1010
0000
0011
,
0000
1100
0201
1300
,
0000
0101
0000
1100
,
1000
0010
0001
0011
0000
0000
0010
0000
,
0000
1010
0000
1100
,
0000
0011
0102
0013
,
0001
0000
0010
0100
1000
0000
1001
0000
,
1000
0010
0100
0001
0100
0001
1000
0000
,
1001
0000
0000
0001
0010
0000
0110
0000
,
0000
0000
0010
0000
0000
0100
0010
0000
,
0011
0000
0000
0000
0001
1000
0001
0000
,
1001
0000
0000
0000
1000
0100
1000
0000
,
1100
0000
0110
0000
,
0011
0001
0101
0100
,
0110
0000
0000
0000
0010
1000
0010
0000
,
1010
0000
0000
0000
1000
0100
1000
0000
,
1100
0000
0000
0000
0110
0000
0000
0010
,
0001
0100
1000
0100
0000
0000
0010
0000
,
1000
0000
1010
0000
1000
0001
0000
0101
,
0000
0001
0010
0000
0011
0000
1100
0000
,
1000
0000
0001
1000
0000
0000
1000
0001
,
0000
0000
0001
0010
0000
0000
0010
0100
,
0000
0000
0100
1000
0000
0000
1000
0001
,
0000
0000
0100
0010
0000
0000
0010
1010
,
0000
0000
1000
1010
0000
0000
1000
1001
,
0000
0000
0001
1001
0000
0000
0000
0001
,
0000
0010
0000
0100
0000
1000
0000
1001
,
0000
0110
0000
0000
0010
0100
0010
1000
,
0000
0010
0000
0100
0000
0001
0000
1001
,
0000
0000
0100
0110
0000
0000
0010
0000
,
1010
0000
1010
0000
1000
0001
0000
0011
,
0000
0001
0100
0000
0110
0000
0110
0000
,
1010
1010
1000
1000
,
0001
0000
1000
0010
0000
0000
1000
0010
,
0001
0010
0100
0000
0010
0100
0001
1000
,
0100
0001
0000
0101
0000
0100
1000
0000
,
1001
1001
0001
0001
,
1000
0000
0010
0100
0000
0000
0010
0100
,
0001
1000
0001
0000
1000
0100
1000
0010
,
0000
0100
0010
0100
0001
0010
0001
0000
,
0011
0011
0010
0010
,
0100
0000
0010
0100
0000
1000
0100
0010
,
0000
0010
0100
1000
0000
1000
0010
0100
,
0000
0100
0010
1000
0000
1000
0001
0010
,
0110
0110
0010
0010
,
0001
0000
0010
0100
0000
0010
0001
0000
,
1000
0001
1000
0000
0010
1000
0010
0100
,
0000
0010
0100
0001
1000
0100
0010
0000
,
0100
0000
0000
0000
1000
0000
1100
0000
0000
0000
1000
0000
,
1010
0000
0000
0000
0010
0000
0110
0000
0000
0000
0100
0000
,
0101
0000
0000
0000
0001
0000
1001
0000
0000
0000
1000
0000
,
1100
0000
0000
0000
0100
0000
0110
0000
0000
0000
0010
0000
,
0001
0000
0001
0000
0001
0000
1000
0000
1000
0000
1000
0000
,
0010
0000
0010
0000
0010
0000
0100
0000
0100
0000
0100
0000
,
0010
0000
1000
0000
0010
0000
0100
0000
0001
0000
0100
0000
,
0001
1000
0001
1000
0001
1000
0001
0000
0000
1001
0000
0000
,
1010
0000
1010
0000
0010
0010
0000
0100
,
0000
0010
0100
0001
1000
0000
0001
2000
,
0000
0000
0000
0000
,
3000
0000
0000
0000
;

//---------------dance-single - ----------------
#NOTEDATA:;
#CHARTNAME:;
#STEPSTYPE:dance-single;
#DESCRIPTION:;
#CHARTSTYLE:;
#DIFFICULTY:Hard;
#METER:9;
#RADARVALUES:0.763,0.683,0.967,0.046,0.423,466.000,104.000,5.000,0.000,0.000,0.000,0.000,0.000,0.763,0.683,0.967,0.046,0.423,466.000,104.000,5.000,0.000,0.000,0.000,0.000,0.000;
#CREDIT:;
#NOTES:
0010
0001
0010
0001
0101
0000
0110
0000
,
1010
1010
1001
1001
,
0001
0010
0100
0110
0000
0010
0001
0100
,
0010
1000
0010
0000
1000
0001
0010
0100
,
0110
0000
0010
0000
0000
0000
0011
0000
0000
0000
0001
0010
0100
0000
0000
0000
,
0110
0110
0011
0011
,
1000
0001
0010
0110
0000
0100
1000
0010
,
0100
0001
0100
0000
0001
1000
0100
0110
,
0000
0000
0010
0000
0001
0000
0100
0000
1000
0100
0010
1000
0001
1000
0001
1000
,
0001
0000
1001
0000
0011
0011
0000
0110
,
0000
1001
1010
0101
,
0100
1010
0100
0011
,
0100
1010
0021
1030
,
0010
0101
0010
1100
,
1000
0000
0001
0000
0010
0000
0110
0000
0100
0010
0001
0010
0001
0000
0010
0100
,
1000
0011
1000
0101
,
1000
0000
0011
0000
0101
0100
0001
0010
,
0100
0000
0000
0000
0000
0000
0010
0000
0100
0000
0010
0000
0100
0000
0000
0000
0000
0000
0100
0000
0000
0000
0000
0000
1000
0000
0000
0000
0000
0000
0001
0000
0000
0000
0000
0000
1000
0000
0000
0000
0000
0000
0001
0000
0000
1000
0000
0000
,
0010
0100
0010
0100
0010
1000
0001
0000
1000
0000
1000
0000
1100
0000
0000
0000
,
0100
0000
0000
1000
0100
0010
0001
0000
0000
0100
0000
0000
0001
0000
0000
1000
0000
0000
1100
0000
0000
0000
0000
0000
,
0000
0000
0000
0000
1000
0100
0010
0000
0000
0000
0000
0000
0100
0000
0000
0010
0000
0000
0011
0000
0000
0000
0000
0000
,
0101
0000
0000
0000
0100
0010
1010
0000
,
1100
0100
0000
0000
0100
0000
0010
0000
,
2002
0000
0000
3003
0110
0010
0000
0010
,
0001
0100
1000
0100
0001
0010
1000
0010
,
0001
0000
1001
0000
0000
0000
0000
0000
1010
0000
0000
1000
0100
0000
0010
0000
,
0001
0000
0011
0000
0000
0000
0001
0000
1001
0000
0000
1000
0010
0000
0100
0000
,
0010
0000
0000
0010
1000
0000
0000
1000
0001
0000
0000
0001
0010
0000
0000
0010
,
0100
1000
0001
0010
0001
0010
0110
0000
,
0100
0100
1000
0100
0100
0010
0100
0001
,
0000
0000
0100
0000
1000
0000
0010
0000
0001
0000
0010
0100
0001
0010
0100
1000
,
0001
1000
0001
1000
0010
0100
0010
0100
,
0010
0000
1000
0000
0010
0000
1000
0100
0010
0000
0100
0010
0001
0000
0100
0000
,
0001
0010
1000
0010
0001
0100
1000
0100
,
0001
0000
0010
0000
0100
0000
0010
0001
0100
0000
0010
0000
1000
0000
1010
0000
,
0000
0000
0010
1000
0100
1000
0100
0000
0000
0000
1000
0100
0010
0000
0110
0000
,
0000
0000
0100
1000
0001
0000
1001
0000
0001
0000
0100
0000
1000
0000
1100
0000
,
0000
0101
0000
0011
0000
1010
0000
0110
,
0000
1001
0000
1000
0100
0010
0100
0110
,
0000
1001
0000
1010
0000
0101
0000
1001
,
0000
0000
0001
0000
0010
0000
0110
0000
0100
1000
0100
1000
0001
0000
0000
0000
,
1010
0000
1010
0000
0010
0100
0000
0110
,
0000
0000
0100
0001
1000
0000
0000
0000
1001
0000
0000
0000
0110
0000
0000
0000
,
1010
1010
0101
0101
,
0001
0010
1000
1010
0000
0010
0100
1000
,
0001
0100
0001
0000
0100
0010
1000
0001
,
1001
0000
1000
0000
0000
0000
1100
0000
0000
0000
0100
0010
0100
0000
0000
0000
,
1100
1100
1001
1001
,
0001
0100
0010
0011
0000
0010
1000
0100
,
0010
0100
0010
0000
0100
1000
0001
0101
,
0000
0000
0100
0000
0010
0000
1000
0001
0010
0000
0100
0010
0001
0100
0001
0100
,
0010
1010
0100
0101
,
0001
0000
0010
0000
0100
0000
0101
0000
0000
0000
0100
1000
0100
0000
1000
0000
,
0010
0100
0001
0101
0000
0001
0010
0110
,
0000
0000
0100
0000
1000
0000
1001
0000
0000
0000
0001
0100
0001
0100
0001
0000
,
0010
0011
0100
1100
,
1000
0010
0100
1100
0000
0100
0001
0000
,
0010
0100
1000
0000
0100
0010
0100
0110
,
0000
0000
0000
0010
0000
0000
0001
0000
0100
0000
0010
0000
1000
0000
0001
0000
1000
0000
0001
0000
0010
0000
0001
0000
,
0010
0000
0100
0000
1000
0000
1001
0000
0001
0000
0100
0000
,
0010
0000
1000
0000
0001
0000
1001
0000
0001
0000
0010
0000
,
0100
0000
0000
0000
1000
0000
0000
0000
0001
0000
0000
0000
0011
0000
0000
0000
0001
0000
0010
0000
0100
0000
1000
0001
,
1000
0001
1000
0001
0010
0001
0010
0100
0010
0100
1000
0100
,
1000
0000
0100
0000
0010
0000
0011
0000
0001
0000
0100
0000
,
1000
0000
0001
0000
0010
0000
1010
0000
1000
0000
0001
0000
,
0010
0000
0000
0000
0100
0000
0000
0000
0010
0000
0000
0000
0011
0000
0000
0000
0001
0000
0100
0000
0010
0000
1000
0001
,
1000
0010
1000
0010
0100
0001
0101
0000
0000
0110
0000
0000
,
1001
0000
1001
0000
0110
0110
0000
1010
,
0000
0010
1000
0100
0001
0000
0101
2200
,
0000
0000
0000
0000
,
3300
0000
0000
0000
;
