#TITLE:Young Man;
#SUBTITLE:;
#ARTIST:Razor Ramon HG;
#TITLETRANSLIT:;
#SUBTITLETRANSLIT:;
#ARTISTTRANSLIT:;
#CREDIT:Lisek;
#BANNER:[Male Vocalists] - Young Man.png;
#BACKGROUND:[Male Vocalists] - Young Man-bg.png;
#LYRICSPATH:;
#CDTITLE:cdtitle.png;
#MUSIC:[Male Vocalists] - Young man.ogg;
#OFFSET:0.000;
#SAMPLESTART:52.476;
#SAMPLELENGTH:14.400;
#SELECTABLE:YES;
#BPMS:0.000=128.000;
#STOPS:;
#BGCHANGES:0.000=[Male Vocalists] - Young Man.avi=1.000=1=0=1,
247.500=[Male Vocalists] - Young Man-bg.png=1.000=1=0=1,
99999=-nosongbg-=1.000=0=0=0 // don't automatically add -songbackground-
;

//---------------dance-single - Lisek----------------
#NOTES:
     dance-single:
     Lisek:
     Hard:
     8:
     0.480,0.479,0.232,0.189,0.047: // measure 1
0000
0000
0000
0000
,  // measure 2
0000
0000
0000
0000
,  // measure 3
0000
0000
0000
0000
,  // measure 4
0000
0000
0001
0000
0100
0000
0001
1000
0000
1000
0010
0000
0100
0000
0000
0000
,  // measure 5
0001
0010
0100
1000
0010
0100
0001
1000
,  // measure 6
0001
0000
1000
0000
0100
0000
1000
0010
0000
1000
0100
0000
1000
0000
0000
0000
,  // measure 7
1000
0100
0010
0001
1000
0010
0100
0001
,  // measure 8
1000
0000
0001
0000
0100
0000
0001
0010
0000
0001
0100
0000
0001
0000
0000
0000
,  // measure 9
2100
0000
0000
0000
0000
0000
3001
0100
0002
0000
0000
0000
0000
0000
0003
0000
,  // measure 10
0101
0011
1010
1100
,  // measure 11
1001
1001
1000
0001
0100
0010
0100
0001
,  // measure 12
1000
0100
0010
0001
0000
0001
1000
0000
,  // measure 13
1001
1001
0001
0010
0001
0100
0010
1000
,  // measure 14
0100
0010
0100
1000
0000
1000
0010
0000
,  // measure 15
1001
1001
1000
0100
1000
0010
0100
0010
,  // measure 16
1000
0001
0010
0100
0000
0010
0001
0000
,  // measure 17
2000
0000
0000
0002
0000
0000
0010
0000
,  // measure 18
0000
0010
0000
0000
0010
0000
3013
0000
,  // measure 19
1001
1001
0001
0100
0010
0100
0001
0010
,  // measure 20
0100
1000
0100
0010
0000
0001
0100
0000
,  // measure 21
1001
1001
1000
0010
0100
0001
0010
0001
,  // measure 22
1000
0100
0010
0100
0000
1000
0010
0000
,  // measure 23
1001
1001
0001
0100
0001
0010
0100
1000
,  // measure 24
0100
0010
0001
0100
0000
0001
1000
0000
,  // measure 25
0002
0000
0000
2000
0000
0000
0010
0000
,  // measure 26
0000
0010
0000
0000
0010
0000
3013
0000
,  // measure 27
1010
0011
0101
1100
,  // measure 28
1001
0000
0000
0000
,  // measure 29
2000
0000
0000
0000
0002
0000
0100
0010
,  // measure 30
3003
1000
0100
1000
0010
1000
0100
1000
,  // measure 31
0002
0000
0000
0000
2000
0000
0010
0100
,  // measure 32
3003
0000
1000
0000
0001
0100
0010
1000
,  // measure 33
0100
0010
0010
0000
0001
0100
0100
0000
,  // measure 34
0020
0000
0000
0130
0000
0000
0001
0000
,  // measure 35
1000
0100
0010
0001
0100
0010
1000
0001
,  // measure 36
0100
0000
0010
0000
1000
0000
0100
0000
0010
0000
0001
0000
1000
0001
1000
0000
,  // measure 37
0002
0000
0000
0000
2000
0000
0010
0100
,  // measure 38
3003
0001
0010
0001
0100
0001
0010
0001
,  // measure 39
2000
0000
0000
0000
0002
0000
0100
0010
,  // measure 40
3003
0000
0001
0000
0100
0010
1000
0100
,  // measure 41
0010
0001
0001
0000
1000
0010
0010
0000
,  // measure 42
0200
0000
0000
0310
0000
0000
1000
0000
,  // measure 43
0001
0010
0100
1000
0010
0100
0001
1000
,  // measure 44
0100
0000
0010
0000
0001
0000
1000
0000
0010
0000
0100
0000
0001
1000
0001
0000
,  // measure 45
1000
0001
0000
0010
0000
0100
0000
1000
,  // measure 46
0000
0010
0100
1000
0100
0001
0010
0100
,  // measure 47
2000
0000
0000
0000
0000
0000
3001
0100
0001
0000
1000
0000
0000
0000
0010
0000
,  // measure 48
0000
0100
0000
0001
0000
0000
0000
0000
,  // measure 49
0001
0100
0100
0000
1000
0010
0010
0000
,  // measure 50
2000
0000
0000
3001
0000
0000
0000
0000
,  // measure 51
0020
0001
0100
0001
0100
0001
0100
0001
,  // measure 52
0100
0001
0100
0001
0100
0001
0130
0000
,  // measure 53
1001
0001
1000
0010
0000
1000
0000
0100
,  // measure 54
0000
0010
0001
0010
0100
0010
0001
1000
,  // measure 55
0020
0000
0000
0000
0000
0000
1030
0100
1000
0000
0010
0000
0000
0000
0100
0000
,  // measure 56
0000
0001
0000
0010
0000
0001
0000
1000
,  // measure 57
0010
0100
0100
0000
1000
0001
0001
0000
,  // measure 58
2000
0000
0000
3001
0000
0000
0000
0000
,  // measure 59
0200
0010
1000
0010
1000
0010
1000
0310
,  // measure 60
0110
1001
0110
1001
,  // measure 61
1000
1000
0001
0001
0100
0100
0001
0001
,  // measure 62
1000
1000
0010
0010
0100
0100
0010
0010
;

//---------------dance-single - Lisek----------------
#NOTES:
     dance-single:
     Lisek:
     Medium:
     6:
     0.359,0.426,0.249,0.155,0.000:
0000
0000
0000
0000
,
0000
0000
0000
0000
,
0000
0000
0000
0000
,
0000
0000
0000
0000
,
0001
0100
0010
1000
,
0100
0010
0001
1000
,
0001
0100
0010
1000
,
0100
0010
0100
1000
,
0002
0000
2003
0000
,
3001
1000
0001
1000
,
1001
0001
1000
0010
,
1000
0001
1000
0001
0000
1000
0001
0000
,
1001
1000
0010
0100
,
0001
0100
0001
0100
0000
0001
0100
0000
,
0101
0001
1000
0010
,
1000
0100
1000
0100
0000
1000
0100
0000
,
1100
0000
0000
1001
0000
0000
0011
0000
,
0000
1001
0000
0000
1100
0000
1001
0000
,
0101
0001
0100
0001
,
0100
0010
0100
0010
0000
0100
0010
0000
,
0110
0010
1000
0100
,
1000
0010
1000
0010
0000
1000
0010
0000
,
1010
1000
0001
0100
,
0001
0010
0001
0010
0000
0001
0010
0000
,
0011
0000
0000
1001
0000
0000
1100
0000
,
0000
1001
0000
0000
0011
0000
1001
0000
,
1001
0110
1001
0110
,
1001
0000
0000
0000
,
2010
0000
0001
0000
0100
0000
0010
0001
,
3000
0001
1000
0001
,
0200
0000
1000
0000
0010
0000
0001
0010
,
0300
0010
1000
0001
,
1000
0100
1000
0000
0001
0010
0001
0000
,
2000
0000
0000
3001
0000
0000
0001
1000
,
0000
0010
0100
0001
0000
0010
0100
1000
,
0000
0001
1000
0000
0001
0000
1000
0000
,
0012
0000
0100
0000
1000
0000
0010
0100
,
0003
0100
0010
1000
,
0020
0000
0100
0000
1000
0000
0100
1000
,
0030
1000
0001
0100
,
0001
0010
0001
0000
1000
0100
1000
0000
,
0002
0000
0000
1003
0000
0000
0001
1000
,
0000
0010
0100
0001
0000
0010
0100
1000
,
0000
0001
1000
0000
0010
0000
0100
0000
,
0001
0100
1000
0100
,
0001
0100
0010
1000
,
0010
0100
0001
0100
,
0010
1000
0100
1000
,
0001
0100
0001
0000
1000
0010
1000
0000
,
0002
0000
0000
1003
0000
0000
0001
0000
,
1000
0010
0100
0001
,
1000
0100
0010
0001
,
1000
0100
0001
0100
,
1000
0010
0100
0001
,
0010
0001
1000
0010
,
0100
0010
1000
0001
,
0100
0001
0100
0000
0010
1000
0010
0000
,
0200
0000
0000
0310
0000
0000
1000
0000
,
0001
0100
0010
1000
,
0011
1100
0101
1010
,
2000
3002
0203
0302
,
2003
3020
2030
3200
,
0300
0000
0000
0000
;

//---------------dance-single - Lisek----------------
#NOTES:
     dance-single:
     Lisek:
     Easy:
     3:
     0.158,0.213,0.052,0.155,0.000:
0000
0000
0000
0000
,
0000
0000
0000
0000
,
0000
0000
0000
0000
,
0000
0000
0000
0000
,
2000
0000
3010
0000
,
0000
0000
0000
0000
,
0002
0000
0103
0000
,
0000
0000
0000
0000
,
0001
0000
1000
0000
,
0001
0000
0000
0000
,
1001
0000
0001
0000
,
1000
0000
0001
0000
,
1001
0000
1000
0000
,
0001
0000
1000
0000
,
1001
0000
0001
0000
,
1000
0000
0010
0000
,
0200
0000
0000
0020
0000
0000
0000
0000
,
0000
0000
0000
0330
,
0110
0000
0100
0000
,
0010
0000
0100
0000
,
0110
0000
0100
0000
,
0010
0000
0100
0000
,
0110
0000
0100
0000
,
0010
0000
1000
0000
,
0002
0000
0000
2000
0000
0000
0000
0000
,
0000
0000
0000
3003
,
0010
0010
0010
0010
,
0010
0000
0000
0000
,
2000
0000
3001
1000
,
0001
0000
0000
0000
,
2000
0000
3010
0100
,
0010
0000
0000
0000
,
1000
0000
0100
0000
,
0010
0000
0001
0000
,
1000
0000
0001
0000
,
1000
0000
0000
0000
,
0002
0000
1003
0001
,
1000
0000
0000
0000
,
0002
0000
0103
0010
,
0100
0000
0000
0000
,
0001
0000
0010
0000
,
0100
0000
1000
0000
,
0010
0000
1000
0000
,
0001
0000
0000
0000
,
1000
0000
0100
0000
,
1000
0000
0010
0000
,
1000
0000
0100
0000
,
1000
0000
0001
0000
,
2000
0000
3002
0000
,
2003
0000
0000
3001
0000
0000
0000
0000
,
0001
0000
1000
0000
,
0001
0000
0000
0000
,
1000
0000
0010
0000
,
0100
0000
0001
0000
,
1000
0000
0010
0000
,
1000
0000
0001
0000
,
2000
0000
3002
0000
,
2003
0000
0000
3001
0000
0000
0000
0000
,
0001
0000
0100
0000
,
0010
0010
0010
0010
,
0020
0000
0000
0000
,
0230
0000
0000
0000
0000
0000
0000
0300
;

//---------------dance-single - Lisek----------------
#NOTES:
     dance-single:
     Lisek:
     Beginner:
     1:
     0.069,0.103,0.000,0.077,0.000:
0000
0000
0000
0000
,
0000
0000
0000
0000
,
0000
0000
0000
0000
,
0000
0000
0000
0000
,
2000
0000
0000
0000
,
3000
0000
0000
0000
,
0002
0000
0000
0000
,
0003
0000
0000
0000
,
0000
0000
0000
0000
,
0000
0000
0000
0000
,
1000
0000
0000
0000
,
0001
0000
0000
0000
,
0100
0000
0000
0000
,
0010
0000
0000
0000
,
1000
0000
0000
0000
,
0001
0000
0000
0000
,
0200
0000
0000
0000
,
0300
0000
0000
0000
,
0001
0000
0000
0000
,
1000
0000
0000
0000
,
0010
0000
0000
0000
,
0100
0000
0000
0000
,
0001
0000
0000
0000
,
1000
0000
0000
0000
,
0020
0000
0000
0000
,
0030
0000
0000
0000
,
1000
0000
0001
0000
,
1000
0000
0000
0000
,
0002
0000
0000
0000
,
0003
0000
0000
0000
,
2000
0000
0000
0000
,
3000
0000
0000
0000
,
0001
0000
0000
0000
,
0100
0000
0000
0000
,
0010
0000
0000
0000
,
1000
0000
0000
0000
,
0002
0000
0000
0000
,
0003
0000
0000
0000
,
2000
0000
0000
0000
,
3000
0000
0000
0000
,
0001
0000
0000
0000
,
0100
0000
0000
0000
,
0010
0000
0000
0000
,
1000
0000
0000
0000
,
0001
0000
0000
0000
,
0100
0000
0000
0000
,
0001
0000
0000
0000
,
1000
0000
0000
0000
,
0010
0000
0000
0000
,
1000
0000
0000
0000
,
0010
0000
0000
0000
,
0100
0000
0000
0000
,
0001
0000
0000
0000
,
1000
0000
0000
0000
,
0010
0000
0000
0000
,
1000
0000
0000
0000
,
0001
0000
0000
0000
,
0100
0000
0000
0000
,
0010
0000
0000
0000
,
0200
0000
0000
0000
,
0300
0000
0000
0000
;
