#TITLE:Wow Wow VENUS;
#SUBTITLE:;
#ARTIST:VENUS;
#TITLETRANSLIT:;
#SUBTITLETRANSLIT:;
#ARTISTTRANSLIT:;
#GENRE:;
#CREDIT:Silverhawke;
#MENUCOLOR:;
#METERTYPE:DDR;
#BANNER:[Male Vocalists] - Wow Wow VENUS.png;
#BACKGROUND:[Male Vocalists] - Wow Wow VENUS-bg.png;
#JACKET:[Male Vocalists] - Wow Wow VENUS-jacket.png;
#LYRICSPATH:;
#CDTITLE:cdtitle.png;
#MUSIC:[Male Vocalists] - Wow Wow VENUS.mp3;
#OFFSET:-0.028;
#SAMPLESTART:48.923;
#SAMPLELENGTH:15.000;
#SELECTABLE:YES;
#LISTSORT:;
#DISPLAYBPM:157.000;
#BPMS:0.000=157.000;
#STOPS:;
#BGCHANGES:;
#ATTACKS:;

//---------------dance-single - ----------------
#NOTES:
     dance-single:
     :
     Hard:
     8:
     0.606,0.603,0.469,0.553,0.239: // measure 1
0000
0000
0000
0000
,  // measure 2
0000
0000
0000
0000
,  // measure 3
0000
0000
0000
0000
,  // measure 4
0000
0000
0000
0000
,  // measure 5
0001
0101
0000
0000
0000
0000
0000
2000
,  // measure 6
3100
0000
0000
0010
0000
0000
0100
0000
1001
0000
0000
0000
0110
0000
0000
0000
,  // measure 7
1000
1100
0000
0000
0000
0000
0000
0002
,  // measure 8
0103
0000
0000
0010
0000
0000
0100
0000
1001
0000
0000
0000
0110
0000
1000
0000
,  // measure 9
0001
0000
0000
0010
0000
0000
0100
0000
1000
0000
0000
0000
0110
0000
0001
0000
,  // measure 10
1000
0000
0000
0010
0000
0000
0100
0000
0001
0000
0000
0000
1100
0000
0010
0000
,  // measure 11
0001
0000
0000
0100
0000
0000
1000
0000
0100
0000
0000
0000
0101
0000
0010
0000
,  // measure 12
1000
0000
0000
0100
0000
0000
0001
0000
0100
0000
0000
0220
0330
0000
0000
0000
,  // measure 13
1000
0000
0010
0100
0001
0010
0000
0200
,  // measure 14
0000
1300
0100
0001
0100
1000
0010
0100
,  // measure 15
0000
0100
0001
0010
0100
0010
0100
1000
,  // measure 16
0010
0100
0010
1000
0100
0010
0001
1000
,  // measure 17
0001
0000
0100
0010
0100
0001
0000
0200
,  // measure 18
0000
0310
1000
0100
0010
1000
0010
0001
,  // measure 19
0000
1000
0100
0010
0001
0100
0010
0110
,  // measure 20
0000
0101
2200
0000
3300
1000
0100
0010
,  // measure 21
0001
0000
0000
0001
0000
0000
0001
0000
0001
0000
0000
0100
0000
0000
0010
0000
,  // measure 22
1000
0000
0000
0100
0000
0000
1000
0000
0010
0000
0000
0100
0000
0000
0001
0000
,  // measure 23
0010
0000
0000
0100
0000
0000
1000
0000
2000
0000
0000
0000
3100
0000
0010
0000
,  // measure 24
0000
0010
0100
1000
0001
0100
0010
1000
,  // measure 25
0001
0000
0000
0100
0000
0000
0001
0000
0020
0000
0000
0000
0030
0000
0000
0000
,  // measure 26
0100
0000
0000
1000
0000
0000
0100
0000
0010
0000
0000
0001
0000
0000
0100
0000
,  // measure 27
0010
0000
0000
1010
0000
0000
1000
0000
0100
0000
0000
0110
0000
0000
0010
0000
,  // measure 28
0001
0000
0000
0101
0000
0000
0100
0000
0010
0000
0000
1010
0000
0000
1000
0000
,  // measure 29
0200
0000
0000
0010
0310
0000
0001
0000
,  // measure 30
1000
0101
0010
1100
,  // measure 31
0001
0000
0000
1100
0000
0000
1000
0000
0000
0101
0000
0000
0001
0000
0100
0000
,  // measure 32
0010
0000
0000
1000
0000
0000
0100
0000
0110
0000
0000
0000
1001
0000
0000
0000
,  // measure 33
1100
0000
0000
0000
0101
0000
0000
0000
2000
0000
0000
3100
0000
0000
0010
0000
,  // measure 34
0000
0000
0001
0000
0100
0000
0001
0000
0020
0000
0000
0130
0000
0000
2000
0000
,  // measure 35
0000
3001
0100
1000
0100
0000
0001
0020
,  // measure 36
0000
0130
1000
0001
0100
0100
0010
0010
,  // measure 37
0101
0000
0000
0000
1100
0000
0000
0000
0002
0000
0000
0103
0000
0000
0010
0000
,  // measure 38
0000
0000
1000
0000
0100
0000
1000
0000
0020
0000
0000
0130
0000
0000
0002
0000
,  // measure 39
0000
0000
1003
0000
0100
0000
0001
0000
0100
0000
0000
1000
0000
0000
0020
0000
,  // measure 40
0000
0130
0001
1000
0100
0100
0010
0010
,  // measure 41
2002
3000
0200
0300
,  // measure 42
2000
3000
0203
0320
,  // measure 43
2000
0030
0200
0300
,  // measure 44
0002
0003
3100
1100
,  // measure 45
0201
0000
0000
0000
1000
0000
0000
0000
0302
0000
0000
1003
0000
0000
0000
0000
,  // measure 46
0001
0000
0010
0000
1000
0000
0010
0000
0002
0000
0000
1003
0000
0000
0000
0000
,  // measure 47
1200
0000
0000
0000
0001
0000
0000
0000
2300
0000
0000
3001
0000
0000
0000
0000
,  // measure 48
1000
0000
0010
0000
0001
0000
0010
0000
2000
0000
0000
3001
0000
0000
0000
0000
,  // measure 49
0021
0000
0000
0000
1000
0000
0000
0000
0032
0000
0000
0103
0000
0000
0000
0000
,  // measure 50
1000
0000
0100
0000
0001
0000
0010
0000
0100
0000
0000
0011
0000
0000
0000
0000
,  // measure 51
1020
0000
0000
0000
0001
0000
0000
0000
2030
0000
0000
3100
0000
0000
0000
0000
,  // measure 52
0001
0000
0100
0000
1000
0000
0010
0000
0200
0000
0000
0310
0000
0000
0000
0000
,  // measure 53
1000
0000
1000
0000
0001
0000
0010
0100
0010
0000
0000
0001
0000
0000
0100
0000
,  // measure 54
0020
0000
0000
0000
2030
0000
0000
0000
3002
0000
0000
0203
0000
0000
0000
0000
,  // measure 55
0301
0000
0001
0000
1000
0000
0010
0100
0010
0000
0000
1000
0000
0000
0100
0000
,  // measure 56
0020
0000
0031
1000
1001
0000
0110
0000
,  // measure 57
1000
0000
1000
0000
0100
0000
0010
0001
0010
0000
0000
0100
0000
0000
1000
0000
,  // measure 58
0002
0000
0000
0000
0203
0000
0000
0000
0320
0000
0000
2030
0000
0000
3100
0000
,  // measure 59
0020
0000
0000
0000
0031
0000
1000
0100
1000
0000
0000
0010
0000
0000
0200
0000
,  // measure 60
0301
0000
0000
1000
0000
0000
0100
0000
0110
0000
0000
0000
1001
0000
0000
0000
,  // measure 61
1100
1100
0000
0000
0000
0000
0000
0011
,  // measure 62
0000
1010
0000
0000
0000
0000
0000
1001
,  // measure 63
0000
0110
0000
0000
0000
0000
0000
0000
,  // measure 64
2010
3000
0102
1003
,  // measure 65
0102
0000
0003
0000
2100
0000
3000
0000
0002
0000
0000
0103
0000
0000
0010
0000
,  // measure 66
0000
0010
1000
0000
0100
0000
1000
0000
0020
0000
0000
0130
0000
0000
0002
0000
,  // measure 67
0000
0000
1003
0000
0100
0000
0001
0000
0100
0000
0000
1000
0000
0000
1020
0000
,  // measure 68
0000
0130
0001
1000
0100
0100
0010
0010
,  // measure 69
2100
0000
3000
0000
0102
0000
0003
0000
2000
0000
0000
3100
0000
0000
0010
0000
,  // measure 70
0000
0010
0001
0000
0100
0000
0001
0000
0020
0000
0000
0130
0000
0000
2000
0000
,  // measure 71
0000
0000
3001
0000
0010
0000
0100
0000
1100
0000
0000
0101
0000
0000
0021
0000
,  // measure 72
0000
0130
1000
0001
0100
0100
0010
0010
,  // measure 73
1001
0000
0000
1000
0000
0000
0000
0000
0010
0000
0000
0000
1000
0000
0000
0000
,  // measure 74
0100
0000
0000
0100
0000
0000
0000
0000
0020
0000
0000
0000
0032
0000
0000
0000
,  // measure 75
0103
0000
0000
0100
0000
0000
0000
0000
0010
0000
0000
0000
1000
0000
0000
0000
,  // measure 76
0001
0001
1000
1000
0000
0010
1001
0000
;

//---------------dance-single - ----------------
#NOTES:
     dance-single:
     :
     Medium:
     6:
     0.463,0.444,0.193,0.235,0.042: // measure 1
0000
0000
0000
0000
,  // measure 2
0000
0000
0000
0000
,  // measure 3
0000
0000
0000
0000
,  // measure 4
0000
0000
0000
0000
,  // measure 5
1000
0000
1000
0000
0001
0000
0000
0000
0100
0000
0000
0010
0000
0000
1000
0000
,  // measure 6
0100
0000
0100
0000
0010
0000
0010
0000
0001
0000
0000
1000
0000
0000
0100
0000
,  // measure 7
0010
0000
0010
0000
0001
0000
0000
0000
0100
0000
0000
0010
0000
0000
1000
0000
,  // measure 8
0001
0000
0000
0010
0000
0000
0100
0000
1000
0000
0000
0000
0000
0000
0001
0000
,  // measure 9
0100
0000
0000
1000
0100
0000
0000
0001
,  // measure 10
0010
0000
0000
1000
0010
0000
0000
0001
,  // measure 11
0100
0000
0000
0001
0010
0000
0000
1000
,  // measure 12
0100
0000
0000
0000
0000
0000
0010
0000
0100
0000
0000
0110
0000
0000
0000
0000
,  // measure 13
0001
0000
0100
0000
0001
0010
0000
0100
,  // measure 14
0000
0010
0001
0000
0100
0000
0010
1000
,  // measure 15
0000
0100
0010
0000
0100
1000
0000
0010
,  // measure 16
0000
1000
0100
0000
0010
0000
0001
0100
,  // measure 17
0000
0000
0010
0000
1000
0100
0000
0010
,  // measure 18
0000
0100
1000
0000
0010
0000
0100
0001
,  // measure 19
0000
0010
0100
0010
0100
0000
1000
0001
,  // measure 20
0000
0100
0110
0000
0000
0000
1000
0000
,  // measure 21
0001
0000
0001
0000
0001
0010
0100
1000
,  // measure 22
0010
0010
0100
0100
,  // measure 23
0001
0000
0010
0000
0100
1000
0001
0010
,  // measure 24
0000
0010
0001
1000
0100
0000
0010
0000
,  // measure 25
0001
0000
1000
0000
1000
0100
1000
0010
,  // measure 26
0100
0100
0001
0001
,  // measure 27
1000
0000
0000
1000
0100
0000
0000
0100
,  // measure 28
0010
0000
0000
0010
0001
0000
0000
0001
,  // measure 29
1000
0000
1000
0000
0010
0100
0001
0010
,  // measure 30
0100
1000
0010
0100
,  // measure 31
0001
0000
0000
1000
0000
0000
0001
0000
0000
1000
0000
0000
0010
0000
0100
0000
,  // measure 32
0001
0000
0000
1000
0000
0000
0100
0000
0010
0000
0000
0000
0110
0000
0000
0000
,  // measure 33
1200
0001
2300
3000
,  // measure 34
0002
0103
2000
3100
,  // measure 35
0001
0010
0100
1000
0010
0000
0010
0000
,  // measure 36
0010
1000
0100
0010
0001
0000
0001
0000
,  // measure 37
0201
1000
0302
0003
,  // measure 38
2000
3100
0002
0103
,  // measure 39
1000
0010
0100
0001
0010
0000
0010
0000
,  // measure 40
0010
0001
0100
0010
1000
0000
1000
0100
,  // measure 41
0001
0000
0000
0100
1000
0000
0000
0010
,  // measure 42
0001
0000
0000
0010
1000
0000
0000
0001
,  // measure 43
0010
0000
0000
1000
0010
0000
0000
0001
,  // measure 44
0100
0000
0000
1000
0100
0000
0110
0000
,  // measure 45
0101
1100
0201
1300
,  // measure 46
0100
0001
0010
0100
,  // measure 47
0011
1010
0021
1030
,  // measure 48
0010
0001
0100
0010
,  // measure 49
1100
0101
1200
0301
,  // measure 50
0100
1000
0010
0100
,  // measure 51
1010
0011
1020
0031
,  // measure 52
0010
1000
0100
0010
,  // measure 53
0001
0000
0001
0000
0010
0100
1000
0000
,  // measure 54
0002
0103
2000
3010
,  // measure 55
1000
0000
1000
0000
0100
0010
0001
0000
,  // measure 56
2000
3010
0002
0103
,  // measure 57
0001
0000
0010
0000
0100
1000
0010
0000
,  // measure 58
2000
3100
0002
0013
,  // measure 59
1000
0000
0010
0000
0100
0001
0010
0000
,  // measure 60
0002
0013
2000
3100
,  // measure 61
1000
0000
0000
0000
0001
0000
0000
0000
0100
0000
0000
0100
0000
0000
0000
0000
,  // measure 62
0001
0000
0000
0000
1000
0000
0000
0000
0100
0000
0000
0100
0000
0000
0000
0000
,  // measure 63
1000
0100
0001
0010
,  // measure 64
1000
0001
0110
1001
,  // measure 65
0021
1000
0032
0103
,  // measure 66
2000
3010
0002
0013
,  // measure 67
1000
0100
0010
0001
0100
0000
0100
0000
,  // measure 68
0100
0001
0010
0100
1000
0000
1000
0000
,  // measure 69
1020
0001
2030
3100
,  // measure 70
0002
0013
2000
3010
,  // measure 71
0001
0100
0010
1000
0100
0000
0100
0000
,  // measure 72
0100
1000
0010
0100
0001
0000
0001
0010
,  // measure 73
0100
1000
0010
0100
,  // measure 74
0001
0100
1000
0010
,  // measure 75
0001
0100
0010
1000
,  // measure 76
0100
0100
0010
0010
0000
0001
1001
0000
;

//---------------dance-single - ----------------
#NOTES:
     dance-single:
     :
     Easy:
     4:
     0.351,0.413,0.235,0.226,0.000: // measure 1
0000
0000
0000
0000
,  // measure 2
0000
0000
0000
0000
,  // measure 3
0000
0000
0000
0000
,  // measure 4
0000
0000
0000
0000
,  // measure 5
1001
0000
0000
0000
,  // measure 6
0110
0100
0001
1000
,  // measure 7
1001
0000
0000
0000
,  // measure 8
0110
0000
1001
0000
,  // measure 9
1000
0000
0000
0100
0100
0000
0000
0001
,  // measure 10
0001
0000
0000
0010
0010
0000
0000
1000
,  // measure 11
1000
0000
0000
0100
0100
0000
0000
0001
,  // measure 12
0001
0000
0000
0010
0010
0000
0000
0000
,  // measure 13
1000
0001
0100
0100
,  // measure 14
0001
1000
0100
0100
,  // measure 15
0010
0001
0100
0100
,  // measure 16
0010
1000
0100
0010
,  // measure 17
0100
1000
0010
0010
,  // measure 18
0100
0001
1000
1000
,  // measure 19
0010
1000
0100
0010
,  // measure 20
0001
1000
0000
0000
,  // measure 21
0110
0110
1000
0000
,  // measure 22
0110
0110
0001
0000
,  // measure 23
1000
0100
0010
0001
,  // measure 24
0010
0100
1000
0001
,  // measure 25
1001
1001
0100
0000
,  // measure 26
1001
1001
0010
0000
,  // measure 27
1000
0100
0010
0100
,  // measure 28
1000
0001
0100
0010
,  // measure 29
0200
0000
0020
0330
,  // measure 30
1000
0100
0010
0001
,  // measure 31
1000
0000
0001
0000
,  // measure 32
1001
0110
2002
3003
,  // measure 33
1000
1000
0100
0010
,  // measure 34
0001
0001
0100
0010
,  // measure 35
1000
1000
0100
0010
,  // measure 36
0001
0100
1000
0100
,  // measure 37
0001
0001
0010
0100
,  // measure 38
1000
1000
0010
0100
,  // measure 39
0001
0001
0010
0100
,  // measure 40
1000
0010
0001
0010
,  // measure 41
2000
0000
0000
3000
,  // measure 42
0000
0000
0002
0000
,  // measure 43
2000
0000
0000
0000
0000
0000
0000
0000
0000
0000
0000
3003
0000
0000
0000
0000
,  // measure 44
0100
0010
0110
1001
,  // measure 45
1000
0100
0220
0330
,  // measure 46
0001
0100
0220
0330
,  // measure 47
1000
0010
0220
0330
,  // measure 48
0001
0010
0220
0330
,  // measure 49
0100
1000
2002
3003
,  // measure 50
0100
0001
2002
3003
,  // measure 51
0010
1000
2002
3003
,  // measure 52
0010
0001
2002
3003
,  // measure 53
0010
0010
0010
0010
,  // measure 54
1000
0100
0001
0010
,  // measure 55
0100
0100
0100
0100
,  // measure 56
0001
0010
1000
0100
,  // measure 57
0010
0010
0010
0010
,  // measure 58
0001
0010
1000
0100
,  // measure 59
0010
0010
0010
0010
,  // measure 60
0100
0110
2002
3003
,  // measure 61
0001
0000
0000
0000
,  // measure 62
1000
0000
0000
0000
,  // measure 63
0100
0000
0010
0000
,  // measure 64
0002
0003
2000
3100
,  // measure 65
0001
1000
0100
0100
,  // measure 66
1000
0001
0100
0100
,  // measure 67
0001
1000
0010
0010
,  // measure 68
1000
0100
0001
0010
,  // measure 69
1000
0001
0100
0100
,  // measure 70
0001
1000
0100
0100
,  // measure 71
1000
0001
0010
0010
,  // measure 72
0001
0100
1000
0010
,  // measure 73
0001
0000
1000
1000
,  // measure 74
1000
0000
0100
0100
,  // measure 75
0100
0000
0010
0010
,  // measure 76
0010
0000
0001
0000
0000
0100
0100
0000
;

//---------------dance-single - ----------------
#NOTES:
     dance-single:
     :
     Beginner:
     1:
     0.095,0.126,0.000,0.000,0.000: // measure 1
0000
0000
0000
0000
,  // measure 2
0000
0000
0000
0000
,  // measure 3
0000
0000
0000
0000
,  // measure 4
0000
0000
0000
0000
,  // measure 5
1000
0000
0000
0000
,  // measure 6
1000
0000
0000
0000
,  // measure 7
0001
0000
0000
0000
,  // measure 8
0001
0000
0000
0000
,  // measure 9
0100
0000
0000
0000
,  // measure 10
0100
0000
0000
0000
,  // measure 11
0100
0000
0000
0000
,  // measure 12
0100
0000
0000
0000
,  // measure 13
0100
0000
0000
0000
,  // measure 14
0001
0000
0001
0000
,  // measure 15
0001
0000
0000
0000
,  // measure 16
1000
0000
1000
0000
,  // measure 17
1000
0000
0000
0000
,  // measure 18
0100
0000
0100
0000
,  // measure 19
0100
0000
0000
0000
,  // measure 20
0010
0000
0000
0000
,  // measure 21
0100
0000
0000
0000
,  // measure 22
0100
0000
0000
0000
,  // measure 23
1000
0000
0000
0000
,  // measure 24
0001
0000
0000
0000
,  // measure 25
0100
0000
0000
0000
,  // measure 26
0100
0000
0000
0000
,  // measure 27
0001
0000
0000
0000
,  // measure 28
1000
0000
0000
0000
,  // measure 29
0100
0000
0000
0000
,  // measure 30
0000
0000
0000
0000
,  // measure 31
0100
0000
0000
0000
,  // measure 32
1000
0000
1000
0000
,  // measure 33
1000
0000
0000
0000
,  // measure 34
0001
0000
0000
0000
,  // measure 35
1000
0000
0000
0000
,  // measure 36
0001
0000
0001
0000
,  // measure 37
0001
0000
0000
0000
,  // measure 38
1000
0000
0000
0000
,  // measure 39
0001
0000
0000
0000
,  // measure 40
1000
0000
1000
0000
,  // measure 41
1000
0000
0000
0000
,  // measure 42
0000
0000
0100
0000
,  // measure 43
0100
0000
0000
0000
,  // measure 44
0000
0000
0000
0000
,  // measure 45
0010
0000
0010
0000
,  // measure 46
0010
0000
0000
0000
,  // measure 47
0010
0000
0010
0000
,  // measure 48
0010
0000
0000
0000
,  // measure 49
0100
0000
0100
0000
,  // measure 50
0100
0000
0000
0000
,  // measure 51
0100
0000
0100
0000
,  // measure 52
0100
0000
0000
0000
,  // measure 53
1000
0000
0000
0000
,  // measure 54
0001
0000
0000
0000
,  // measure 55
0100
0000
0000
0000
,  // measure 56
0100
0000
0000
0000
,  // measure 57
0001
0000
0000
0000
,  // measure 58
1000
0000
0000
0000
,  // measure 59
0100
0000
0000
0000
,  // measure 60
0100
0000
0000
0000
,  // measure 61
1000
0000
0000
0000
,  // measure 62
0000
0000
0000
0000
,  // measure 63
0000
0000
0000
0000
,  // measure 64
0000
0000
0000
0000
,  // measure 65
0001
0000
0000
0000
,  // measure 66
1000
0000
0000
0000
,  // measure 67
0001
0000
0000
0000
,  // measure 68
1000
0000
1000
0000
,  // measure 69
1000
0000
0000
0000
,  // measure 70
0001
0000
0000
0000
,  // measure 71
1000
0000
0000
0000
,  // measure 72
0001
0000
0001
0000
,  // measure 73
0001
0000
0000
0000
,  // measure 74
0100
0000
0000
0000
,  // measure 75
1000
0000
0000
0000
,  // measure 76
0010
0000
0000
0000
;
