#TITLE:Wanna Be Your LOVER;
#SUBTITLE:;
#ARTIST:Laurent Newfield & Ravenant;
#TITLETRANSLIT:;
#SUBTITLETRANSLIT:;
#ARTISTTRANSLIT:;
#GENRE:;
#CREDIT:;
#BANNER:[Male Vocalists] - Wanna Be Your LOVER-bn.png;
#BACKGROUND:[Male Vocalists] - Wanna Be Your LOVER-bg.png;
#LYRICSPATH:;
#CDTITLE:cdtitle.png;
#MUSIC:[Male Vocalists] - Wanna Be Your LOVER.ogg;
#OFFSET:-1.854;
#SAMPLESTART:54.352;
#SAMPLELENGTH:12.000;
#SELECTABLE:YES;
#BPMS:0.000=128.000
;
#STOPS:
;
#BGCHANGES:;
#KEYSOUNDS:;
#ATTACKS:;

//---------------dance-single - ----------------
#NOTES:
     dance-single:
     :
     Hard:
     7:
     0.361,0.319,0.137,0.129,0.000,281.000,17.000,16.000,0.000,0.000,0.000,0.361,0.319,0.137,0.129,0.000,281.000,17.000,16.000,0.000,0.000,0.000:
0000
0000
0000
0000
,
0000
0000
0000
0000
,
0000
0000
0000
0000
,
1001
0110
0110
1001
,
2000
0100
0001
3100
,
1000
0000
0010
0100
0001
0000
1000
0000
,
0002
0010
1000
0013
,
0001
0100
0001
0100
0010
1000
0010
1000
,
0002
0100
1000
0103
,
0001
0000
1000
0100
0010
0000
0100
0000
,
2000
0010
0001
3010
,
1000
0000
0001
0000
1000
0001
1000
0001
,
0100
0000
0010
0000
0100
0001
1000
0000
,
0001
0000
0010
0000
0001
0100
1000
0100
,
0001
0000
0010
0000
0100
1000
0100
1000
,
0000
0001
0100
0010
0000
0100
0001
1000
,
0001
0000
1000
0000
0100
0010
0100
0000
,
0010
0000
0001
0000
1000
0010
0001
0010
,
1000
0100
0010
0100
,
1000
0010
0100
0000
0001
0010
0100
0010
,
0100
0000
1000
0000
0001
0000
1000
0010
,
0100
0000
0001
0000
1000
0000
0001
0010
,
0100
0001
0100
0010
,
0001
0000
1000
0000
0010
0100
0001
0000
,
0010
0000
0100
0000
1000
0000
0001
1000
,
0010
0000
0100
0000
0001
0000
1000
0001
,
0010
0000
0100
1000
0100
0010
0001
0100
,
0010
0010
0000
0000
0110
0000
1010
0000
,
0002
0000
0010
0000
1003
0000
0001
0100
,
0010
1000
0001
1000
,
0200
0001
1300
0001
,
1000
0010
1000
0010
0100
0001
0100
0001
,
0020
0000
0100
0000
0031
0000
0010
0100
,
1000
0001
1000
0010
,
0200
0001
0010
0301
,
0101
0101
1010
1010
,
1000
0000
0001
0010
0100
0000
0010
0001
,
0100
0100
0010
0100
,
0001
0010
0100
0000
1000
0010
0100
0000
,
0001
0001
1000
0001
,
1000
0000
0001
0100
0010
0000
1000
0100
,
0010
0100
0000
0100
0000
0010
0001
0010
,
0000
0001
0000
0202
0000
0303
0000
1000
,
0000
1100
0000
1010
0000
0110
0000
0000
,
0020
1000
0100
1030
,
0002
0000
0010
1003
,
0001
0000
1000
0100
0010
0000
0100
0010
,
0001
0100
1000
0010
,
0001
0000
0001
0000
0100
0000
0001
0010
,
0100
0000
0100
0000
0010
0001
1000
0000
,
0010
0001
0100
1000
,
0010
0000
0010
0000
0100
0001
1000
0001
,
2000
0100
0001
3100
,
1000
0010
0100
0000
0010
0100
0001
0000
,
1000
0001
0010
0100
,
0010
0001
1000
0000
0001
1000
0010
0000
,
0200
0010
0001
0310
,
1000
0100
0010
0000
0100
0010
0001
0000
,
1000
0010
0001
0010
,
0100
0100
0000
0000
0110
0000
0101
0000
,
2002
0000
0000
0000
,
3003
0000
0000
0000
;

//---------------dance-single - ----------------
#NOTES:
     dance-single:
     :
     Medium:
     5:
     0.300,0.295,0.056,0.209,0.000,228.000,7.000,26.000,0.000,0.000,0.000,0.300,0.295,0.056,0.209,0.000,228.000,7.000,26.000,0.000,0.000,0.000: // measure 0
0000
0000
0000
0000
,  // measure 1
0000
0000
0000
0000
,  // measure 2
0000
0000
0000
0000
,  // measure 3
1000
1000
0001
0001
,  // measure 4
2000
0100
0000
3100
,  // measure 5
1000
0000
0001
0000
0100
0010
0100
0000
,  // measure 6
0001
0010
0100
1000
,  // measure 7
0001
0100
0001
0000
1000
0100
1000
0000
,  // measure 8
0002
0100
0000
0103
,  // measure 9
0001
0000
0010
0000
0100
0010
0100
0000
,  // measure 10
1000
0010
0100
0001
,  // measure 11
0010
0000
0010
0000
0100
0010
0100
0010
,  // measure 12
0100
0000
0010
0001
,  // measure 13
1000
0000
0001
0100
,  // measure 14
0010
0000
1000
0001
,  // measure 15
2000
3100
0002
0103
,  // measure 16
0001
0000
1000
0010
,  // measure 17
0100
0000
0010
1000
,  // measure 18
0001
0000
0001
1000
,  // measure 19
0002
0013
2000
3010
,  // measure 20
1000
0010
0100
0001
,  // measure 21
1000
0100
0010
0001
,  // measure 22
0200
0000
0310
0100
,  // measure 23
0002
0013
0200
0310
,  // measure 24
0001
0010
0100
1000
,  // measure 25
0001
0100
0010
1000
,  // measure 26
0200
0000
0310
0100
,  // measure 27
1000
0001
0000
0000
1001
0000
1001
0000
,  // measure 28
0002
0000
0100
0103
,  // measure 29
0001
0000
0010
0000
0100
1000
0100
0000
,  // measure 30
2000
3010
0020
1030
,  // measure 31
0001
0010
0001
0000
1000
0010
1000
0000
,  // measure 32
0002
0000
0010
0013
,  // measure 33
0001
0000
0100
0000
0010
1000
0010
0000
,  // measure 34
2000
3100
0200
1300
,  // measure 35
0010
0010
0110
0110
,  // measure 36
0100
0000
0010
0000
0100
0001
0100
0000
,  // measure 37
0001
0010
0100
1000
,  // measure 38
0001
0000
0100
0000
0001
1000
0001
0000
,  // measure 39
1000
0100
0010
0001
,  // measure 40
1000
0000
0010
0000
1000
0100
1000
0000
,  // measure 41
0001
0100
0010
1000
,  // measure 42
0200
0000
0000
0300
,  // measure 43
0010
0001
0011
1001
,  // measure 44
0001
0100
0001
0000
1000
0000
0100
0000
,  // measure 45
0020
0000
0100
0130
,  // measure 46
1000
0000
0001
0100
0001
0000
0001
0000
,  // measure 47
0010
1000
0100
0001
,  // measure 48
2000
0000
3100
1000
,  // measure 49
0010
0100
0010
0000
1000
0000
0100
0000
,  // measure 50
0020
0000
0001
0031
,  // measure 51
1000
0000
0010
0000
1000
0100
1000
0000
,  // measure 52
0002
0000
0103
0001
,  // measure 53
0010
0100
0010
0000
0100
0000
1000
0000
,  // measure 54
0001
0100
0001
0000
0100
0000
0010
0000
,  // measure 55
2000
0000
0001
3001
,  // measure 56
1000
0100
0010
0100
,  // measure 57
1000
1000
0001
0100
,  // measure 58
0002
0013
0020
0031
,  // measure 59
0001
1000
0000
0000
1000
0000
0001
0000
,  // measure 60
2002
0000
0000
0000
,  // measure 61
3003
0000
0000
0000
;

//---------------dance-single - ----------------
#NOTES:
     dance-single:
     :
     Easy:
     3:
     0.229,0.221,0.024,0.097,0.000,184.000,3.000,12.000,0.000,0.000,0.000,0.229,0.221,0.024,0.097,0.000,184.000,3.000,12.000,0.000,0.000,0.000: // measure 0
0000
0000
0000
0000
,  // measure 1
0000
0000
0000
0000
,  // measure 2
0000
0000
0000
0000
,  // measure 3
1000
0001
1000
0001
,  // measure 4
0200
0000
0310
0100
,  // measure 5
0010
0000
1000
0010
,  // measure 6
1000
1000
0001
0001
,  // measure 7
0010
0100
0010
0100
,  // measure 8
0020
0000
0031
0010
,  // measure 9
0001
0000
1000
0100
,  // measure 10
1000
1000
0001
0001
,  // measure 11
0100
0010
0100
0010
,  // measure 12
1000
0000
1000
0100
,  // measure 13
0010
0000
0100
0010
,  // measure 14
0001
0000
0001
0000
,  // measure 15
1000
0010
1000
0010
,  // measure 16
1000
0000
0001
0010
,  // measure 17
0100
0000
0010
0100
,  // measure 18
1000
0000
1000
0000
,  // measure 19
0001
0100
0001
0100
,  // measure 20
0001
0000
0001
0100
,  // measure 21
0010
0000
0100
0010
,  // measure 22
1000
0000
1000
0000
,  // measure 23
0001
0010
0100
0010
,  // measure 24
0001
0000
1000
0010
,  // measure 25
0100
0000
0010
0100
,  // measure 26
0001
0001
1000
1000
,  // measure 27
0100
0000
0110
0110
,  // measure 28
0200
0000
1300
0100
,  // measure 29
1000
0000
0001
0100
,  // measure 30
0001
0010
0100
1000
,  // measure 31
0001
0000
1000
0000
,  // measure 32
0002
0000
0103
0001
,  // measure 33
0100
0000
0010
1000
,  // measure 34
0010
0000
0010
0100
,  // measure 35
0001
0001
1000
1000
,  // measure 36
0002
0100
0100
0003
,  // measure 37
0001
0010
0100
0000
,  // measure 38
0010
0001
0010
0001
,  // measure 39
1000
0100
1000
0100
,  // measure 40
2000
0010
0010
3000
,  // measure 41
1000
0100
0010
0100
,  // measure 42
1000
0010
1000
0000
,  // measure 43
0001
0100
0001
1000
,  // measure 44
0002
0000
0100
0103
,  // measure 45
0001
0000
1000
0000
,  // measure 46
0001
0010
0001
0010
,  // measure 47
0001
0100
0001
0100
,  // measure 48
0020
0000
0100
0030
,  // measure 49
0010
1000
0010
0000
,  // measure 50
1000
0100
1000
0100
,  // measure 51
0010
0000
0100
0100
,  // measure 52
2000
0000
0010
3010
,  // measure 53
1000
0000
0001
0000
,  // measure 54
1000
0100
1000
0100
,  // measure 55
1000
0001
1000
0001
,  // measure 56
0200
0000
0010
0300
,  // measure 57
0100
0001
0100
0000
,  // measure 58
0001
0010
0001
0010
,  // measure 59
0001
0000
1000
0000
,  // measure 60
2002
0000
0000
0000
,  // measure 61
3003
0000
0000
0000
;
