#VERSION:0.81;
#TITLE:Up in the Air;
#SUBTITLE:;
#ARTIST:Thirty Seconds to Mars;
#TITLETRANSLIT:;
#SUBTITLETRANSLIT:;
#ARTISTTRANSLIT:;
#GENRE:;
#ORIGIN:;
#CREDIT:;
#BANNER:Up in the Air - Thirty Seconds to Marsbn.png;
#BACKGROUND:Up in the Air - Thirty Seconds to Marsbg.png;
#PREVIEWVID:;
#JACKET:;
#CDIMAGE:;
#DISCIMAGE:;
#LYRICSPATH:Up in the Air - Thirty Seconds to Mars.lrc;
#CDTITLE:encorerebirth.png;
#MUSIC:Up in the Air - Thirty Seconds to Mars.ogg;
#OFFSET:0.002;
#SAMPLESTART:63.871;
#SAMPLELENGTH:15.464;
#SELECTABLE:YES;
#BPMS:0.000=124.000;
#STOPS:;
#DELAYS:;
#WARPS:;
#TIMESIGNATURES:0.000=4=4;
#TICKCOUNTS:0.000=4;
#COMBOS:0.000=1;
#SPEEDS:0.000=1.000=0.000=0;
#SCROLLS:0.000=1.000;
#FAKES:;
#LABELS:0.000=Song Start;
#BGCHANGES:;
#KEYSOUNDS:;
#ATTACKS:
;

//---------------dance-single - Spork!----------------
#NOTEDATA:;
#CHARTNAME:;
#STEPSTYPE:dance-single;
#DESCRIPTION:Spork!;
#CHARTSTYLE:;
#DIFFICULTY:Beginner;
#METER:1;
#RADARVALUES:0.089,0.126,0.045,0.009,0.000,63.000,5.000,1.000,0.000,0.000,0.000,0.000,0.000,0.089,0.126,0.045,0.009,0.000,63.000,5.000,1.000,0.000,0.000,0.000,0.000,0.000;
#CREDIT:Spork!;
#NOTES:
0000
0000
0000
0000
,
0000
0000
0000
0000
,
0000
0000
0000
0000
,
0000
0000
0000
0000
,
0000
0000
0000
0000
,
0000
0000
1000
0000
,
1000
0000
0100
0000
,
0010
0000
0100
0000
,
1000
0000
0000
0000
,
0000
0000
0010
0000
,
0010
0000
1000
0000
,
0001
0000
1000
0000
,
0010
0000
0000
0000
,
0100
0000
0000
0000
,
0100
0000
0000
0000
,
0010
0000
0000
0000
,
1000
0000
0001
0000
,
0010
0000
0000
0000
,
0010
0000
0000
0000
,
0100
0000
0000
0000
,
0100
0000
0000
0000
,
1000
0000
1001
0000
,
0001
0000
0100
0000
,
0010
0000
0000
0000
,
0010
0000
0000
0000
,
1000
0000
0000
0000
,
0001
0000
0000
0000
,
2000
0000
0000
0000
,
0000
0000
3000
0000
,
0001
0000
0000
0000
,
0001
0000
0000
0000
,
0001
0000
1000
0000
,
0001
0001
0001
0000
,
0110
0000
0000
0000
,
0100
0000
0000
0000
,
0110
0000
0000
0000
,
0010
0000
0000
0000
,
0110
0000
0000
0000
,
0001
0000
0000
0000
,
0100
0000
0100
0000
,
0100
0000
0000
0000
,
0001
0000
0000
0000
,
0001
0000
0000
0000
,
1000
0000
0000
0000
,
1000
0000
0000
0000
,
0001
0000
0000
0000
,
1000
0000
0000
0000
,
0001
0000
0000
0000
,
0001
0000
1000
0000
,
1000
0000
0000
0000
,
0000
0000
0100
0000
,
0100
0000
0000
0000
,
0000
0000
0010
0000
,
0010
0000
0000
0000
,
0000
0000
0001
0000
,
0001
0000
0000
0000
,
1001
0000
0000
0000
;

//---------------dance-double - Spork!----------------
#NOTEDATA:;
#CHARTNAME:;
#STEPSTYPE:dance-double;
#DESCRIPTION:Spork!;
#CHARTSTYLE:;
#DIFFICULTY:Easy;
#METER:2;
#RADARVALUES:0.172,0.201,0.108,0.234,0.000,96.000,12.000,26.000,0.000,0.000,0.000,0.000,0.000,0.172,0.201,0.108,0.234,0.000,96.000,12.000,26.000,0.000,0.000,0.000,0.000,0.000;
#CREDIT:Spork!;
#NOTES:
00000000
00000000
00000000
00000000
,
00000000
00000000
00000000
00000000
,
00000000
00000000
00000000
00000000
,
00000000
00000000
00000000
00000000
,
00000000
00000000
00000000
00000000
,
00001000
00000000
00001000
00000000
,
01000000
00000000
00100000
00000000
,
01000000
00000000
00001000
00000000
,
00002000
00000000
00003000
00000000
,
00010000
00000000
00010000
00000000
,
00000010
00000000
00000100
00000000
,
00000010
00000000
00010000
00000000
,
00001000
00000000
00002000
00000000
,
00013000
00000000
00000100
00000000
,
00000010
00000000
00000001
00001000
,
00000001
00000000
00000100
00000000
,
00000010
00000000
00010000
00001000
,
00022000
00000000
00030000
00003000
,
02002000
00000000
00003000
03000000
,
20020000
00000000
00030000
30000000
,
00010000
00000000
00100000
00100000
,
00001000
00000000
01000000
00000000
,
00100000
00000000
10000000
00010000
,
10000000
00000000
01000000
00000000
,
00100000
00000000
00001000
00010000
,
00022000
00000000
00003000
00030000
,
00020200
00000000
00030000
00000300
,
00002002
00000000
00000003
00000000
,
00003000
00000000
00000000
00000000
,
00000002
00000000
00002003
00000000
,
00003200
00000000
00000320
00000000
,
00000032
00000000
00001003
00000000
,
00000001
00000001
00000001
00000000
,
00000110
00000000
00000100
00000000
,
00010000
00000000
00001000
00000000
,
01100000
00000000
01000000
00000000
,
00001000
00000000
00010000
00000000
,
00000110
00000000
00000010
00000000
,
00010000
00000000
00001000
00000000
,
00020000
00000000
02030000
00000000
,
23000000
00000000
30000000
00000000
,
11000000
00000000
00000000
01000000
,
00010000
00000000
00000000
00010000
,
00001000
00000000
00000000
00001000
,
00000100
00000000
00000000
00000100
,
00000001
00000000
00000000
00000010
,
00001000
00000000
00000000
00001000
,
00010000
00000000
00000000
00010000
,
00200000
00000000
02300000
00000000
,
03010000
00000000
10000000
00000000
,
01000000
00000000
01000000
00000000
,
00020000
00000000
00030000
00000000
,
00011000
00000000
00000000
00000000
,
00001000
00000000
00000001
00000000
,
00000100
00000000
00000100
00000000
,
00002000
00000000
00003000
00000000
,
00011000
00000000
00000000
00000000
;

//---------------dance-single - Spork!----------------
#NOTEDATA:;
#CHARTNAME:;
#STEPSTYPE:dance-single;
#DESCRIPTION:Spork!;
#CHARTSTYLE:;
#DIFFICULTY:Easy;
#METER:3;
#RADARVALUES:0.189,0.230,0.117,0.117,0.000,121.000,13.000,13.000,0.000,0.000,0.000,0.000,0.000,0.189,0.230,0.117,0.117,0.000,121.000,13.000,13.000,0.000,0.000,0.000,0.000,0.000;
#CREDIT:Spork!;
#NOTES:
// measure 0
0000
0000
0000
0000
,  // measure 1
0000
0000
0000
0000
,  // measure 2
0000
0000
0000
0000
,  // measure 3
0000
0000
0000
0000
,  // measure 4
0000
0000
0000
0000
,  // measure 5
1000
0000
0100
0000
,  // measure 6
0010
0000
0001
0000
,  // measure 7
0001
0000
0100
0000
,  // measure 8
0220
0000
0330
0000
,  // measure 9
0001
0000
0010
0000
,  // measure 10
0100
0000
1000
0000
,  // measure 11
1000
0000
0010
0000
,  // measure 12
0100
0000
0100
0100
,  // measure 13
0001
0000
0001
0001
,  // measure 14
1000
0000
1000
1000
,  // measure 15
0100
0000
1100
0000
,  // measure 16
0100
0000
0101
0000
,  // measure 17
0100
0100
0100
1000
,  // measure 18
0010
0010
0010
1000
,  // measure 19
0001
0000
0001
0000
,  // measure 20
0100
0000
0010
0010
,  // measure 21
1000
0000
1000
1000
,  // measure 22
0001
0000
0001
0001
,  // measure 23
0010
0000
0011
0000
,  // measure 24
0010
0000
1010
0000
,  // measure 25
0010
0010
0010
0001
,  // measure 26
0100
0100
0100
0001
,  // measure 27
1000
0000
1000
0000
,  // measure 28
1000
0000
0000
0000
,  // measure 29
0101
0000
0010
0000
,  // measure 30
0100
0000
0010
0000
,  // measure 31
1100
0000
0010
0000
,  // measure 32
0200
0000
0000
0300
,  // measure 33
0001
0001
0010
0001
,  // measure 34
0100
0100
0001
0000
,  // measure 35
1000
1000
0010
1000
,  // measure 36
0100
0100
1000
0000
,  // measure 37
1000
1000
0001
0100
,  // measure 38
0010
0010
0100
0001
,  // measure 39
1000
0000
1000
0000
,  // measure 40
0001
0000
0000
0000
,  // measure 41
1000
0000
0000
0100
,  // measure 42
2100
0000
3000
0010
,  // measure 43
1020
0000
0030
0100
,  // measure 44
0201
0000
0300
0001
,  // measure 45
0012
0000
0003
0010
,  // measure 46
0120
0000
0030
0100
,  // measure 47
0210
0000
1300
0001
,  // measure 48
2000
0000
0002
0000
,  // measure 49
3003
0000
0001
0000
,  // measure 50
0100
0000
0010
0000
,  // measure 51
0020
0000
0000
0000
,  // measure 52
0030
0000
0000
0000
,  // measure 53
1000
0000
1000
0000
,  // measure 54
0010
0000
0100
0000
,  // measure 55
0200
0000
0000
0000
,  // measure 56
0310
0000
0000
0010
0000
0000
0010
0000
;

//---------------dance-single - Spork!----------------
#NOTEDATA:;
#CHARTNAME:;
#STEPSTYPE:dance-single;
#DESCRIPTION:Spork!;
#CHARTSTYLE:;
#DIFFICULTY:Medium;
#METER:4;
#RADARVALUES:0.235,0.255,0.126,0.126,0.000,155.000,14.000,14.000,0.000,0.000,0.000,0.000,0.000,0.235,0.255,0.126,0.126,0.000,155.000,14.000,14.000,0.000,0.000,0.000,0.000,0.000;
#CREDIT:Spork!;
#NOTES:
// measure 0
0000
0000
0000
0000
,  // measure 1
0000
0000
0000
0000
,  // measure 2
0000
0000
0000
0000
,  // measure 3
0000
0000
0000
0000
,  // measure 4
0000
0000
0000
0000
,  // measure 5
0000
0000
0000
0001
0000
0001
0000
0001
,  // measure 6
0000
0001
0000
0001
1000
0000
0010
0000
,  // measure 7
1000
0000
0000
1000
0000
1000
0000
1000
,  // measure 8
0100
0010
0000
0000
,  // measure 9
0000
0000
0000
1000
0000
1000
0000
1000
,  // measure 10
0000
1000
0000
1000
0001
0000
0100
0000
,  // measure 11
0001
0000
0000
0001
0000
0001
0000
0001
,  // measure 12
0010
0100
0010
0001
,  // measure 13
1000
0000
1000
0001
,  // measure 14
0100
0000
0100
0010
,  // measure 15
1000
0000
1000
0000
,  // measure 16
0001
0000
0001
1000
,  // measure 17
0001
0001
1000
0100
,  // measure 18
1000
1000
0001
0010
,  // measure 19
0011
0000
0000
0110
0000
0000
1100
0000
,  // measure 20
0100
1000
0010
1000
,  // measure 21
0001
0000
0001
1000
,  // measure 22
0100
0000
0100
0010
,  // measure 23
0001
0000
0001
0000
,  // measure 24
1000
0000
1000
0001
,  // measure 25
1000
1000
0001
0100
,  // measure 26
0001
0001
1000
0010
,  // measure 27
1010
0000
1001
0000
,  // measure 28
0011
0000
0001
0000
,  // measure 29
1000
0100
0010
0001
,  // measure 30
0100
0001
0010
0100
,  // measure 31
1000
0010
1000
0001
,  // measure 32
0100
0100
0100
0000
,  // measure 33
0102
0000
1003
0000
,  // measure 34
0001
0010
0100
0000
,  // measure 35
2100
0000
3001
0000
,  // measure 36
0001
1000
0010
0000
,  // measure 37
1020
0000
0130
0000
,  // measure 38
0001
0010
0100
1000
,  // measure 39
1000
0001
0001
1000
,  // measure 40
2002
0000
0000
3003
,  // measure 41
1010
0000
0000
0000
0000
0000
0001
1000
,  // measure 42
0100
0000
0000
0000
0000
0000
0100
1000
,  // measure 43
0001
0000
0000
0000
0000
0000
0001
1000
,  // measure 44
0001
0000
0000
0000
0000
0000
1000
0001
,  // measure 45
0010
0000
0000
0000
0000
0000
0001
1000
,  // measure 46
0010
0000
0000
0000
0000
0000
1000
0001
,  // measure 47
1000
0000
0000
0000
0000
0000
0010
0100
,  // measure 48
0010
1000
0001
0001
,  // measure 49
1000
0000
0200
0000
,  // measure 50
2300
0000
3002
0000
,  // measure 51
0023
0000
0030
0000
,  // measure 52
0001
0000
0000
0100
0010
0000
0010
0000
,  // measure 53
0020
0000
2030
0000
,  // measure 54
3002
0000
0203
0000
,  // measure 55
0302
0000
0000
0000
0000
0000
0000
0003
,  // measure 56
1001
0000
0000
0110
0000
0000
1001
0000
;

//---------------dance-double - Spork!----------------
#NOTEDATA:;
#CHARTNAME:;
#STEPSTYPE:dance-double;
#DESCRIPTION:Spork!;
#CHARTSTYLE:;
#DIFFICULTY:Medium;
#METER:5;
#RADARVALUES:0.275,0.281,0.090,0.144,0.000,188.000,10.000,16.000,0.000,0.000,0.000,0.000,0.000,0.275,0.281,0.090,0.144,0.000,188.000,10.000,16.000,0.000,0.000,0.000,0.000,0.000;
#CREDIT:Spork!;
#NOTES:
00000000
00000000
00000000
00000000
,
00000000
00000000
00000000
00000000
,
00000000
00000000
00000000
00000000
,
00000000
00000000
00000000
00000000
,
00000000
00000000
00000000
00000000
,
00000000
00000000
00000000
10000000
00000000
01000000
00000000
01000000
,
00000000
01000000
00000000
00100000
00001000
00000000
00010000
00000000
,
00010000
00000000
00000000
00000010
00000000
00000010
00000000
00000010
,
00000100
00000001
00002000
00000000
,
00003000
00000000
00000000
00000001
00000000
00000010
00000000
00000010
,
00000000
00000010
00000000
00000100
00010000
00000000
00001000
00000000
,
00001000
00000000
00000000
01000000
00000000
01000000
00000000
01000000
,
00100000
10000000
00010000
00010000
,
01000000
00000000
01000000
00010000
,
10000000
00000000
10000000
00100000
,
00010000
00100000
01000000
00001000
,
00010000
00001000
00000010
00000001
,
00001000
00000000
00000100
00000000
00001000
00000100
00001000
00000000
,
00000001
00000000
00000100
00000000
00000001
00000100
00000001
00000000
,
00001000
00000000
00000010
00000000
00010000
00001000
00010000
00000000
,
00001000
00001000
00010000
00000010
,
00001010
00000000
00000100
00000001
,
00001001
00000000
00000001
00000010
,
00001000
00000010
00000100
00010000
,
00001000
00010000
00100000
10000000
,
00010000
00000000
01000000
00000000
00010000
01000000
00010000
00000000
,
10000000
00000000
01000000
00000000
10000000
01000000
10000000
00000000
,
00020000
00130000
00002000
00013000
,
00000020
00001030
00000100
00010000
,
00012000
00000000
02003000
00000000
,
03020000
00000000
20030000
00000000
,
30020000
01000000
01030000
00001000
,
00010000
01000000
10000000
10010000
,
10000000
00100000
00010000
00001000
,
00010000
00000000
01000000
00000000
10000000
00000000
00000000
00010000
,
10000000
00100000
00010000
00001000
,
00010000
00000000
00000100
00000000
00001100
00000000
00000000
00001000
,
00000001
00000100
00001000
00010000
,
00001000
00000010
00000001
00001000
,
00001100
00000001
00000101
00000100
,
00000020
00000000
00000000
00000000
00000030
00000000
00000000
00000010
,
00001000
00000000
00000100
00000000
00000100
00000000
00000010
00000001
,
00000100
00000000
00000100
00000000
00000100
00000000
00000010
00001000
,
00000100
00000000
00000100
00000000
00000100
00000000
00010000
00001000
,
00010000
00000000
00001000
00000000
01000000
00000000
01000000
00010000
,
00100000
00000000
00100000
00000000
00100000
00000000
01000000
10000000
,
00100000
00000000
00100000
00000000
00100000
00000000
01000000
00010000
,
00100000
00000000
00100000
00000000
00100000
00000000
00001000
00010000
,
00001000
00010000
00000010
00000100
,
00000002
00000000
00001003
00000000
,
00002000
00000000
00013000
00000000
,
00020000
00000000
00000000
00000000
,
00030000
00000000
00000000
00000000
,
20000000
00000000
30010000
00000000
,
00020000
00000000
00031000
00000000
,
00002000
00000000
00000000
00003000
,
00011000
00000000
00000000
01001000
00000000
00000000
10010000
00000000
;

//---------------dance-double - Spork!----------------
#NOTEDATA:;
#CHARTNAME:;
#STEPSTYPE:dance-double;
#DESCRIPTION:Spork!;
#CHARTSTYLE:;
#DIFFICULTY:Hard;
#METER:6;
#RADARVALUES:0.306,0.306,0.189,0.108,0.040,205.000,21.000,12.000,0.000,0.000,0.000,0.000,0.000,0.306,0.306,0.189,0.108,0.040,205.000,21.000,12.000,0.000,0.000,0.000,0.000,0.000;
#CREDIT:Spork!;
#NOTES:
00000000
00000000
00000000
00000000
,
00000000
00000000
00000000
00000000
,
00000000
00000000
00000000
00000000
,
00000000
00000000
00000000
00000000
,
00000000
00000000
00000000
00000000
,
00000010
00000000
00000000
00000011
00000000
00001001
00000000
00000011
,
00000000
00000110
00000000
00000100
00010000
00000000
00001000
00000000
,
00100000
00000000
00000000
11000000
00000000
10010000
00000000
10000000
,
00100000
00100000
02000000
00000000
,
03010000
00000000
00000000
10100000
00000000
10010000
00000000
11000000
,
00000000
01100000
00000000
00100000
00001000
00000000
00010000
00000000
,
00000010
00000000
00000000
00000101
00000000
00001001
00000000
00000001
,
00000010
00001000
00010000
00100000
,
10000000
00000000
00001000
00010000
,
00100000
00000000
00010000
00001000
,
00000010
00000100
00010000
00001000
,
00100000
01000000
00010000
00000100
,
00000010
00000000
00000000
00000010
00000000
00000000
00000100
00000000
00000000
00000100
00000000
00000000
00001000
00000000
00000000
00000000
,
00000001
00000000
00000000
00000001
00000000
00000000
00001000
00000000
00001000
00000000
00000000
00000010
00000000
00000000
00000010
00000000
,
00010000
00001000
01000000
00100000
,
10000000
00000000
00010000
00000000
10000000
00010000
00100000
01000000
,
20000000
00000000
00000000
00000000
30010000
00000000
00000000
00000000
01000000
00000000
00000000
00001000
00000000
00000000
00010000
00000000
,
00000000
00011000
00000000
00000000
00001000
00000000
00010000
00000000
,
01000000
00100000
00001000
00010000
,
00000100
00000010
00001000
00100000
,
00010000
00000000
00000000
00010000
00000000
00000000
10000000
00000000
00000000
10000000
00000000
00000000
01000000
00000000
00000000
00000000
,
00100000
00000000
00000000
00100000
00000000
00000000
01000000
00000000
01000000
00000000
00000000
10000000
00000000
00000000
10000000
00000000
,
00010000
00000000
01001000
00000000
,
00010100
00000000
00001000
00000000
,
00021000
00000000
00030020
00000000
,
00002030
00000000
00003002
00000000
,
00001003
00000100
00010000
00001000
,
01000000
00010000
10000000
00010000
00100000
00000000
10010000
00000000
,
10000000
00000000
01000000
00010000
00000000
00000000
00010000
00000100
,
00000000
00001000
00000000
00000010
00000000
00000000
00000010
00001000
,
00000001
00000000
00000010
00001000
00000000
00000000
00001000
00100000
,
00000000
00010000
00000000
01000000
00000000
00000000
01000000
00010000
,
10000000
00000000
00100000
00010000
00000000
00000000
00010000
00000010
,
00000000
00001000
00000000
00000001
00000000
00000000
00000001
00000100
,
00000000
00000000
00000001
00000010
00000000
00000000
00000001
00001000
,
00000000
00000000
00000000
00001000
00000100
00000000
00000010
00000000
,
00000110
00000000
00000100
00000000
00010000
00000000
00001000
01000000
,
00100000
00000000
01000000
00000000
00001000
00000000
00010000
00000100
,
00000010
00000000
00000100
00000000
00010000
00000000
00001000
00100000
,
01000000
00000000
00100000
00000000
00010000
00000000
10000000
00010000
,
00100000
00000000
00001000
00000000
00010000
00000000
00001000
01000000
,
00010000
00000000
00100000
00000000
00001000
00000000
00010000
00000100
,
00001000
00000000
00000010
00000000
00010000
00000000
00001000
00100000
,
01000000
00000000
10000000
00010000
01000000
00010000
10000000
00000000
,
20000000
00000000
30010000
00000000
,
00020000
00000000
00031000
00010000
,
00002000
00000000
00000000
00000000
,
00013000
00000000
00000000
00000100
00000010
00000000
00000010
00000000
,
00000002
00000000
00001003
00000000
,
00002000
00000000
00013000
00001000
,
00020000
00000000
00000000
00030000
,
00011000
00000000
00000000
00000110
00000000
00000000
00001001
00000000
;

//---------------dance-single - Spork!----------------
#NOTEDATA:;
#CHARTNAME:;
#STEPSTYPE:dance-single;
#DESCRIPTION:Spork!;
#CHARTSTYLE:;
#DIFFICULTY:Hard;
#METER:7;
#RADARVALUES:0.382,0.408,0.153,0.180,0.067,260.000,17.000,20.000,0.000,0.000,0.000,0.000,0.000,0.382,0.408,0.153,0.180,0.067,260.000,17.000,20.000,0.000,0.000,0.000,0.000,0.000;
#CREDIT:Spork!;
#NOTES:
// measure 0
0000
0000
0000
0000
,  // measure 1
0000
0000
0000
0000
,  // measure 2
0000
0000
0000
0000
,  // measure 3
0000
0000
0000
0000
,  // measure 4
0000
0000
0000
0000
,  // measure 5
1000
0000
0000
1100
0000
1010
0000
0011
,  // measure 6
0000
1010
0000
1000
0100
0000
0010
0000
,  // measure 7
0001
0000
0000
0110
0000
0110
0000
0010
,  // measure 8
0001
2000
0000
3000
,  // measure 9
0001
0000
0000
0101
0000
0011
0000
1010
,  // measure 10
0000
0011
0000
0001
0100
0000
0010
0000
,  // measure 11
1000
0000
0000
1001
0000
1001
0000
0010
,  // measure 12
1000
0000
1000
0100
1000
0001
1000
0010
,  // measure 13
0100
0000
0001
0100
0001
1000
0001
0010
,  // measure 14
0100
0000
1000
0100
0010
0001
0010
0100
,  // measure 15
1000
0000
0100
1000
0001
0000
0100
0001
,  // measure 16
0010
0000
0100
0000
0010
0001
0100
0001
,  // measure 17
1000
0000
0000
0100
0000
0000
0010
0000
0000
0100
0000
0000
2000
0000
0000
0000
,  // measure 18
3001
0000
0000
0100
0000
0000
0010
0000
0000
0100
0000
0000
0002
0000
0000
0000
,  // measure 19
1003
0000
0000
0010
0000
0000
0100
0000
0000
0001
0000
0000
2000
0000
0000
0000
,  // measure 20
3001
0000
0000
1000
0000
0000
0200
0000
0020
0000
0000
0000
0330
0000
0000
0000
,  // measure 21
0001
0010
0001
0010
0100
0010
0100
0010
,  // measure 22
0100
1000
0100
1000
0010
1000
0010
1000
,  // measure 23
0010
0100
0010
0100
0001
0100
0001
0100
,  // measure 24
0001
1000
0001
1000
0010
1000
0100
1000
,  // measure 25
0001
0000
0000
0100
0000
0000
0010
0000
0000
0100
0000
0000
0002
0000
0000
0000
,  // measure 26
1003
0000
0000
0100
0000
0000
0010
0000
0000
0100
0000
0000
2000
0000
0000
0000
,  // measure 27
3001
0000
0000
0010
0000
0000
0100
0000
0000
1000
0000
0000
0002
0000
0000
0000
,  // measure 28
1003
0000
0000
0001
0000
0000
0001
0000
1000
0000
0000
1000
0000
0000
1000
0000
,  // measure 29
0002
0000
0010
0000
,  // measure 30
0100
0000
0100
0000
,  // measure 31
1003
0100
0010
0001
1000
0100
0010
0001
,  // measure 32
1000
0100
0001
0100
1000
0000
1001
0000
,  // measure 33
0001
0100
0010
0000
0010
0100
0001
1000
,  // measure 34
0100
0010
0001
1000
0000
1000
0001
0001
,  // measure 35
1000
0010
0100
0000
0100
0010
1000
0001
,  // measure 36
0010
0100
1000
0001
0000
0001
1000
1000
,  // measure 37
0001
0010
0100
0000
0100
0010
0100
1000
,  // measure 38
0001
0010
0001
1000
0010
0000
0010
1000
,  // measure 39
0100
0100
0010
0010
,  // measure 40
0220
0000
0000
0000
0330
0000
0000
0100
,  // measure 41
1000
0000
1000
0001
0000
0100
0001
0010
,  // measure 42
0001
1000
0000
0010
0000
0100
0010
1000
,  // measure 43
0001
1000
0000
1000
0000
0010
0100
0001
,  // measure 44
1000
0000
0001
0000
0001
1000
0100
0010
,  // measure 45
0001
0000
0001
1000
0000
0010
1000
0100
,  // measure 46
1000
0001
0000
0010
0000
0100
0010
0001
,  // measure 47
1000
0001
0000
0001
0000
0100
0010
1000
,  // measure 48
0001
0001
1000
1000
,  // measure 49
0001
0000
0020
0000
,  // measure 50
0032
0000
2003
0000
,  // measure 51
3200
0000
0000
0000
,  // measure 52
0310
0000
0000
0001
0010
0000
0010
0000
,  // measure 53
0100
0000
0200
0000
,  // measure 54
2300
0000
3002
0000
,  // measure 55
0203
0000
0000
0300
,  // measure 56
1010
0000
0000
1001
0000
0000
0011
0000
;
