#TITLE:UPSIDE DOWN;
#SUBTITLE:(HYPER EURO MIX);
#ARTIST:COO COO;
#TITLETRANSLIT:;
#SUBTITLETRANSLIT:;
#ARTISTTRANSLIT:;
#GENRE:;
#CREDIT:;
#BANNER:[Male Vocalists] - UPSIDE DOWN (HYPER EURO MIX).png;
#BACKGROUND:[Male Vocalists] - UPSIDE DOWN (HYPER EURO MIX)-bg.png;
#LYRICSPATH:;
#CDTITLE:;
#MUSIC:[Male Vocalists] - UPSIDE DOWN (HYPER EURO MIX).mp3;
#OFFSET:-0.060;
#SAMPLESTART:50.987;
#SAMPLELENGTH:15.000;
#SELECTABLE:YES;
#BPMS:0.000=149.820
;
#STOPS:
;
#BGCHANGES:;
#KEYSOUNDS:;
#ATTACKS:;

//---------------dance-single - ----------------
#NOTES:
     dance-single:
     :
     Hard:
     8:
     0.589,0.545,0.361,0.128,0.163,312.000,31.000,11.000,0.000,0.000,0.000,0.589,0.545,0.361,0.128,0.163,312.000,31.000,11.000,0.000,0.000,0.000: // measure 0
0000
0000
0000
0000
,  // measure 1
0000
0000
0000
0000
,  // measure 2
0000
0000
0000
0000
,  // measure 3
0000
0000
0000
0000
,  // measure 4
0000
0001
0100
0000
0010
0000
0010
0100
,  // measure 5
0000
1000
0010
0000
0100
0000
0100
0010
,  // measure 6
0000
0001
1000
0000
0010
0000
0010
1000
,  // measure 7
2002
0000
0000
3003
,  // measure 8
1000
0000
0010
0000
1000
0000
0001
0000
1000
0000
0010
1000
0000
0100
1000
0000
,  // measure 9
0001
0000
0100
0000
0001
0000
1000
0000
0001
0000
0100
0001
0000
0010
0001
0000
,  // measure 10
0100
0000
0010
0000
0100
0000
0001
0000
0100
0000
0010
0100
0000
0010
0000
0000
,  // measure 11
1000
0100
0010
0001
1001
0000
0110
0000
,  // measure 12
0001
0000
0100
0000
0010
0000
1000
0000
0001
0000
0100
0010
0000
0100
0010
0000
,  // measure 13
1000
0000
0010
0000
0100
0000
0001
0000
1000
0000
0010
0100
0000
0010
0100
0000
,  // measure 14
0001
0000
0100
0000
1000
0000
0100
0000
0001
0000
0010
0100
0000
1000
0000
0000
,  // measure 15
0001
0010
0100
1000
0110
0000
1001
0000
,  // measure 16
1000
0000
1100
0000
1000
0100
0001
0000
,  // measure 17
1000
0000
1010
0000
1000
0010
0001
0000
,  // measure 18
0010
0000
0010
0000
0100
0000
0100
0000
0001
0000
0000
0001
0000
0000
0000
0000
,  // measure 19
0010
0000
0010
0000
0100
0000
0100
0000
1000
0000
0000
1000
0000
0000
0000
0000
,  // measure 20
0001
0000
0011
0000
0001
0010
1000
0000
,  // measure 21
0001
0000
0101
0000
0001
0100
1000
0000
,  // measure 22
0001
0000
0001
0000
0010
0000
0010
0000
0100
0000
0000
0100
0000
0000
0000
0000
,  // measure 23
1000
0000
1000
0000
0100
0000
0100
0000
0010
0000
0000
0010
0000
0000
0000
0000
,  // measure 24
0001
0010
0001
0010
0001
0100
0000
0110
,  // measure 25
0000
0010
1000
0010
1000
0100
1100
0000
,  // measure 26
0010
0100
1000
0100
0010
0100
0000
0110
,  // measure 27
0000
1010
0000
0101
0000
0001
0100
0010
,  // measure 28
0000
0010
0100
0010
0100
0001
0000
1001
,  // measure 29
0000
1000
0010
1000
0010
0100
0110
0000
,  // measure 30
0001
0100
0010
1000
0001
2000
0000
3010
,  // measure 31
0000
0110
0000
0101
0000
0001
1000
1002
,  // measure 32
0000
0103
0010
0100
0010
0100
0000
2001
,  // measure 33
0000
3010
0100
0010
0100
0010
0110
0000
,  // measure 34
1000
0010
0001
0010
1000
0100
0001
0100
,  // measure 35
1000
0010
1000
0010
0100
0001
0100
0012
,  // measure 36
0000
1003
0100
1000
0100
1000
0000
2100
,  // measure 37
0000
3001
0010
0001
0010
0001
0011
0000
,  // measure 38
0100
0010
0001
0100
0010
0100
0001
0010
,  // measure 39
0001
1000
0010
0100
0001
1000
0100
0010
,  // measure 40
0001
0010
0001
0010
0001
0100
1000
0100
,  // measure 41
0001
0010
1000
0100
0002
0000
1003
0000
,  // measure 42
2010
0000
0000
0001
0000
0000
3100
0000
,  // measure 43
0220
0000
0000
0330
,  // measure 44
0001
0000
0100
0000
0001
0000
0100
0000
0001
0000
0010
0001
0000
0010
0001
0000
,  // measure 45
1000
0000
0010
0000
1000
0000
0010
0000
1000
0000
0100
1000
0000
0100
1000
0000
,  // measure 46
0001
0000
0100
0000
0010
0000
1000
0000
0001
0000
1000
0100
0000
0010
0000
0000
,  // measure 47
0001
0010
0100
1000
0110
0000
1001
0000
,  // measure 48
0100
0000
0010
0000
0001
0000
0010
0000
0100
0000
0010
0100
0000
0010
0100
0000
,  // measure 49
0010
0000
0100
0000
1000
0000
0100
0000
0010
0000
0100
0010
0000
0100
0010
0000
,  // measure 50
1000
0000
0001
0000
0100
0000
0001
0000
1000
0000
0010
0100
0000
0010
0000
0000
,  // measure 51
1000
0100
0010
0001
1001
0000
0110
0000
,  // measure 52
1001
0000
0000
0000
;

//---------------dance-single - ----------------
#NOTES:
     dance-single:
     :
     Beginner:
     2:
     0.205,0.242,0.128,0.070,0.000,106.000,11.000,6.000,0.000,0.000,0.000,0.205,0.242,0.128,0.070,0.000,106.000,11.000,6.000,0.000,0.000,0.000:
0000
0000
0000
0000
,
0000
0000
0000
0000
,
0000
0000
0000
0000
,
0000
0000
0000
0000
,
1000
0000
0000
0000
,
0100
0000
0000
0000
,
0010
0000
0000
0000
,
2002
0000
0000
3003
,
0001
0001
0001
0000
,
0010
0010
0010
0000
,
0100
0100
0100
0000
,
1000
0000
1001
1001
,
0001
0001
0001
0000
,
0100
0100
0100
0000
,
1000
1000
1000
0000
,
0010
0000
0110
0110
,
0010
0000
0010
0000
,
0100
0000
0100
0000
,
1000
0000
1000
0000
,
0001
0000
0001
0000
,
0100
0000
0100
0000
,
0010
0000
0010
0000
,
0001
0000
0001
0000
,
1000
0000
1000
0000
,
0001
0000
0010
0000
,
0001
0000
0100
0000
,
0001
0000
1000
0000
,
0002
0000
0003
0000
,
1000
0000
0100
0000
,
1000
0000
0010
0000
,
1000
0000
0001
0000
,
2000
0000
3000
0000
,
0010
0000
0100
0000
,
0010
0000
0100
0000
,
0001
0000
1000
0000
,
0001
0000
1000
0000
,
0100
0000
0010
0000
,
0100
0000
0010
0000
,
1000
0000
0001
0000
,
1000
0000
0001
0000
,
1000
0000
0100
0000
,
0010
0000
0001
0000
,
0001
0000
0010
0000
,
0220
0000
0000
0330
,
0010
0010
0010
0000
,
0100
0100
0100
0000
,
1000
1000
1000
0000
,
0001
0000
1001
1001
,
1000
1000
1000
0000
,
0001
0001
0001
0000
,
0100
0100
0100
0000
,
0010
0000
0110
0110
,
0110
0000
0000
0000
;

//---------------dance-single - ----------------
#NOTES:
     dance-single:
     :
     Easy:
     4:
     0.318,0.333,0.128,0.105,0.000,171.000,11.000,9.000,0.000,0.000,0.000,0.318,0.333,0.128,0.105,0.000,171.000,11.000,9.000,0.000,0.000,0.000:
0000
0000
0000
0000
,
0000
0000
0000
0000
,
0000
0000
0000
0000
,
0000
0000
0000
0000
,
2000
0000
3100
0000
,
0002
0000
0013
0000
,
0200
0000
0310
0000
,
2002
0000
0000
3003
,
1000
0010
1000
0000
,
0001
0100
0001
0000
,
0010
0100
0010
0000
,
1000
0001
1001
1001
,
0001
0010
0001
0000
,
0100
1000
0100
0000
,
0010
1000
0010
0000
,
0100
0010
0110
0110
,
1000
0100
0010
0000
,
0001
0010
0100
0000
,
0001
1000
0001
1000
,
0010
0100
0010
0100
,
1000
0001
0100
0000
,
0001
1000
0100
0000
,
1000
0010
1000
0010
,
0100
0001
0100
0001
,
0010
0001
0010
0000
,
0100
1000
0100
0000
,
0010
1000
0010
0001
,
0010
0001
0000
0100
0000
0010
1000
0000
,
0100
1000
0010
0000
,
0100
0001
0010
0000
,
0001
0000
1000
0000
0010
0100
0000
0020
,
0000
0000
0200
0330
,
1000
0000
0010
0000
1000
0100
0000
0000
,
0001
0000
0010
0000
0001
0100
0000
0000
,
0001
1000
0010
1000
,
0001
0100
0010
0100
,
0001
0000
1000
0000
0100
1000
0000
0000
,
1000
0000
0001
0000
0100
0001
0000
0000
,
0010
0001
0010
0100
,
0010
0100
1000
0100
,
0010
0001
0100
0010
,
1000
0100
0001
0010
,
1000
0000
0000
0100
0000
0000
0010
0000
,
2002
0000
0000
3003
,
0001
0010
0001
0010
0001
0000
0000
0000
,
0100
1000
0100
1000
0100
0000
0000
0000
,
0010
0100
0010
0100
0010
0000
0000
0000
,
1000
0001
1001
1001
,
0010
1000
0010
1000
0010
0000
0000
0000
,
0100
0001
0100
0001
0100
0000
0000
0000
,
0001
1000
0001
1000
0001
0000
0000
0000
,
1000
0010
0110
0110
,
1001
0000
0000
0000
;

//---------------dance-single - ----------------
#NOTES:
     dance-single:
     :
     Medium:
     6:
     0.459,0.454,0.303,0.117,0.070,240.000,26.000,10.000,0.000,0.000,0.000,0.459,0.454,0.303,0.117,0.070,240.000,26.000,10.000,0.000,0.000,0.000:
0000
0000
0000
0000
,
0000
0000
0000
0000
,
0000
0000
0000
0000
,
0000
0000
0000
0000
,
0000
1000
0100
0000
1000
0000
1000
0000
,
0000
0001
0010
0000
0001
0000
0001
0000
,
0000
0010
0100
0000
0010
0000
0010
0000
,
2002
0000
0000
3003
,
0001
0000
0010
0000
0100
0000
0010
0000
0001
0000
0000
0001
0000
0000
0000
0000
,
1000
0000
0100
0000
0010
0000
0100
0000
1000
0000
0000
1000
0000
0000
0000
0000
,
0010
0000
0100
0000
0001
0000
0100
0000
0010
0000
0000
0010
0000
0000
0000
0000
,
0001
1000
0001
0000
1001
0000
1001
0000
,
0001
0000
1000
0000
0100
0000
1000
0000
0001
0000
0000
0001
0000
0000
0000
0000
,
1000
0000
0001
0000
0010
0000
0001
0000
1000
0000
0000
1000
0000
0000
0000
0000
,
0100
0000
0010
0000
1000
0000
0010
0000
0100
0000
0000
0100
0000
0000
0000
0000
,
0010
0100
0010
0000
0110
0000
0110
0000
,
1000
1010
0100
0110
,
0001
0101
0010
0011
,
0001
0100
0001
0100
0001
0000
0000
0000
,
1000
0010
1000
0010
1000
0000
0000
0000
,
0001
0011
0010
0110
,
0100
1100
1000
1001
,
0001
1000
0001
1000
0001
0000
0000
0000
,
0100
0010
0100
0010
0100
0000
0000
0000
,
0001
0000
0100
0000
0001
0100
0000
0010
,
0000
0000
1000
0000
0010
1000
1010
0000
,
1000
0000
0100
0000
0010
0001
0000
0010
,
0000
0110
0000
0110
0000
1000
0010
0100
,
0000
0000
0010
0000
0010
1000
0000
0001
,
0000
0000
0010
0000
0010
0001
0011
0000
,
0001
0100
0001
0010
0001
2000
0000
3001
,
0000
0010
0000
0100
0000
1000
0001
0200
,
0000
0000
0310
0000
0010
0100
0000
0002
,
0000
0000
1003
0000
1000
0001
1001
0000
,
0010
0100
0001
0100
0010
0100
0001
0000
,
0100
0010
1000
0010
0100
0000
0010
2000
,
0000
0000
3001
0000
0001
0100
0000
0020
,
0000
0000
0130
0000
0100
0010
0110
0000
,
0001
1000
0100
1000
0001
1000
0010
0000
,
1000
0001
0100
0001
1000
0001
0010
0000
,
1000
0000
0010
0000
0100
0010
0001
0000
,
0001
0100
1000
0000
0001
0010
1000
0000
,
0012
0000
0000
0100
0000
0000
1003
0000
,
0220
0000
0000
0330
,
0100
0000
1000
0000
0010
0000
1000
0000
0100
0000
0000
0100
0000
0000
0000
0000
,
0010
0000
0001
0000
0100
0000
0001
0000
0010
0000
0000
0010
0000
0000
0000
0000
,
1000
0000
0001
0000
0100
0000
0001
0000
1000
0000
0000
1000
0000
0000
0000
0000
,
0001
0100
0010
0000
0110
0000
0110
0000
,
1000
0000
0100
0000
0010
0000
0001
0000
1000
0000
0000
1000
0000
0000
0000
0000
,
0001
0000
0010
0000
0100
0000
1000
0000
0001
0000
0000
0001
0000
0000
0000
0000
,
1000
0000
0010
0000
0100
0000
0001
0000
0100
0000
0000
0100
0000
0000
0000
0000
,
0010
1000
0001
0000
1001
0000
0110
0000
,
1001
0000
0000
0000
;
