#TITLE:The Pressure;
#SUBTITLE:;
#ARTIST:Televisor;
#TITLETRANSLIT:;
#SUBTITLETRANSLIT:;
#ARTISTTRANSLIT:;
#GENRE:;
#CREDIT:;
#BANNER:[Male Vocalists] - The Pressure-bn.png;
#BACKGROUND:[Male Vocalists] - The Pressure-bg.png;
#LYRICSPATH:;
#CDTITLE:cdtitle.png;
#MUSIC:[Male Vocalists] - The Pressure.ogg;
#OFFSET:-0.377;
#SAMPLESTART:76.715;
#SAMPLELENGTH:16.800;
#SELECTABLE:YES;
#BPMS:0.000=125.000
;
#STOPS:
;
#BGCHANGES:;
#KEYSOUNDS:;
#ATTACKS:;

//---------------dance-single - ----------------
#NOTES:
     dance-single:
     :
     Hard:
     8:
     0.497,0.433,0.207,0.286,0.115,375.000,26.000,36.000,0.000,0.000,0.000,0.497,0.433,0.207,0.286,0.115,375.000,26.000,36.000,0.000,0.000,0.000: // measure 0
0000
0000
0000
0000
,  // measure 1
0000
0000
0000
0000
,  // measure 2
0000
0000
0000
0000
,  // measure 3
0000
0000
0000
0000
,  // measure 4
0101
0000
0000
0000
0001
0000
1000
0000
0010
0000
0100
0010
0000
0000
1000
0000
,  // measure 5
0100
0000
0000
0000
0010
0000
0100
0000
1000
0000
0001
0100
0000
0000
0001
0000
,  // measure 6
0010
0000
0000
0000
0001
0000
0100
0000
1000
0000
0100
0010
0100
0000
0010
0000
,  // measure 7
1000
0000
0001
0100
0001
0010
0100
1000
,  // measure 8
1010
0000
0000
0000
0010
0000
0100
0000
0001
0000
1000
0100
0000
0000
1000
0000
,  // measure 9
0001
0000
0000
0000
1000
0000
0010
0000
0100
0000
0001
0010
0000
0000
0001
0000
,  // measure 10
0100
0000
0000
0000
0010
0000
0100
0000
0001
0000
0010
0100
0010
0000
0100
0000
,  // measure 11
1000
0000
0010
0100
0001
0010
0100
1000
,  // measure 12
0020
0000
0000
0000
0130
0010
1000
0002
,  // measure 13
0000
1003
0100
0002
0000
1003
0010
0001
,  // measure 14
0020
0000
0000
0000
0031
0100
0010
0200
,  // measure 15
0000
0301
0010
2000
0000
3001
0100
1000
,  // measure 16
0200
0000
0000
0000
1300
0010
0100
0020
,  // measure 17
0000
1030
0100
0001
0100
1000
0010
0100
,  // measure 18
0020
0000
0000
0000
0130
0001
1000
0001
,  // measure 19
0010
0000
0100
0010
0001
0100
0010
0000
,  // measure 20
1010
0000
0101
0000
0001
0010
0100
2000
,  // measure 21
0000
3010
0100
0002
0000
0013
0100
2000
,  // measure 22
0000
3010
0100
0002
0000
0013
0001
0100
,  // measure 23
0010
0000
1000
0001
0000
0100
0000
0010
0000
0000
0100
0000
0001
0000
0010
0000
,  // measure 24
1100
0000
0011
0000
0001
0100
0010
2000
,  // measure 25
0000
3100
0010
0002
0000
0103
0010
2000
,  // measure 26
0000
3100
0010
0002
0000
0013
0100
1000
,  // measure 27
0010
0000
0100
0001
0000
1000
0000
0001
0000
0000
0010
0000
0100
0000
0010
0000
,  // measure 28
0001
0000
0101
0000
1000
0100
0001
1000
,  // measure 29
0010
0000
0011
0000
0001
0100
1000
0001
,  // measure 30
0010
0000
1010
0000
1000
0100
0001
1000
,  // measure 31
0020
0000
0000
0000
0031
0010
0100
0000
,  // measure 32
2000
0100
0001
0100
,  // measure 33
3020
0000
0230
0000
,  // measure 34
0302
0010
1000
0010
,  // measure 35
0203
0000
0320
0000
,  // measure 36
0130
0101
0001
0010
,  // measure 37
0100
1100
1000
0010
,  // measure 38
0100
0010
0100
0010
1000
0010
1000
0010
,  // measure 39
1000
0000
0100
0000
0010
0000
0001
0000
1000
0001
1000
0001
1000
0000
0000
0000
,  // measure 40
2100
0000
0000
0000
3001
0000
0000
0000
1000
0000
0010
0000
0100
0001
0100
0000
,  // measure 41
0000
0010
1000
0001
0010
1000
0001
0100
,  // measure 42
0020
0000
0031
0010
0100
1000
0010
0000
,  // measure 43
0100
0001
0100
0010
1000
0000
0001
1000
,  // measure 44
0100
0001
0100
1000
0010
0000
0100
0001
,  // measure 45
1000
0100
0010
0001
0100
0000
0010
0100
,  // measure 46
0001
0010
1000
0010
0001
1000
0100
0000
,  // measure 47
0011
0101
1010
1100
,  // measure 48
0210
0000
0310
0000
0001
1000
0100
0002
,  // measure 49
0000
1003
0010
0002
0000
1003
0100
0002
,  // measure 50
0000
1003
0010
0002
0000
1003
0100
0010
,  // measure 51
0100
0000
1000
0010
0000
0100
0000
0010
0000
0000
0100
0000
0001
0000
0010
0000
,  // measure 52
0120
0000
0130
0000
1000
0001
0100
2000
,  // measure 53
0000
3001
0010
2000
0000
3001
0100
2000
,  // measure 54
0000
3001
0010
2000
0000
3001
0100
0010
,  // measure 55
0100
0000
0001
1000
0000
0100
0000
1000
0000
0000
0010
0000
0100
0000
0001
0000
,  // measure 56
1000
0000
0000
0000
1100
0000
0000
0000
1000
0000
0010
0100
0010
0000
0100
0000
,  // measure 57
0001
0000
0000
0000
0011
0000
0000
0000
0001
0000
0010
0100
0010
0000
0100
0000
,  // measure 58
1000
0000
0000
0000
1010
0000
0000
0000
1000
0100
1000
0100
1000
0000
0010
0000
,  // measure 59
0100
0000
0101
0000
0001
0010
0100
1000
,  // measure 60
0010
0000
0000
0000
0110
0000
0000
0000
0010
0000
0100
0001
0100
0000
0001
0000
,  // measure 61
0010
0000
0000
0000
0110
0000
0000
0000
0010
0000
0100
1000
0100
0000
1000
0000
,  // measure 62
0001
0000
0000
0000
0101
0000
0000
0000
0001
0010
0001
0010
0001
0000
0100
0000
,  // measure 63
0010
0000
1010
0000
1000
0100
0010
0001
,  // measure 64
1000
0000
0000
0000
;

//---------------dance-single - ----------------
#NOTES:
     dance-single:
     :
     Medium:
     6:
     0.364,0.356,0.032,0.302,0.000,278.000,4.000,38.000,0.000,0.000,0.000,0.364,0.356,0.032,0.302,0.000,278.000,4.000,38.000,0.000,0.000,0.000: // measure 0
0000
0000
0000
0000
,  // measure 1
0000
0000
0000
0000
,  // measure 2
0000
0000
0000
0000
,  // measure 3
0000
0000
0000
0000
,  // measure 4
0002
0000
0103
0000
0001
0010
0100
0000
,  // measure 5
2000
0000
3010
0000
1000
0100
0010
0000
,  // measure 6
0002
0000
0103
0000
0001
0010
1000
0010
,  // measure 7
0002
0000
1003
0000
0001
0100
0010
1000
,  // measure 8
0002
0000
0013
0000
0001
0100
0010
0000
,  // measure 9
2000
0000
3100
0000
1000
0010
0100
0000
,  // measure 10
0002
0000
0013
0000
0001
0100
1000
0100
,  // measure 11
0002
0000
0000
0000
1003
0100
0010
0100
,  // measure 12
2000
0000
0000
0000
3010
0000
0100
0001
,  // measure 13
1000
0000
0001
0000
0010
0100
1000
0000
,  // measure 14
0002
0000
0000
0000
0103
0000
0010
1000
,  // measure 15
0001
0000
1000
0000
0100
0010
0001
0000
,  // measure 16
0200
0000
0000
0000
0310
0000
1000
0001
,  // measure 17
1000
0000
0001
0000
1000
0100
1000
0000
,  // measure 18
0020
0000
0000
0000
0130
0000
0001
1000
,  // measure 19
0001
0000
0010
0000
0100
0010
0100
0000
,  // measure 20
1100
0000
1000
0000
0001
0100
0010
0000
,  // measure 21
1000
0100
0001
0010
,  // measure 22
1000
0100
0001
0010
,  // measure 23
1000
0000
0100
0000
1000
0010
1000
0001
,  // measure 24
0100
0000
0101
0000
0001
0010
0100
0000
,  // measure 25
1000
0010
0001
0100
,  // measure 26
1000
0010
0001
0100
,  // measure 27
1000
0000
0010
0000
0100
0001
0100
0001
,  // measure 28
2000
0000
3000
0000
0001
0010
0100
0010
,  // measure 29
0002
0000
0003
0000
1000
0100
0010
0100
,  // measure 30
2000
0000
3000
0000
0001
0010
0100
0010
,  // measure 31
0002
0000
1003
0100
,  // measure 32
0020
0001
0001
0001
,  // measure 33
0032
0000
2003
0000
,  // measure 34
3020
1000
1000
1000
,  // measure 35
2030
0000
3002
0000
,  // measure 36
0013
0100
0010
0100
,  // measure 37
1000
0100
1000
0100
,  // measure 38
1000
0010
0100
0001
,  // measure 39
1000
0100
1000
0100
1000
0100
1000
0000
,  // measure 40
0001
0000
0100
0000
0001
0010
0100
0000
,  // measure 41
2000
3010
0002
0103
,  // measure 42
0001
0000
0010
0000
0001
0100
0010
0000
,  // measure 43
1000
0100
0010
0001
,  // measure 44
1000
0000
0010
0000
1000
0100
0010
0000
,  // measure 45
0002
0103
2000
3010
,  // measure 46
1000
0000
0100
0000
1000
0010
0100
0000
,  // measure 47
0001
0010
0100
1000
,  // measure 48
0202
0000
0303
0000
1000
0100
0010
0000
,  // measure 49
0001
0100
1000
0010
,  // measure 50
0001
0100
1000
0010
,  // measure 51
0001
0000
0100
0000
0010
1000
0010
0000
,  // measure 52
2200
0000
3300
0000
1000
0010
0100
0000
,  // measure 53
0001
0010
1000
0100
,  // measure 54
0001
0010
1000
0100
,  // measure 55
0001
0000
0010
0000
0100
1000
0100
1000
,  // measure 56
0002
0000
0003
0000
1000
0010
0100
0001
,  // measure 57
2000
0000
3000
0000
0001
0010
0100
1000
,  // measure 58
0002
0000
0003
0000
1000
0100
0010
0001
,  // measure 59
2000
0000
3000
0000
0001
0100
0010
1000
,  // measure 60
0200
0000
0300
0000
1000
0010
0100
0001
,  // measure 61
0020
0000
0030
0000
0001
0100
0010
1000
,  // measure 62
0200
0000
0300
0000
1000
0100
0010
0001
,  // measure 63
0020
0000
0030
0000
0001
0010
0100
1000
,  // measure 64
0100
0000
0000
0000
;

//---------------dance-single - ----------------
#NOTES:
     dance-single:
     :
     Easy:
     3:
     0.242,0.204,0.032,0.183,0.000,186.000,4.000,23.000,0.000,0.000,0.000,0.242,0.204,0.032,0.183,0.000,186.000,4.000,23.000,0.000,0.000,0.000: // measure 0
0000
0000
0000
0000
,  // measure 1
0000
0000
0000
0000
,  // measure 2
0000
0000
0000
0000
,  // measure 3
0000
0000
0000
0000
,  // measure 4
0001
0000
0100
0100
,  // measure 5
0001
0000
0010
0010
,  // measure 6
0001
0000
1000
0010
,  // measure 7
1000
0000
0001
0100
,  // measure 8
0001
0000
0010
0010
,  // measure 9
0001
0000
0100
0100
,  // measure 10
0001
0000
1000
0100
,  // measure 11
1000
0000
0001
0010
,  // measure 12
0200
0300
1000
1000
,  // measure 13
0002
0003
2000
3000
,  // measure 14
0020
0030
1000
1000
,  // measure 15
0002
0003
2000
3000
,  // measure 16
0200
0300
0010
0010
,  // measure 17
0002
0003
2000
3000
,  // measure 18
0020
0030
0100
0100
,  // measure 19
0010
0100
0010
1000
,  // measure 20
0001
0000
1000
0100
,  // measure 21
0010
0010
0001
0001
,  // measure 22
1000
1000
0010
0010
,  // measure 23
0100
0010
0100
0010
,  // measure 24
1000
0000
0001
0010
,  // measure 25
0100
0100
1000
1000
,  // measure 26
0001
0001
0100
0100
,  // measure 27
0010
0100
0010
0100
,  // measure 28
0002
0003
0010
0100
,  // measure 29
2000
3000
0010
0100
,  // measure 30
0002
0003
0010
0100
,  // measure 31
2000
0000
3002
0000
,  // measure 32
2003
3000
0020
0030
,  // measure 33
0200
0300
0002
0003
,  // measure 34
0020
0030
0200
0300
,  // measure 35
2000
3000
0002
0003
,  // measure 36
0100
0010
0100
0000
,  // measure 37
0010
0100
0010
0000
,  // measure 38
1000
0001
1000
0001
,  // measure 39
1000
0100
1000
0000
,  // measure 40
0001
0100
0001
0000
,  // measure 41
1010
0000
1100
0000
,  // measure 42
1000
0010
1000
0000
,  // measure 43
0001
0001
0001
0000
,  // measure 44
1000
0100
1000
0000
,  // measure 45
0011
0000
0101
0000
,  // measure 46
0001
0010
0001
0000
,  // measure 47
1000
1000
1000
1000
,  // measure 48
0001
0000
0010
0100
,  // measure 49
1000
1000
0010
0010
,  // measure 50
0100
0100
0001
0001
,  // measure 51
1000
0100
1000
0010
,  // measure 52
1000
0000
0010
0100
,  // measure 53
0001
0001
0010
0010
,  // measure 54
0100
0100
1000
1000
,  // measure 55
0001
0100
0001
0010
,  // measure 56
0001
0000
1000
0001
,  // measure 57
1000
0000
0001
1000
,  // measure 58
0001
0000
1000
0100
,  // measure 59
0010
0000
0010
0100
,  // measure 60
1000
0000
0001
1000
,  // measure 61
0001
0000
1000
0001
,  // measure 62
1000
0000
0001
0100
,  // measure 63
0010
0000
0010
0100
,  // measure 64
0001
0000
0000
0000
;
