#TITLE:The Fallout;
#SUBTITLE:;
#ARTIST:The Epilogues;
#TITLETRANSLIT:;
#SUBTITLETRANSLIT:;
#ARTISTTRANSLIT:;
#GENRE:;
#CREDIT:;
#BANNER:The Fallout - The Epiloguesbn.png;
#BACKGROUND:The Fallout - The Epiloguesbg.png;
#LYRICSPATH:The Fallout - The Epilogues.lrc;
#CDTITLE:encorerebirth.png;
#MUSIC:The Fallout - The Epilogues.ogg;
#OFFSET:0.027;
#SAMPLESTART:37.775;
#SAMPLELENGTH:12.275;
#SELECTABLE:YES;
#BPMS:0.000=80.001
,52.000=160.002
;
#STOPS:
;
#BGCHANGES:;
#KEYSOUNDS:;
#ATTACKS:;

//---------------dance-single - Spork!----------------
#NOTES:
     dance-single:
     :
     Beginner:
     2:
     0.126,0.164,0.056,0.032,0.000,100.000,7.000,4.000,0.000,0.000,0.000,0.126,0.164,0.056,0.032,0.000,100.000,7.000,4.000,0.000,0.000,0.000:
0000
0000
0000
0000
,
0000
0000
0001
0000
,
0000
0001
0000
0000
,
1000
0000
0000
0000
,
0000
0000
1000
0000
,
0000
1000
0000
0000
,
0001
0000
0000
0000
,
0000
0000
0001
0000
,
0000
1000
0000
0000
,
0010
0000
0000
0100
,
0000
0000
0010
0000
,
0000
1000
0000
0000
,
0001
0000
0000
0000
,
0010
0000
0010
0000
,
0100
0000
0000
0000
,
0100
0000
0100
0000
,
0010
0000
0000
0000
,
0010
0000
0100
0000
,
0010
0000
0000
0000
,
1001
0000
0000
0000
,
0110
0000
0000
0000
,
1000
0000
1000
0000
,
0001
0000
0000
0000
,
0001
0000
0001
0000
,
1000
0000
0000
0000
,
1000
0000
0001
0000
,
1000
0000
0000
0000
,
0110
0000
0000
0000
,
1001
0000
0000
0000
,
1000
0000
0000
0000
,
1000
0000
0001
0000
,
0100
0000
0000
0000
,
0100
0000
0000
0000
,
0010
0000
0000
0000
,
0010
0000
1000
0000
,
0000
0002
0000
0003
,
0000
0000
0000
0000
,
0001
0000
0000
0000
,
0001
0000
1000
0000
,
0100
0000
0000
0000
,
0100
0000
0000
0000
,
0010
0000
0000
0000
,
0010
0000
0001
0000
,
0000
2000
0000
3000
,
0000
1000
1000
0000
,
0001
0000
0001
0000
,
0001
0000
0001
0000
,
1000
0000
1000
0000
,
1000
0000
1000
0000
,
0001
0000
0001
0000
,
1000
0000
1000
0000
,
0001
0000
1000
0000
,
0001
1000
1000
1000
,
0001
0000
0001
0000
,
0010
0000
0100
0000
,
1000
0000
1000
0000
,
0010
0000
1000
0000
,
0001
0000
1000
0000
,
0100
0000
0100
0000
,
0110
0000
0000
0000
,
1001
0000
0000
0000
,
1000
0000
1000
0000
,
0010
0000
0100
0000
,
0001
0000
0001
0000
,
0010
0000
0001
0000
,
0100
0000
0010
0000
,
0100
0000
0100
0000
,
2002
0000
0000
0000
,
0000
0000
0000
0000
,
3003
0000
0000
0000
;

//---------------dance-single - Spork!----------------
#NOTES:
     dance-single:
     :
     Easy:
     4:
     0.242,0.274,0.214,0.103,0.000,173.000,27.000,13.000,0.000,0.000,0.000,0.242,0.274,0.214,0.103,0.000,173.000,27.000,13.000,0.000,0.000,0.000:
0000
0000
0000
0000
,
0000
0000
1000
0000
,
0000
0100
0000
0000
,
1100
0000
0000
0101
0000
0000
0000
0000
,
0000
0000
0001
0000
,
0000
1000
0000
0000
,
0200
0000
0000
0000
,
0300
0000
0110
0000
,
0000
1001
0000
0000
,
0101
0000
0000
1100
0000
0000
0000
0000
,
0000
0000
1001
0000
,
0000
0110
0000
0000
,
0220
0000
0330
0000
,
0001
0010
0100
0000
,
0100
1000
0010
1000
,
0001
0100
0010
0000
,
0010
1000
0010
0100
,
0001
1000
0100
0000
,
0110
0000
1001
0000
,
0002
0000
0203
0000
,
2300
0000
3000
0000
,
1000
0010
0100
0100
,
0000
0100
0010
1000
,
0001
0010
0100
0000
,
0100
1000
0100
0010
,
0001
1000
0000
1000
,
0001
0100
0001
0010
,
1001
0000
0000
0000
,
0110
0000
0000
0000
,
2000
0000
0000
0000
,
3000
0001
0100
0010
,
0000
0000
0000
1000
0000
0000
0100
0000
,
0000
0110
0000
0100
,
1000
0010
0000
0010
,
0100
0000
0000
0001
0000
0000
0010
0000
,
0000
0110
0000
0110
,
0000
1001
0000
1001
,
0002
0000
0000
0000
,
0003
1000
0001
0010
,
0000
0000
0000
0001
0000
0000
0100
0000
,
0000
1001
0000
0010
,
1000
0100
0000
0100
,
0010
0000
0000
0001
0000
0000
0100
0000
,
0000
0110
0000
0110
,
0000
0001
1000
0000
,
0100
0100
0100
0100
,
0010
0010
0010
0010
,
0001
0001
0001
0001
,
1000
1000
1000
1000
,
0001
0100
0001
0100
,
0010
1000
0010
1000
,
0001
0010
0100
0010
,
0001
1100
0110
0011
,
0001
0100
0010
0000
,
0010
0100
0010
1000
,
0001
1000
0100
0000
,
0010
0100
1000
0001
,
0010
0001
0100
0000
,
0110
0000
1001
0001
,
2000
0000
3200
0000
,
0302
0000
0003
0000
,
0001
0100
0010
0010
,
0000
1000
0010
0100
,
0001
0001
0010
0000
,
0010
0001
1000
0100
,
0010
0001
1000
0001
,
0100
0010
1000
0001
,
2002
0000
0000
0000
,
0000
0000
0000
0000
,
3003
0000
0000
0000
;

//---------------dance-double - Spork!----------------
#NOTES:
     dance-double:
     :
     Medium:
     7:
     0.382,0.411,0.183,0.302,0.040,276.000,23.000,38.000,0.000,0.000,0.000,0.382,0.411,0.183,0.302,0.040,276.000,23.000,38.000,0.000,0.000,0.000:
00000000
00000000
00000000
00000000
,
00000000
00000000
00010000
00000000
,
00000000
00000000
00000000
00010000
00000100
00000000
00000000
00000000
00000000
00000000
00000000
00000000
00000000
00000100
00000010
00000000
,
00000100
00000000
00000000
00000100
00000000
00000000
00001001
00000000
00000000
00000000
00000000
00000000
00000000
00000000
00000000
00000000
,
00000000
00000000
00000000
00000000
00000000
00001000
01000000
00000000
01000000
00000000
00000000
00000000
00000000
00000000
00000000
00000000
,
00100000
00000000
01000000
00000000
00010000
00000000
00000000
00000000
00000000
00000000
00000000
00000000
00000000
00000000
10000000
00010000
,
00000000
00000000
00010000
00100000
00000000
00100000
01000000
00000000
,
01000000
00000000
10000000
00000000
00000000
10000000
00010000
00000000
00010000
00000000
00000000
00000000
00000000
00000000
00000000
00000000
,
00000000
00000000
00000000
00000000
01001000
00000000
00000000
00011000
00000000
00000000
00000000
00000000
00000000
00000000
00010000
00000000
,
00000100
00000000
00000000
00000010
00000000
00000000
00000100
00000000
00000000
00000000
00000000
00000000
00011000
00000000
00000000
00000000
,
00000000
00000000
00000000
00001000
01000000
00000000
00010000
00000000
,
00100000
00000000
00100000
01000000
00000000
00000000
00000000
00000000
00000000
00000000
00000000
00000000
00000000
00000000
01000000
10000000
,
00000000
00000000
00000000
00000000
00000000
00001000
00001000
00001000
,
01000000
00000000
00100000
10000000
00010000
00000000
00000000
00000000
,
10000000
00000000
00100000
00000000
00010000
00000000
00001000
00001000
,
00010000
00010000
00000010
00001000
00000001
00000000
00000000
00000000
,
00000100
00000000
00000001
00000000
00000010
00000000
00000100
00000100
,
00010000
00010000
00001000
00010000
00000100
00000000
00001000
00000000
,
00200000
00000000
01300000
00100000
,
20020000
30030000
00022000
00033000
,
00002002
00000000
00003003
00000000
00000000
00000100
00000100
00000100
,
00000001
00000000
00000001
00001000
00000100
00000000
00000010
00000000
,
00000000
00000000
00000010
00000000
00001000
00000000
00001000
00001000
,
00010000
00010000
00001000
01000000
00000000
00000000
01000000
00100000
,
10000000
00010000
10000000
22000000
,
33000000
00022000
00033000
00000101
,
00000010
00001000
00000100
00000010
,
00000220
00000330
00022000
00033000
,
02200000
00000000
03300000
00000000
00001000
00000000
00010000
00100000
,
20000000
00010000
00000000
00010000
,
31000000
00010000
00001000
00000100
,
00000002
00001000
00000000
00001000
,
00000013
00001000
00010000
00100000
,
02000000
00100000
00000000
00100000
,
03001000
00010000
01000000
00010000
,
00000200
00000010
00000010
00000000
,
00001000
00001000
00010300
00010000
,
00000002
00001000
00000000
00001000
,
00000103
00001000
00010000
01000000
,
20000000
00010000
00000000
00010000
,
30100000
00010000
00001000
00000010
,
00000200
00000010
00000000
00000010
,
00010300
00001000
00000010
00001000
,
00200000
01000000
01000000
00000000
,
00010000
00010000
00301000
00000000
,
00001000
00010000
00001000
00000000
01000000
00000000
01000000
00010000
,
01000000
00000000
00001000
00000000
00001000
00010000
00001000
00010000
,
00010000
00001000
00010000
00000000
00000100
00000000
00000100
00000010
,
00000100
00000000
00010000
00000000
00010000
00001000
00010000
00001000
,
00001000
00010000
00001000
00000000
00100000
00000000
00100000
01000000
,
00100000
00000000
00001000
00000000
00001000
00010000
00001000
00010000
,
00010000
00001000
00010000
00000000
00000010
00000000
00000010
00000100
,
00000010
00001010
00001001
00000101
,
00000001
00000100
00001000
00000100
00000001
00000010
00000001
00000001
,
00000100
00001000
00010000
01000000
,
10000000
00100000
00010000
00100000
10000000
01000000
10000000
10000000
,
00010000
01000000
00001000
00010000
,
00010000
00000010
00001000
00000010
00010000
00000000
00001000
00000000
,
00000020
00000000
00000130
00000010
,
00002002
00003003
00022000
00033000
,
20020000
00000000
30030000
00000000
00000000
00100000
00100000
00100000
,
10000000
01000000
00010000
01000000
10000000
00010000
10000000
00000000
,
01000000
00010000
00001000
00000100
,
00000001
00000010
00001000
00000010
00000001
00000000
00001000
00000000
,
00000001
00000100
00001000
00000202
,
00000303
00022000
00033000
11000000
,
00100000
00010000
01000000
00001000
,
20020000
00000000
00000000
00000000
,
00000000
00000000
00000000
00000000
,
30030000
00000000
00000000
00000000
;

//---------------dance-double - Spork!----------------
#NOTES:
     dance-double:
     :
     Hard:
     9:
     0.515,0.493,0.175,0.135,0.064,415.000,22.000,17.000,0.000,0.000,0.000,0.515,0.493,0.175,0.135,0.064,415.000,22.000,17.000,0.000,0.000,0.000:
00000000
00000000
00000000
00000000
,
00000000
00000000
00000000
00000000
01001000
00000000
00010000
00100000
,
00001000
00000000
00010000
00000010
00001000
00000000
00000000
00000000
00001000
00000000
00000100
00000000
00010000
00000100
00000010
00000000
,
00000011
00000000
00000000
00011000
00000000
00000000
10100000
00000000
00000000
00000000
01000000
00000000
00010000
00000000
10000000
00000000
,
10000000
00000000
01000000
00000000
00100000
00010000
10000000
00000000
01000000
00000000
00000000
00000000
00010000
00000000
00001000
00000000
,
00001000
00000100
00000001
00000000
00001000
00000000
00000000
00000000
00000001
00000000
00000010
00000000
00000100
00000000
00000100
00010000
,
00001000
00001000
00001000
00010000
00010000
00010000
00000010
00000010
,
00000010
00000000
00000100
00000000
00000100
00000001
00001000
00000000
00001001
00000000
00000000
00000000
00000100
00000000
00001000
00000000
,
00010000
00000000
01000000
00000000
00110000
00000000
00000000
11000000
00000000
00000000
01000000
00000000
00100000
00000000
00010000
00000000
,
10100000
00000000
00000000
00011000
00000000
00000000
00000011
00000000
00000000
00000000
00000100
00000000
00001000
00000000
00000001
00000000
,
00000100
00000000
00001000
00000000
00001000
00000000
00010000
00000100
00001000
00000000
00000000
00000000
00100000
00000000
00010000
00000000
,
00001000
00000000
00010000
00001000
00100000
00000000
00100000
00000000
01000000
00000000
00010000
00000000
00001000
00000000
00001000
00000010
,
00000001
00001000
00001000
00000001
00000100
00000000
00000000
00000000
,
10000000
01000000
10000000
00100000
10000000
01000000
00010000
00010000
,
00001000
00000000
00010000
00000000
00000010
00000000
00000100
00000100
,
00000001
00000010
00000001
00000100
00000001
00000010
00001000
00001000
,
00010000
00000000
00001000
00000000
01000000
00000000
00100000
00100000
,
10000000
00000000
10000000
02000000
00010000
03000000
00010000
00002000
,
00000100
00003000
00000100
00000002
00000010
00000003
00000010
00000000
,
00000001
00000100
00000100
00001000
00010000
00010000
01000000
10000000
,
10000000
00100000
01000000
00000000
01000000
01000000
01000000
00010000
,
10000000
00100000
00010000
00100000
10000000
01000000
00010000
00000000
,
00010000
00001000
00010000
00000000
00010000
00000100
00000010
00000010
,
00000001
00000100
00001000
00000100
00000001
00000000
00000010
00000000
,
00001000
00010000
00001000
00000000
00001000
01000000
00010000
00100000
,
01000000
00000000
01000000
20000000
00100000
30000000
00100000
00020000
,
00001000
00030000
00001000
00000020
00000001
00000030
00000001
00000000
,
00001000
00000100
00000000
00000010
00001000
00001000
00010000
00100000
,
00000000
01000000
00000000
01000000
00001000
00010000
00000100
00000100
,
00000020
00000001
00000000
00000031
,
00000010
00010000
00001000
01000000
,
02000000
10000000
00000000
13000000
,
00100000
00001000
00010000
00000100
,
00000200
00000010
00000000
00000310
,
00000100
00000001
00010000
00001000
,
10000000
01010000
00000100
00011000
,
01000000
00001100
00000001
00011000
,
00000200
00000001
00000000
00000301
,
00000100
00010000
00001000
00100000
,
00200000
10000000
00000000
10300000
,
01000000
00001000
00010000
00000010
,
00000020
00000001
00000000
00000031
,
00000010
00000100
00010000
00001000
,
10000000
00110000
00000010
00011000
,
00100000
00001010
00012000
00000000
,
00013000
00000100
00000010
00000010
00000001
00000100
00000010
00001000
,
00000001
00000010
00000100
00000100
00010000
00000010
00001000
00001000
,
00000100
00010000
00001000
00001000
01000000
00010000
00100000
01000000
,
10000000
00010000
01000000
01000000
00010000
00100000
00001000
00001000
,
00100000
00010000
01000000
01000000
00100000
10000000
01000000
00100000
,
00001000
00010000
00000010
00000010
00001000
00000010
00000100
00000100
,
00000001
00000000
00000000
00000001
00000100
00000000
00000000
00000100
00000010
00000000
00000000
00000010
01000000
00000000
00000000
01000000
,
00100000
10100000
01010000
10010000
,
10000000
01000000
00010000
00001000
00010000
01000000
00100000
00001000
,
00010000
00001000
00000010
00000100
00010000
00001000
00000010
00000010
,
00000001
00000100
00001000
00010000
00001000
00000100
00000010
00010000
,
00001000
00010000
00100000
01000000
00001000
00010000
00100000
00100000
,
10000000
01000000
00100000
00001000
00100000
00010000
00000010
00001000
,
00100000
00001000
00010000
00000100
00000010
00000100
00001000
00001000
,
00000001
00000000
00000001
00000020
00000100
00000030
00000100
00002000
,
00000010
00003000
00000010
00000000
00000000
00000010
00000100
00000100
,
00000001
00000010
00001000
00010000
00001000
00000010
00000100
00010000
,
00001000
00010000
01000000
00100000
00001000
00010000
01000000
01000000
,
10000000
00100000
00010000
00001000
00010000
00100000
01000000
00001000
,
00010000
00001000
00000100
00000010
00010000
00001000
00000100
00000100
,
00000001
00000010
00000100
00010000
00000100
00001000
01000000
00010000
,
00000100
00010000
00001000
00100000
01000000
00100000
00010000
00010000
,
22000000
00000000
00000000
00000000
,
00000000
00000000
00000000
00000000
,
33000000
00000000
00000000
00000000
;

//---------------dance-single - Spork!----------------
#NOTES:
     dance-single:
     :
     Medium:
     6:
     0.320,0.411,0.135,0.302,0.012,227.000,17.000,38.000,0.000,0.000,0.000,0.320,0.411,0.135,0.302,0.012,227.000,17.000,38.000,0.000,0.000,0.000:
0000
0000
0000
0000
,
0000
0000
1010
0000
,
0000
0011
0000
0000
,
0100
0000
0000
0010
0000
0000
0100
0000
0000
0000
0000
0000
0000
0000
0000
0000
,
0000
0000
0101
0000
,
0000
0000
1100
0000
0000
0000
0000
0010
,
0200
0000
0000
0000
,
0300
0000
1010
0000
,
0000
0000
0000
0000
1100
0000
0000
0101
0000
0000
0000
0000
0000
0000
0000
0000
,
0010
0000
0000
0100
0000
0000
0010
0000
0000
0000
0000
0000
0000
0000
0000
0000
,
0000
0000
0011
0000
,
0000
0000
1010
0000
0000
0000
0000
0100
,
0020
0000
0000
0000
0030
0001
0001
0001
,
1000
0100
1000
0100
0010
0000
0001
0000
,
0100
0010
0100
0100
,
0001
0010
0001
0010
0100
0000
1000
0000
,
0001
0100
0001
0001
,
2000
3100
2000
3010
,
2000
3001
0002
1003
,
0001
0100
0000
0100
0001
0000
0001
1000
,
0000
1000
0001
0000
0000
0001
1000
1000
,
0001
0000
0001
0010
0100
0000
1000
0000
,
0010
0100
0010
0010
,
1000
0010
1000
0010
0100
0000
0000
0000
,
0001
1000
0010
0100
,
0002
0013
0002
0103
,
0002
1003
2000
3001
,
2000
0000
3200
0000
,
0320
0000
0031
0001
,
2002
0000
0000
3003
,
0000
0100
0001
1000
,
0002
0000
0010
0000
,
0100
0000
1003
0100
,
0220
0000
0000
0330
,
0001
0010
0100
2000
,
0000
0010
0000
0100
,
0000
0001
3001
0010
,
2002
0000
0000
3003
,
0000
0010
1000
0001
,
2000
0000
0100
0000
,
0010
0000
3001
1000
,
0220
0000
0000
0330
,
1000
0100
0010
0002
,
0000
0100
0000
0010
,
0000
1000
1003
0000
,
0001
0100
0010
0010
,
0001
1000
0100
0100
,
0001
0010
0100
0100
,
0001
1000
0010
0010
,
0001
0100
0010
0010
,
0100
1000
0010
0010
,
0001
1000
0001
0000
1000
0001
1000
0000
,
0001
0101
0110
1010
,
1000
0100
1000
0100
1000
0100
1000
0100
,
1000
0100
0010
0001
,
0001
0100
0001
0100
0001
0100
0001
0100
,
0001
0010
0001
1000
,
0002
0013
0002
0103
,
0002
1003
2000
3001
,
0002
0000
0023
0000
,
0230
0000
0300
1000
,
0001
0000
0001
0100
0001
0100
0010
0000
,
1000
0100
0010
0001
,
1000
0000
0000
1000
0000
1000
0001
1000
,
0100
0010
0100
0100
,
2000
3010
2000
3100
,
2000
3001
0002
1003
,
2002
0000
0000
0000
,
0000
0000
0000
0000
,
3003
0000
0000
0000
;

//---------------dance-double - Spork!----------------
#NOTES:
     dance-double:
     :
     Easy:
     5:
     0.282,0.301,0.254,0.167,0.004,196.000,32.000,21.000,0.000,0.000,0.000,0.282,0.301,0.254,0.167,0.004,196.000,32.000,21.000,0.000,0.000,0.000:
00000000
00000000
00000000
00000000
,
00000000
00000000
00001000
00000000
,
00000000
01000000
00000000
00000000
,
00010000
00000000
00000000
10000000
00000000
00000000
01000000
00000000
00000000
00000000
00000000
00000000
00000000
00000000
00000000
00000000
,
00000000
00000000
00010000
00000000
,
00000000
00000010
00000000
00000000
,
00000200
00000000
00000000
00000000
,
00000300
00000000
00000101
00000000
,
00000000
00011000
00000000
00000000
,
11000000
00000000
00000000
00000000
00000000
00001000
00011000
00000000
,
00000000
00000000
10100000
00000000
,
00000000
00011000
00000000
00000000
,
00000022
00000000
00000033
00000000
,
00000001
00000000
00011000
00000000
,
00001000
00000100
00000001
00000100
,
00001000
00001000
00011000
00000000
,
00010000
01000000
10000000
01000000
,
00020000
00031000
00002000
00013000
,
00020000
00030100
00002000
01003000
,
01001000
00000000
00011000
00000000
,
00010100
00000000
00001000
00001000
,
10000000
00000000
00011000
00000000
,
00010000
00100000
10000000
00100000
,
00010000
00010000
00011000
00000000
,
00001000
00000010
00000001
00000010
,
00002000
00013000
00020000
00031000
,
00002000
01003000
00020000
00030100
,
00010100
00000000
00011000
00000000
,
01001000
00000000
01000000
00100000
,
20000000
00000000
01000000
00000000
,
30010000
00100000
01000000
00100000
,
00001000
00000000
00010000
00001000
,
00000100
00000000
00000010
00001000
,
00000002
00000000
00000010
00000000
,
00001003
00000100
00000010
00000100
,
00000000
00001001
00000000
00001001
,
00000000
00000110
00000000
00000110
,
00002000
00000000
00000100
00000000
,
00003001
00000100
00000010
00010000
,
00000100
00000000
00010000
00001000
,
00000100
00000000
00001000
00100000
,
00020000
00000000
01000000
00000000
,
10030000
00100000
01000000
00001000
,
00000000
10010000
00000000
10010000
,
00000000
01100000
02200000
03300000
,
10000000
01000000
00010000
00010000
,
00001000
00000100
00000001
00001000
,
00000001
00000010
00001000
00001000
,
00010000
00100000
10000000
00010000
,
01000000
00001000
01000000
00001000
,
00010000
00000100
00010000
00000100
,
00000010
00000001
00010000
00001000
,
10000000
11000000
01100000
00110000
,
10000000
00100000
00010000
00100000
,
00001000
00000010
00010000
00010000
,
00000001
00000010
00001000
00000010
,
00010000
00100000
00001000
00001000
,
00010000
00000100
00000001
00000100
,
00010000
00001000
01000000
10000000
,
01100000
00000000
00011000
00000000
,
00000220
00000000
00000330
00000000
,
00000001
00000100
00001000
00000100
,
00010000
01000000
00001000
00001000
,
10000000
01000000
00010000
01000000
,
00001000
00000100
00010000
00010000
,
00001000
00100000
10000000
00100000
,
00001000
00010000
00000010
00000001
,
00002002
00000000
00000000
00000000
,
00000000
00000000
00000000
00000000
,
00003003
00000000
00000000
00000000
;

//---------------dance-single - Spork!----------------
#NOTES:
     dance-single:
     :
     Hard:
     9:
     0.524,0.438,0.143,0.151,0.032,425.000,18.000,19.000,0.000,0.000,0.000,0.524,0.438,0.143,0.151,0.032,425.000,18.000,19.000,0.000,0.000,0.000:
0000
0000
0000
0000
,
0000
0000
0000
0000
0002
0000
0103
0001
,
0010
0001
2000
0000
3100
1000
0010
1000
,
0100
0000
0000
0010
0000
0000
1100
0000
0000
0000
0000
0000
1000
0000
0000
0000
,
0001
0100
0000
0100
0020
0000
1030
0100
,
0010
0001
0200
0000
0301
0010
0100
1000
,
0010
0000
0010
1000
0000
1000
0001
0000
,
0001
0010
0001
0001
1001
0000
0100
0010
,
0000
0000
0010
0000
1100
0000
0000
0001
0000
0000
1000
0000
0010
0000
0100
0000
,
0101
0000
0000
0010
0000
0000
1000
0000
0000
0000
0100
0000
1001
0000
0001
0000
,
1000
0100
0010
0010
0110
0000
1000
0000
,
0001
0010
0110
0010
0001
0001
1000
0010
,
1010
0100
0001
0010
0200
0000
0000
0300
,
1000
0100
0010
0000
0100
0001
0100
0000
,
0010
0100
0010
0001
1000
0000
1000
1000
,
0001
0100
0010
0000
0100
1000
0100
0000
,
0010
0100
0010
0000
1000
0001
0010
0001
,
1000
0000
1000
0020
0001
0030
1000
0200
,
0001
0300
0001
0010
1000
0010
0001
0000
,
1000
0100
0100
0010
0001
0001
0100
0010
,
0000
0010
0100
0000
0100
0001
0001
0001
,
1000
0010
0100
0000
0010
0001
0010
0000
,
0100
0001
1000
0000
0001
0000
1000
1000
,
0001
0010
0100
0000
0010
1000
0010
0000
,
0100
1000
0000
1000
0100
0100
0010
0000
,
0001
0000
0001
0200
1000
0300
0001
0020
,
1000
0030
1000
0100
0001
0100
1000
0000
,
1000
0010
0000
0010
0100
0001
0001
0010
,
0000
0010
0001
1000
0010
0100
0100
0100
,
0002
0000
0010
0000
0000
0000
1000
0003
,
0001
0000
0010
0001
0100
1000
0100
0001
,
1000
0000
0010
1000
0100
0000
0100
0010
,
0001
0000
0001
0000
0100
0001
0010
0100
,
2000
0000
0100
0000
0000
0000
0001
3000
,
1000
0100
0001
0100
1000
0001
0100
1000
,
0100
0101
0010
1100
,
0010
0002
0023
0230
,
2300
0010
0000
3001
,
1000
0000
1000
0001
0010
1000
0010
0001
,
0100
0000
0100
0010
1000
0000
1000
0000
,
0001
0100
0010
0000
0010
1000
0100
0010
,
0002
0100
0000
1003
,
0001
0010
1000
0010
0001
1000
0100
0001
,
0100
0011
0100
1001
,
1000
0110
0201
0000
,
0301
1000
0010
1000
0001
0010
0100
0100
,
1000
0001
0100
0001
1000
0010
0100
0100
,
0001
1000
0100
1000
0001
0100
0010
0010
,
1000
0100
0010
0001
1000
0001
0100
0100
,
0001
0010
1000
0001
0100
0001
1000
0010
,
0001
0100
1000
0001
0010
0001
1000
0100
,
0001
0000
0000
0001
0010
0000
0000
0010
0100
0000
0000
0100
1000
0000
0000
1000
,
0001
1100
1001
0101
,
1000
0010
0100
0001
0010
0100
0001
0100
,
1000
0010
0001
1000
0100
0001
0100
0010
,
1000
0100
0010
0001
0100
0010
0001
0010
,
1000
0100
0001
1000
0010
0001
0010
0100
,
1000
0010
0100
1000
0100
0001
1000
1000
,
0001
0010
0100
0001
0100
1000
0001
0001
,
1000
0100
0100
0010
0001
0001
0100
0010
,
0000
0000
0010
0000
0100
0000
0001
0000
1000
0001
1000
0000
0100
0000
0000
0000
,
0100
1000
0010
0001
1000
0100
0010
1000
,
0100
0001
0100
0001
1000
0010
0100
0100
,
0010
0001
0100
1000
0001
0010
0100
0001
,
0010
1000
0010
1000
0001
0100
0010
0010
,
0001
0100
1000
0100
0010
1000
0100
0100
,
1000
0010
0001
0010
0100
0001
0010
0010
,
0220
0000
0000
0000
,
0000
0000
0000
0000
,
0330
0000
0000
0000
;
