#TITLE:That's パラダイス;
#SUBTITLE:;
#ARTIST:TAKERU;
#TITLETRANSLIT:That's Paradise;
#SUBTITLETRANSLIT:;
#ARTISTTRANSLIT:;
#CREDIT:;
#BANNER:That's Paradise.png;
#BACKGROUND:That's Paradise-bg.png;
#LYRICSPATH:;
#CDTITLE:;
#MUSIC:That's Paradise.mp3;
#OFFSET:-0.805;
#SAMPLESTART:57.760;
#SAMPLELENGTH:16.420;
#SELECTABLE:YES;
#BPMS:0.000=160.000;
#STOPS:;
#BGCHANGES:;

//---------------dance-single - ----------------
#NOTES:
     dance-single:
     :
     Hard:
     7:
     0.559,0.606,0.404,0.277,0.074: // measure 1
0000
0000
0000
0000
,  // measure 2
0000
0000
0000
0000
,  // measure 3
0000
0000
0000
0000
,  // measure 4
0000
0000
0000
0000
0000
0000
0000
0000
1000
0001
1000
0001
1000
0000
0000
0000
,  // measure 5
0001
0000
0101
0000
2100
0000
3001
0002
,  // measure 6
0000
0100
0103
0000
0101
0000
0001
1000
,  // measure 7
0002
0000
0023
0000
0230
0000
1000
1300
,  // measure 8
0000
0001
0100
1000
0001
0010
1000
0001
,  // measure 9
1000
0100
1000
0001
0100
0001
1000
0010
,  // measure 10
1000
0001
0010
0001
1000
0001
1001
0000
,  // measure 11
0001
0010
0100
0000
0010
0100
0000
2000
,  // measure 12
0000
0001
3001
0000
0100
0020
0000
0030
,  // measure 13
1000
0000
1100
0000
0001
0100
0010
1001
,  // measure 14
0000
0000
2002
0000
0000
0000
3003
0000
0001
1000
0001
1000
0001
0000
0000
0000
,  // measure 15
1001
0000
1000
0000
0010
0100
0000
0010
,  // measure 16
0000
1000
0000
0001
0100
0000
1010
0000
,  // measure 17
0001
0000
1000
0000
0100
0010
0000
0002
,  // measure 18
0000
1000
1003
0000
0101
0000
1100
0000
,  // measure 19
1001
0000
0001
0000
0100
0010
0000
0100
,  // measure 20
0000
0001
0000
0010
0200
0000
1300
0000
,  // measure 21
0001
0000
2000
0000
0010
3010
0000
1010
,  // measure 22
0000
0011
0000
1002
0000
0100
0100
0100
,  // measure 23
1003
0000
0001
0000
0100
0010
0000
0100
,  // measure 24
0000
0001
0000
1000
0010
0000
0101
0000
,  // measure 25
1000
0000
0001
0010
0100
1000
0000
0002
,  // measure 26
0000
1000
1003
0000
1010
0000
0011
0001
,  // measure 27
0000
1000
1000
1000
1000
0000
0101
0000
,  // measure 28
0000
0010
0010
0010
0010
0000
1100
0000
,  // measure 29
0001
0010
0001
1000
0010
1000
0001
0100
,  // measure 30
0001
0000
1000
0000
0100
0000
1000
0000
0001
1000
0001
1000
0001
0000
0000
0000
,  // measure 31
1001
0000
1000
0000
0100
0010
0000
0001
,  // measure 32
0020
0230
2300
3001
,  // measure 33
1001
0000
0001
0100
0000
0010
0000
1000
,  // measure 34
0002
1003
1100
0101
,  // measure 35
2100
0000
0010
0010
0000
3001
0000
1000
,  // measure 36
0002
0000
0100
0100
0000
1003
0000
0001
,  // measure 37
1000
0010
0100
0000
0001
0010
0100
0000
,  // measure 38
1010
0000
0000
0000
0011
0000
0000
0000
1000
0001
1000
0001
1000
0000
0000
0000
,  // measure 39
0001
0000
0100
1000
0000
0001
0000
0010
,  // measure 40
1000
0000
1001
0000
0001
1000
0100
0000
,  // measure 41
1000
0000
0010
0001
0000
1000
0000
0100
,  // measure 42
0000
0001
1000
0000
0001
0010
0100
0000
,  // measure 43
1000
0000
0010
0010
0000
0001
0000
0010
,  // measure 44
0000
0100
0000
0001
0000
1000
1000
0000
,  // measure 45
1100
0000
0001
0101
0000
1000
1100
0000
,  // measure 46
1000
0000
0100
0000
0010
0000
0001
0000
0100
0010
0100
0010
1000
0000
0000
0000
,  // measure 47
0001
0000
0010
1000
0000
0001
0000
0100
,  // measure 48
1000
0000
1001
0000
1000
0010
0100
0000
,  // measure 49
0101
0000
1000
1100
0000
0101
0000
1002
,  // measure 50
0000
0000
0010
0000
0013
0000
0000
0000
0001
1000
0001
1000
0001
0000
0000
0000
,  // measure 51
1000
0000
0100
0100
0000
0001
0000
0100
,  // measure 52
0000
1000
0000
0010
0000
0001
0000
0010
,  // measure 53
1000
0100
0001
0100
0010
0001
1000
0010
,  // measure 54
0100
0001
0000
0001
2000
0000
3100
0000
,  // measure 55
1000
0000
0010
0001
0000
0010
0000
1000
,  // measure 56
0000
0100
0000
0001
0000
0100
0000
2002
,  // measure 57
0000
0000
0003
0020
0000
0000
0000
0000
,  // measure 58
0000
0000
3030
1001
,  // measure 59
1000
0010
1000
0001
0010
0001
1000
0100
,  // measure 60
1000
0000
0001
0000
0100
0000
0001
0000
1000
0100
0010
0001
2000
0000
0000
0000
,  // measure 61
3000
0000
0000
0000
;

//---------------dance-single - ----------------
#NOTES:
     dance-single:
     :
     Easy:
     4:
     0.316,0.318,0.085,0.117,0.000: // measure 1
0000
0000
0000
0000
,  // measure 2
0000
0000
0000
0000
,  // measure 3
0000
0000
0000
0000
,  // measure 4
0000
0000
1000
1001
,  // measure 5
0001
0100
0001
1000
,  // measure 6
0001
0010
0001
0001
,  // measure 7
1000
0100
1000
0001
,  // measure 8
1000
0010
1000
1000
,  // measure 9
0001
0001
0010
0010
,  // measure 10
0100
0100
1000
1001
,  // measure 11
1000
1000
0010
0010
,  // measure 12
0100
0100
0002
0003
,  // measure 13
1000
0100
0010
0001
,  // measure 14
1000
1000
0001
0001
,  // measure 15
1001
0000
0001
0000
,  // measure 16
0100
0010
0100
0001
,  // measure 17
0010
0000
0100
0000
,  // measure 18
1000
0010
0100
0100
,  // measure 19
0010
0000
1000
0000
,  // measure 20
0001
0010
1000
0010
,  // measure 21
0001
0000
0100
0000
,  // measure 22
0010
0010
1001
0000
,  // measure 23
0001
0000
1000
0000
,  // measure 24
0010
0100
0010
1000
,  // measure 25
0100
0000
0010
0000
,  // measure 26
0001
0100
0010
0010
,  // measure 27
0100
0100
0100
0000
,  // measure 28
0001
0001
0001
0000
,  // measure 29
1000
0100
1000
0001
,  // measure 30
0100
0001
1000
1001
,  // measure 31
0001
0000
0010
0000
,  // measure 32
0100
0000
1000
0000
,  // measure 33
0002
0003
0200
0300
,  // measure 34
0020
0030
2000
3000
,  // measure 35
0001
0010
0001
0010
,  // measure 36
0100
1000
0100
1000
,  // measure 37
0001
0001
1000
1000
,  // measure 38
0100
0010
1001
0000
,  // measure 39
1000
0100
0010
0001
,  // measure 40
2000
0000
3001
0000
,  // measure 41
1000
0010
0100
0001
,  // measure 42
1000
1000
0001
0000
,  // measure 43
1000
0010
0001
0010
,  // measure 44
0100
0001
1000
0001
,  // measure 45
1000
1000
0100
0100
,  // measure 46
0010
0010
0001
0001
,  // measure 47
1000
0010
0100
0001
,  // measure 48
2000
0000
3001
0000
,  // measure 49
1000
0100
0010
0001
,  // measure 50
2000
0000
3001
0001
,  // measure 51
1000
0010
0001
0010
,  // measure 52
1000
0100
0001
0100
,  // measure 53
1000
1000
0010
0010
,  // measure 54
0100
0100
0002
0003
,  // measure 55
1000
0100
0010
0001
,  // measure 56
0010
0100
1000
0001
,  // measure 57
2000
0000
0002
0000
,  // measure 58
0000
0000
3003
1001
,  // measure 59
1000
1000
0010
0010
,  // measure 60
0100
0100
0001
1001
;

//---------------dance-single - ----------------
#NOTES:
     dance-single:
     :
     Medium:
     6:
     0.479,0.477,0.319,0.277,0.000: // measure 1
0000
0000
0000
0000
,  // measure 2
0000
0000
0000
0000
,  // measure 3
0000
0000
0000
0000
,  // measure 4
0000
0000
0000
0000
1000
0001
1001
0000
,  // measure 5
0001
0000
0100
0000
0010
0000
0100
0001
,  // measure 6
0000
0001
0100
0000
0010
0000
1001
0000
,  // measure 7
1000
0000
0100
0000
0010
0000
0100
1000
,  // measure 8
0000
1000
0100
0000
0010
0000
1001
0000
,  // measure 9
0001
0100
0001
0000
0100
1000
0100
0000
,  // measure 10
1000
0010
1000
0000
0010
0001
0010
0000
,  // measure 11
0001
1000
0001
0000
0100
0001
0000
1000
,  // measure 12
0000
0100
1000
0000
0001
2000
0000
0000
,  // measure 13
3010
0000
0010
0000
0100
0000
0100
0002
,  // measure 14
0000
0010
0000
0000
0100
0000
1003
0000
,  // measure 15
1001
0000
0001
0000
0100
0010
0000
0100
,  // measure 16
0000
0001
0000
0010
0100
0000
1001
0000
,  // measure 17
1000
0000
0010
0000
0100
0010
0000
1000
,  // measure 18
0000
0100
0010
0000
0011
0000
1010
0000
,  // measure 19
1001
0000
0001
0000
0100
0010
0000
0100
,  // measure 20
0000
0001
0000
1000
0200
0000
0310
0000
,  // measure 21
0001
0000
1000
0000
0010
0010
0000
0110
,  // measure 22
0000
0101
0000
1002
0000
0100
0103
0000
,  // measure 23
1001
0000
1000
0000
0010
0100
0000
0010
,  // measure 24
0000
1000
0000
0100
0010
0000
1001
0000
,  // measure 25
0001
0000
0100
0000
0010
0100
0000
0001
,  // measure 26
0000
0010
0100
0000
1100
0000
0101
0000
,  // measure 27
1000
0010
1000
0010
1000
0000
0101
0000
,  // measure 28
0001
0010
0001
0010
0001
0000
1100
0000
,  // measure 29
0001
0010
0001
0000
0010
1000
0010
0000
,  // measure 30
1000
0100
1000
0000
0100
0001
0100
0000
,  // measure 31
2000
3010
0200
0301
,  // measure 32
2000
3100
0020
0031
,  // measure 33
2000
3010
0002
0013
,  // measure 34
2000
3100
0002
0103
,  // measure 35
2000
0010
0100
3001
,  // measure 36
0002
0010
0100
1003
,  // measure 37
0001
0100
0010
0000
1000
0100
0010
0000
,  // measure 38
0011
1100
2002
3003
,  // measure 39
1000
0000
0010
0100
0000
0001
0000
0100
,  // measure 40
0020
1030
0002
0013
,  // measure 41
0001
0000
0010
0100
0000
1000
0000
0010
,  // measure 42
0000
0100
0001
0000
1000
0000
1001
0000
,  // measure 43
0001
0000
0010
0100
0000
1000
0000
0100
,  // measure 44
0000
0001
0000
0100
0000
0010
0000
0000
,  // measure 45
0012
0000
0010
0010
0000
1000
1003
0000
,  // measure 46
0001
0100
0001
0100
0010
1000
0010
0000
,  // measure 47
1000
0000
0100
0010
0000
0001
0000
0100
,  // measure 48
0020
1030
0200
0310
,  // measure 49
0011
0000
0000
1100
0000
0101
0000
2002
,  // measure 50
0000
3003
1100
0101
,  // measure 51
1000
0000
0100
0001
0000
0100
0000
1000
,  // measure 52
0000
0010
0000
0001
0000
0010
0000
1000
,  // measure 53
0001
0100
0001
0000
1000
0100
1000
0000
,  // measure 54
0001
1000
0000
1000
0020
0000
0130
0000
,  // measure 55
0001
0000
0010
1000
0000
0010
0000
0001
,  // measure 56
0000
0100
0000
1000
0000
0100
0000
0002
,  // measure 57
0000
0000
0000
2000
0000
0000
0000
0000
,  // measure 58
0000
0000
3003
1001
,  // measure 59
1000
0100
1000
0100
1000
0100
1000
0000
,  // measure 60
0001
0100
0001
0100
0001
0000
1001
0000
;
