#TITLE:Sushi;
#SUBTITLE:;
#ARTIST:Adam Buxton;
#TITLETRANSLIT:;
#SUBTITLETRANSLIT:;
#ARTISTTRANSLIT:;
#CREDIT:;
#BANNER:Sushi.png;
#BACKGROUND:Sushi-bg.PNG;
#LYRICSPATH:Sushi.lrc;
#CDTITLE:;
#MUSIC:Sushi.mp3;
#OFFSET:-1.830;
#SAMPLESTART:30.880;
#SAMPLELENGTH:14.540;
#SELECTABLE:YES;
#BPMS:0.000=132.000;
#STOPS:;
#BGCHANGES:-1.700=Sushi.avi=1.000=1=1=0,
239.000=Sushi-bg.PNG=1.000=0=0=0,
99999=-nosongbg-=1.000=0=0=0 // don't automatically add -songbackground-
;

//---------------dance-single - ----------------
#NOTES:
     dance-single:
     :
     Hard:
     7:
     0.444,0.477,0.169,0.275,0.013: // measure 1
0000
0000
0000
0000
,  // measure 2
0000
0000
0000
0000
,  // measure 3
0000
0000
0000
0000
,  // measure 4
0000
0000
0000
0000
,  // measure 5
1000
0000
0002
0100
0003
0000
0101
0000
,  // measure 6
0001
0000
2000
0200
0000
0000
3300
1000
,  // measure 7
0000
0001
0100
0000
0010
0000
0100
0010
,  // measure 8
1010
0000
0101
0000
1000
0100
0010
0001
,  // measure 9
2002
0000
0003
0020
0000
0000
3030
0000
,  // measure 10
0010
1000
0100
0010
0001
0000
1000
0000
,  // measure 11
0001
0000
0100
0010
0100
0000
0001
1000
,  // measure 12
0100
0010
0100
1000
0100
0000
1001
0000
,  // measure 13
2010
0000
0000
0001
3001
1000
0100
0000
,  // measure 14
1000
0000
0100
1000
0001
0001
0100
0000
,  // measure 15
0010
1000
0001
1000
0100
0100
0010
0001
,  // measure 16
0100
0001
1000
0010
0200
0000
0301
0000
,  // measure 17
2002
0000
0000
0000
3003
0000
1000
0100
,  // measure 18
0001
0000
1000
0010
0100
0000
1000
0001
,  // measure 19
0100
0000
0001
0100
0000
0010
1000
0100
,  // measure 20
0010
0000
1001
0000
0100
0000
0001
0100
,  // measure 21
1000
0000
0100
0001
0010
0000
0001
0000
,  // measure 22
1000
0010
0100
0010
1000
0000
0001
1000
,  // measure 23
0001
0000
0000
1000
0000
0000
0100
0000
0010
0000
0000
0001
0000
0000
1000
0000
,  // measure 24
0010
0000
0000
1000
0000
0000
0001
0000
1000
0000
0001
0000
0000
0000
0001
0000
,  // measure 25
0200
0000
0000
0000
0001
0002
0303
0000
,  // measure 26
0002
0000
1000
1000
1000
0000
0100
0000
,  // measure 27
2003
0000
0010
0000
0001
0001
3001
0000
,  // measure 28
1000
0001
1000
0001
0200
0000
0300
0000
,  // measure 29
1002
0000
0000
2000
0000
0000
3003
0000
,  // measure 30
0210
0000
0000
0020
0000
0000
0330
0000
,  // measure 31
2001
0000
0000
0001
0002
0000
3003
0000
,  // measure 32
1000
0100
0010
0001
1000
0010
0101
0000
,  // measure 33
1001
0000
1000
0100
0000
0010
0001
0000
,  // measure 34
1000
0010
0100
0001
0000
0100
0001
1000
,  // measure 35
0100
0000
0001
0100
1000
0000
0001
0100
,  // measure 36
0010
0001
0010
0000
1000
0010
1000
0000
,  // measure 37
0011
0000
1000
0200
0310
0000
0001
0000
,  // measure 38
1000
0100
0010
0100
0000
1000
0001
0100
,  // measure 39
0000
1000
0100
0001
1000
0001
0010
0100
,  // measure 40
0020
0000
0001
0000
0130
0010
0001
1000
,  // measure 41
1002
0000
0000
0000
,  // measure 42
0203
0000
0000
0000
,  // measure 43
2300
0000
0000
0000
,  // measure 44
3020
0000
0000
0000
0000
0000
0001
0001
,  // measure 45
0031
1000
0010
0000
0100
0001
0010
0100
,  // measure 46
0010
0001
1000
0100
0010
0000
0100
1000
,  // measure 47
1001
0000
0001
0100
0010
1000
0100
0010
,  // measure 48
0100
0000
0010
0100
0010
0000
1001
0000
,  // measure 49
1000
0010
0000
0100
0001
0010
0100
0010
,  // measure 50
0001
0000
1000
0010
0100
0100
0010
1000
,  // measure 51
0200
0000
0010
0010
0310
0100
1000
0001
,  // measure 52
1000
0010
0100
0001
0010
0001
1000
0100
,  // measure 53
0110
0000
0010
0001
1000
0000
0001
0200
,  // measure 54
1000
0000
0010
0000
0301
0100
0010
1000
,  // measure 55
0100
0000
0010
0100
1000
0001
0020
1000
,  // measure 56
1000
0000
0100
0000
0031
0000
1000
0001
,  // measure 57
1000
0000
0001
0100
0010
0100
0001
1000
,  // measure 58
0100
0000
0010
0100
1000
0000
0101
0000
,  // measure 59
0001
1000
0100
0001
1000
0010
0001
1000
,  // measure 60
0001
0100
0010
2000
0001
3001
0000
0000
;

//---------------dance-single - ----------------
#NOTES:
     dance-single:
     :
     Medium:
     5:
     0.359,0.397,0.107,0.417,0.000:
0000
0000
0000
0000
,
0000
0000
0000
0000
,
0000
0000
0000
0000
,
0000
0000
0000
0000
,
2000
0002
3003
0000
,
0020
0000
0000
0200
0000
0000
0330
0000
,
0001
0100
0001
1000
,
0100
0000
0010
0001
1000
0000
0001
0000
,
1002
0000
0000
2000
0000
0000
3003
0000
,
1000
0000
0010
2000
0002
0000
3003
0000
,
1000
0010
0100
0000
0001
0000
0100
0000
,
0001
0000
0010
0002
0200
0000
0303
0000
,
2010
0000
0000
0002
0000
0000
3003
0000
,
0001
0010
0100
0000
0010
0000
0001
0000
,
1000
0010
1000
0000
0001
0100
0001
0000
,
1000
0000
0001
1000
0200
0000
0310
0000
,
0220
0000
0000
0000
0330
0000
0010
0100
,
0010
0000
0001
0000
1000
0000
0001
0100
,
0001
0000
1000
0010
0000
0010
1000
0000
,
0001
0000
1000
0000
0100
0000
0010
0001
,
0100
0000
0001
0000
1000
0000
0010
1000
,
0100
0000
0010
0001
1000
0000
0001
0000
,
1000
0000
0000
0001
0010
0000
0000
0100
,
1000
0001
2002
3003
,
0220
0000
0000
0330
,
2001
0010
0002
3003
,
0002
0000
0000
0200
0000
0000
0303
0000
,
2000
0001
0200
3300
,
1002
0000
0000
2000
0000
0000
3003
0000
,
0210
0000
0000
0020
0000
0000
0330
0000
,
1002
0000
0000
1000
2000
0000
3003
0000
,
1000
0010
1000
0000
0001
1000
0001
0000
,
1001
0000
1000
0001
0000
0001
1000
0000
,
0010
0000
0100
0010
0000
0010
0100
0000
,
0001
0000
1000
0100
0010
0000
0100
0000
,
1000
0001
0100
0010
,
1000
0000
0001
0010
0000
0100
1000
0000
,
0001
0000
1000
0010
0000
0100
0001
0000
,
0100
0000
1000
0000
0100
0000
0010
1000
,
0010
0000
1000
0000
0001
1000
0001
0000
,
0210
0000
0000
0000
,
0320
0000
0000
0000
,
2030
0000
0000
0000
,
3002
0000
0000
0000
,
1003
0000
0010
0000
1000
0000
0001
0010
,
0001
0000
1000
0010
1000
0000
0001
0000
,
0100
0000
0010
0000
1000
0000
0001
0010
,
0001
0000
1000
0100
1000
0000
0001
0000
,
0010
0000
0100
0000
0010
0000
0001
1000
,
0001
0000
1000
0010
1000
0000
0010
0000
,
0100
0000
0010
0010
0010
0000
0100
0000
,
0001
1000
0001
0000
1000
0000
0100
0010
,
0100
0000
0010
0001
1000
0000
0001
0100
,
0002
0000
2003
0000
3020
0000
1030
0100
,
0010
0000
0100
0010
0001
0000
1000
0001
,
2000
3020
0230
0301
,
0100
0001
0000
0100
0001
0000
1000
0100
,
2000
3200
0320
0032
,
1003
0000
0001
0100
0001
0000
1000
0000
,
0220
0000
0000
0000
0000
0330
0000
0000
;

//---------------dance-single - ----------------
#NOTES:
     dance-single:
     :
     Easy:
     3:
     0.255,0.344,0.186,0.302,0.000:
0000
0000
0000
0000
,
0000
0000
0000
0000
,
0000
0000
0000
0000
,
0000
0000
0000
0000
,
2002
0000
3003
0000
,
0220
0000
0000
0330
,
0010
0000
0100
0000
,
0001
1000
0001
0000
,
1001
0000
0000
1001
0000
0000
0000
0000
,
1000
0100
1000
0000
,
0001
0100
0001
1000
,
0100
0100
0100
0000
,
0110
0000
0000
0110
0000
0000
0000
0000
,
0010
0001
1000
0000
,
0001
0100
0001
1000
,
0010
2000
0002
3003
,
0220
0000
0000
0330
,
0010
1000
0001
0000
,
1000
0001
0010
0000
,
0001
0010
0100
1000
,
0100
0010
0100
0000
,
0010
0001
0100
0000
,
0001
0000
1000
0000
,
0001
1000
0001
0000
,
0220
0000
0000
0330
,
1001
0000
0000
2002
0000
0000
3003
0000
,
0110
0000
0000
0220
0000
0000
0330
0000
,
1001
0000
0000
2002
0000
0000
3003
0000
,
1000
0000
0100
0000
,
0010
0001
0010
0000
,
2002
0000
3003
0001
,
0100
0001
2000
3010
,
2001
0002
0000
3003
,
0210
0020
0330
0010
,
1000
0100
0010
0100
,
1000
0001
1000
0001
,
1002
2000
0000
3003
,
0210
0000
0000
0020
0000
0000
0330
0000
,
0010
1000
0100
0010
,
0001
0000
1000
0001
,
2002
0000
3003
0000
,
2000
0000
3000
0000
,
0020
0000
0030
0000
,
0200
0000
0300
0000
,
0001
0100
0001
0000
,
1000
0100
1000
0000
,
0001
0000
1000
0000
,
0001
0010
0100
0000
,
0010
0001
1000
0000
,
0001
1000
0001
0000
,
1000
0010
0100
0001
,
1000
0100
0010
0100
,
1000
0000
0001
0000
,
0010
0001
0100
0000
,
0010
0000
1000
0000
,
0001
1000
0100
0000
,
1000
0010
0100
0001
,
0010
0100
0010
0000
,
0100
0010
0001
1000
,
2002
0000
0000
0000
0000
3003
0000
0000
;

//---------------dance-single - ----------------
#NOTES:
     dance-single:
     :
     Beginner:
     1:
     0.138,0.185,0.107,0.018,0.000:
0000
0000
0000
0000
,
0000
0000
0000
0000
,
0000
0000
0000
0000
,
0000
0000
0000
0000
,
1001
0000
0000
0000
,
0110
0000
0000
0000
,
1001
0000
0000
0000
,
1000
0000
0001
0000
,
1001
0000
0000
0000
,
1000
0000
0100
0000
,
1000
0000
0001
0000
,
0100
0000
0010
0000
,
0100
0000
0000
0000
,
0010
0000
0000
0000
,
0100
0000
0010
0000
,
0100
0000
0001
0000
,
1001
0000
0000
0000
,
1000
1000
1000
0000
,
0001
0000
0100
0000
,
0010
0010
0010
0000
,
0100
0000
0001
0000
,
1000
0000
0100
0000
,
0010
0000
0100
0000
,
0010
0000
0001
0000
,
1001
0000
0000
0000
,
1000
0000
0000
0000
,
0001
0000
0100
0000
,
0001
0000
1000
0000
,
0100
0000
0000
0000
,
0010
0000
0000
0000
,
0100
0000
0010
0000
,
0100
0100
0100
0000
,
1001
0000
0000
0000
,
0110
0000
0000
0000
,
0001
0000
1000
0000
,
0001
0000
0010
0000
,
0110
0000
0000
0000
,
1001
0000
0000
0000
,
1000
0000
0100
0000
,
0010
0000
0001
0000
,
1001
0000
0000
0000
,
1000
0000
0000
0000
,
0010
0000
0000
0000
,
0100
0000
0000
0000
,
0010
0000
0100
0000
,
0001
0000
1000
0000
,
0100
0000
0010
0000
,
0100
0000
0010
0000
,
0001
0000
1000
0000
,
0001
0000
1000
0000
,
0010
0000
0100
0000
,
0001
0000
1000
0000
,
0001
0000
0010
0000
,
0100
0000
1000
0000
,
0010
0000
0100
0000
,
0010
0000
1000
0000
,
0001
0000
1000
0000
,
0100
0000
0010
0000
,
0001
0000
1000
0000
,
2002
0000
3003
0000
;
