#TITLE:Something Better;
#SUBTITLE:;
#ARTIST:Replacer;
#TITLETRANSLIT:;
#SUBTITLETRANSLIT:;
#ARTISTTRANSLIT:;
#GENRE:Soft Jazz;
#CREDIT:;
#BANNER:Something Better.png;
#BACKGROUND:Something Better-bg.png;
#LYRICSPATH:;
#CDTITLE:;
#MUSIC:Something Better.mp3;
#OFFSET:-0.050;
#SAMPLESTART:33.080;
#SAMPLELENGTH:15.000;
#SELECTABLE:YES;
#BPMS:0.000=116.000
;
#STOPS:
;
#BGCHANGES:;
#KEYSOUNDS:;
#ATTACKS:;

//---------------dance-single - ----------------
#NOTES:
     dance-single:
     :
     Easy:
     2:
     0.210,0.172,0.097,0.000,0.000,128.000,9.000,0.000,0.000,0.000,0.000,0.210,0.172,0.097,0.000,0.000,128.000,9.000,0.000,0.000,0.000,0.000:
0010
0000
0010
0000
,
1000
0000
1000
0000
,
0010
0000
0010
0000
,
0100
0000
0100
0000
,
0001
0000
0001
0000
,
0100
0000
0100
0000
,
1000
0000
1000
0000
,
0100
0000
0100
0000
,
0000
0010
1000
0010
,
0100
0001
0100
0001
,
1000
0100
1000
0100
,
1000
0100
0010
0001
,
1000
0001
1000
0010
,
1000
0001
1000
0100
,
1000
0010
0001
0010
,
1000
0010
0100
0001
,
1000
1000
0001
1000
,
0100
0100
0010
0100
,
0010
0010
0001
0010
,
1000
0010
0001
0100
,
0010
1000
0010
1000
,
0001
0100
0001
0100
,
0010
1000
0001
0010
,
1000
0100
0001
0010
,
0000
0100
0000
0110
,
0010
0001
0100
0010
,
0000
1000
0000
1010
,
1000
0100
0010
0001
,
0000
1000
0000
1001
,
0001
0010
0100
0010
,
0000
0001
0000
0011
,
1000
0010
0100
0001
,
0000
0100
0000
0110
,
0010
0001
0100
1000
,
0000
0100
0000
0110
,
0010
1000
0001
0100
,
0000
0001
0000
0011
,
0010
0100
1000
0001
,
0000
1000
0000
1010
,
0010
0001
1000
0100
,
0110
0000
0000
0000
;

//---------------dance-single - ----------------
#NOTES:
     dance-single:
     :
     Beginner:
     1:
     0.086,0.086,0.054,0.021,0.000,49.000,5.000,2.000,0.000,0.000,0.000,0.086,0.086,0.054,0.021,0.000,49.000,5.000,2.000,0.000,0.000,0.000:
0010
0000
0000
0000
,
0100
0000
0000
0000
,
0010
0000
0000
0000
,
0001
0000
0000
0000
,
1000
0000
0000
0000
,
0010
0000
0000
0000
,
1000
0000
0000
0000
,
0001
0000
0000
0000
,
0010
0000
0010
0000
,
0010
0000
0000
0000
,
0100
0000
0100
0000
,
0200
0000
0000
0000
,
1300
0000
1000
0000
,
1000
0000
0000
0000
,
0001
0000
0001
0000
,
0001
0000
0000
0000
,
0010
0000
0100
0000
,
0010
0000
0000
0000
,
0100
0000
0010
0000
,
0200
0000
0000
0000
,
1300
0000
0001
0000
,
1000
0000
0000
0000
,
0001
0000
1000
0000
,
0001
0000
0000
0000
,
0010
0000
0000
0000
,
0010
0000
0000
0000
,
0100
0000
0000
0000
,
0110
0000
0000
0000
,
0001
0000
0000
0000
,
0001
0000
0000
0000
,
1000
0000
0000
0000
,
1001
0000
0000
0000
,
1000
0000
0000
0000
,
0010
0000
0000
0000
,
0100
0000
0000
0000
,
1001
0000
0000
0000
,
0001
0000
0000
0000
,
0010
0000
0000
0000
,
0100
0000
0000
0000
,
1001
0000
0000
0000
,
0110
0000
0000
0000
;

//---------------dance-single - ----------------
#NOTES:
     dance-single:
     :
     Medium:
     5:
     0.294,0.343,0.032,0.086,0.193,181.000,3.000,8.000,0.000,0.000,0.000,0.294,0.343,0.032,0.086,0.193,181.000,3.000,8.000,0.000,0.000,0.000:
0010
0010
0010
0010
,
1000
1000
1000
1000
,
0010
0010
0010
0010
,
1010
1010
1000
1000
,
0001
0001
0001
0001
,
0100
0100
0100
0100
,
0002
2003
3002
2003
,
3200
0320
0230
0320
,
0031
0000
0010
0001
0000
0000
0010
0000
0000
0010
0000
0000
,
0100
0000
0010
0100
0000
0000
1000
0000
0000
1000
0000
0000
,
0001
0000
1000
0001
0000
0000
1000
0000
0000
0100
0000
0000
,
0010
0001
0100
1000
,
0100
0000
0010
0100
0000
0000
0001
0000
0000
0001
0000
0000
,
0010
0000
0001
0010
0000
0000
0100
0000
0000
0100
0000
0000
,
0010
0000
0100
0010
0000
0000
0100
0000
0000
0100
0000
0000
,
1000
0100
0010
0001
,
1000
0000
0010
1000
0000
0000
0001
0000
0000
0001
0000
0000
,
0010
0000
0001
0010
0000
0000
0100
0000
0000
0100
0000
0000
,
1000
0000
0100
1000
0000
0000
0001
0000
0000
0001
0000
0000
,
1000
0010
0100
0001
,
0010
0000
0001
0010
0000
0000
0001
0000
0000
0001
0000
0000
,
0100
0000
0001
0100
0000
0000
0001
0000
0000
0001
0000
0000
,
1000
0000
0010
1000
0000
0000
0010
0000
0000
0010
0000
0000
,
1000
0100
0010
0001
,
0000
0000
1000
0001
0000
1000
0000
0000
0001
1000
0000
0000
,
0001
0010
0001
0100
,
0000
0000
0001
1000
0000
0001
0000
0000
1000
0001
0000
0000
,
0010
0100
1000
0001
,
0000
0000
0100
0010
0000
0100
0000
0000
0010
0100
0000
0000
,
0010
1000
0100
1000
,
0000
0000
0100
0010
0000
0100
0000
0000
0010
0100
0000
0000
,
1000
0100
0010
0001
,
0000
0000
1000
0001
0000
1000
0000
0000
0001
1000
0000
0000
,
0010
1000
0100
1000
,
0000
0000
0001
1000
0000
0001
0000
0000
1000
0001
0000
0000
,
0100
0010
1000
0001
,
0000
0000
0100
0010
0000
0100
0000
0000
0010
0100
0000
0000
,
0010
1000
0100
1000
,
0000
0000
0010
0100
0000
0010
0000
0000
0100
0010
0000
0000
,
1000
0010
0100
0001
,
1001
0000
0000
0000
;

//---------------dance-single - ----------------
#NOTES:
     dance-single:
     :
     Hard:
     8:
     0.491,0.429,0.365,0.182,0.633,269.000,34.000,17.000,0.000,0.000,0.000,0.491,0.429,0.365,0.182,0.633,269.000,34.000,17.000,0.000,0.000,0.000:
0010
1010
1000
1001
,
0001
0000
0000
0011
0000
0010
0100
0000
0000
0110
0000
0100
,
1000
0000
0000
1001
0000
0001
0100
0000
0000
0110
0000
0010
,
1000
0000
0000
1100
0000
0100
0010
0000
0010
0001
0000
0001
,
0100
0000
0000
0101
0000
0001
1000
0000
0001
1000
0000
1000
,
0100
0000
0000
0110
0000
0010
0100
0000
0010
0001
0000
0010
,
0001
0000
0000
1000
0000
0001
1000
0000
0001
0010
0000
0000
,
0100
0110
0010
0110
,
0010
0001
0010
0001
0000
0010
0100
0000
0100
0001
0000
0001
,
1000
0010
1000
0010
0000
0010
0100
0000
0100
1000
0000
1000
,
0001
0100
0001
0100
0000
0100
0010
0000
0010
1000
0000
1000
,
0002
0023
0230
2300
,
3001
1000
0001
1000
0000
0001
0100
0000
0100
1000
0000
1000
,
0001
0010
0001
0010
0000
0010
1000
0000
1000
0001
0000
0001
,
0010
0100
0010
0100
0000
0100
0001
0000
0001
1000
0000
0000
,
0020
0032
0203
0320
,
1030
0010
1000
0010
0000
0100
0010
0000
0010
1000
0000
1000
,
0001
0010
0001
0010
0000
0010
0100
0000
0100
1000
0000
1000
,
0001
0100
0001
0100
0000
0100
0010
0000
0010
1000
0000
1000
,
0002
0023
0230
2300
,
3100
1000
0100
1000
0000
0001
0100
0000
0100
0010
0000
0010
,
1000
0001
1000
0001
0000
0001
0010
0000
0010
1000
0000
1000
,
0001
0000
0100
0000
0001
0000
0100
0000
0010
0000
0100
0000
0010
0000
0001
0000
0010
0000
0001
0000
0000
0000
0100
0010
,
0200
0000
0000
0310
0000
0010
2000
0000
0000
3002
0000
0000
,
1003
0000
0001
0100
0000
0001
0010
0000
0100
0000
0110
0000
,
0100
0000
0000
1000
0100
1000
0100
0000
1000
0000
0010
0000
,
0110
0000
0000
0100
0000
0001
0010
0000
0010
0100
0000
0000
,
1100
0000
0000
1100
0000
1000
0001
0000
0000
0101
0000
0000
,
0100
0000
0010
1000
0000
1000
0001
0000
0010
0000
0000
0110
,
0000
0000
0000
0100
0000
1000
0100
1000
0001
0100
0000
0010
,
0100
0000
0000
0010
0000
0010
1000
0000
1000
0001
0000
0000
,
0011
0000
0000
0011
0000
0001
1000
0000
0000
1010
0000
0000
,
0010
0000
0010
1000
0000
1001
0000
0000
0001
0010
0000
0000
,
0210
0000
0000
1300
0000
0000
0100
0000
0010
0100
0000
1100
,
0000
0000
1000
0001
0000
0101
0000
0000
0100
0010
0000
0000
,
1010
0000
0000
1010
0000
1000
0001
0000
0000
0011
0000
0000
,
0001
0000
0010
0100
0000
0110
0000
0000
0100
1000
0000
0000
,
2001
0000
0000
3010
0000
0000
1000
0000
0010
0100
0000
0110
,
0000
0000
0100
0001
0000
0010
0000
0000
0010
0001
0000
0000
,
0101
0000
0000
0101
0000
0001
1000
0000
0000
1100
0000
0000
,
1001
0000
0000
0000
;
