#TITLE:Smooth Criminal;
#SUBTITLE:;
#ARTIST:Michael Jackson;
#TITLETRANSLIT:;
#SUBTITLETRANSLIT:;
#ARTISTTRANSLIT:;
#GENRE:;
#CREDIT:;
#BANNER:Smooth Criminal.png;
#BACKGROUND:Smooth Criminal-bg.png;
#LYRICSPATH:;
#CDTITLE:;
#MUSIC:Smooth Criminal.mp3;
#OFFSET:-0.831;
#SAMPLESTART:0.000;
#SAMPLELENGTH:11.940;
#SELECTABLE:YES;
#BPMS:0.000=118.220
;
#STOPS:
;
#BGCHANGES:;
#KEYSOUNDS:;
#ATTACKS:;

//---------------dance-single - ----------------
#NOTES:
     dance-single:
     :
     Hard:
     8:
     0.631,0.570,0.265,0.012,0.523,360.000,23.000,1.000,0.000,0.000,0.000,0.631,0.570,0.265,0.012,0.523,360.000,23.000,1.000,0.000,0.000,0.000:
0000
0000
0000
0000
,
0000
0000
0000
0000
,
0000
0000
0000
0000
,
0000
0000
0000
0000
0000
0000
0000
0000
0000
0000
0000
0000
0000
0000
0001
0100
,
0001
0100
0001
0100
0010
0000
1000
0000
0100
0000
0010
0001
0010
0000
0001
0000
,
1000
0000
0010
0100
0010
0000
1000
0000
0100
0000
1001
0000
0000
0000
0100
1000
,
0100
1000
0100
1000
0100
0000
0010
0000
0001
0000
1000
0010
1000
0000
0001
0000
,
0010
0000
0100
1000
0100
0000
0010
0000
0001
0000
1001
0000
0000
0000
0001
0100
,
0001
0100
0001
1000
0001
0000
0001
0000
0010
0000
0100
1000
0100
0000
0100
0000
,
0010
0000
0001
1000
0010
0000
0100
0000
0001
0000
1001
0000
0000
0000
1000
0010
,
1000
0010
1000
0001
1000
0000
1000
0000
0010
0000
0100
0001
0100
0000
0100
0000
,
0001
0000
0010
0100
1000
0000
0010
0000
0100
0000
1001
0000
0000
0000
1000
0100
,
1000
0100
1000
0010
1000
0000
1000
0000
0010
0000
0100
0001
0010
0000
0010
0000
,
0100
0000
1000
0010
0001
0000
0010
0000
1000
0000
0101
0000
0000
0000
0001
0100
,
0001
0100
0001
0010
0001
0000
0001
0000
0010
0000
0100
1000
0010
0000
0100
0000
,
0010
0000
1000
0100
0001
0000
0100
0000
1000
0000
0011
0000
0001
0010
0001
0010
,
0100
0000
1000
0000
0100
0000
0010
0000
0001
0010
0001
0010
0100
0000
1000
0000
,
0010
0000
0100
0001
0100
0000
0010
0000
1000
0100
0000
0000
1000
0010
1000
0010
,
0100
0000
0001
0000
0100
0000
0010
0000
1000
0010
1000
0010
0100
0000
0001
0000
,
0010
0000
0100
1000
0100
0000
0010
0000
0001
0100
0000
0000
0001
0010
0100
1000
,
0100
0000
0010
0000
0001
0000
1000
0000
0010
0100
0001
0100
0010
0000
1000
0000
,
0001
0000
0010
0100
0010
0000
0001
0000
1000
0010
0000
0000
1000
0100
0001
0100
,
1000
0000
0010
0000
1000
0000
0010
0000
0100
0001
0010
0001
0100
0000
0001
0000
,
0000
0000
1000
0010
1000
0000
0001
0000
1001
0000
1001
0000
0000
0000
0000
0000
,
1000
0010
0100
0010
1000
0000
0001
0000
0011
0000
0010
0100
1000
0000
0001
0000
,
1001
0000
1000
0010
0100
0000
0001
0000
0010
0000
0110
0000
0000
0000
0100
1000
,
0001
1000
0010
0100
0001
0000
1000
0000
1001
0000
0001
0010
0100
0000
1000
0000
,
1001
0000
1000
0010
0100
0000
0001
0000
0010
0000
1001
0000
0000
0000
0010
0001
,
1000
0001
0100
0010
1000
0000
0001
0000
0101
0000
1000
0010
0100
0000
0001
0000
,
1100
0000
0001
0010
0100
0000
1000
0000
0010
0000
1001
0000
0000
0000
0001
0100
,
1000
0100
0001
0100
1000
0000
0100
0000
0101
0000
0001
0010
0100
0000
1000
0000
,
1001
0000
0100
1000
0010
0000
0100
0000
0001
0000
1001
0000
1000
0010
0100
0001
,
0010
0000
0100
0000
0010
0000
0001
0000
1000
0010
0100
0001
0010
0000
0100
0000
,
0010
0000
0001
1000
0001
0000
0100
0000
0010
0100
0000
0000
0001
0010
0100
1000
,
0010
0000
0100
0000
0010
0000
1000
0000
0001
0010
0100
1000
0010
0000
0100
0000
,
0010
0000
1000
0001
1000
0000
0100
0000
0010
0001
0000
0000
1000
0010
0100
0010
,
1000
0000
0100
0000
0010
0000
0001
0000
0100
0001
0010
0100
0010
0000
0001
0000
,
1000
0000
0010
0100
0010
0000
0100
0000
0001
0010
0000
0000
0100
0000
1000
0000
,
0010
0100
0101
0101
0100
0001
0010
0100
,
1100
0000
0001
0000
2000
0000
0000
0000
3010
0100
0001
0000
0000
0000
0000
0000
;

//---------------dance-single - ----------------
#NOTES:
     dance-single:
     :
     Medium:
     5:
     0.386,0.387,0.035,0.058,0.035,227.000,3.000,5.000,0.000,0.000,0.000,0.386,0.387,0.035,0.058,0.035,227.000,3.000,5.000,0.000,0.000,0.000:
0000
0000
0000
0000
,
0000
0000
0000
0000
,
0000
0000
0000
0000
,
0000
0000
0000
0000
0000
0000
0000
0001
,
0100
0001
0010
0010
0000
0100
1000
1000
,
0000
0010
0100
0010
1000
0001
0000
0010
,
0100
1000
0010
0010
0000
1000
0100
0100
,
0000
0010
0001
0010
0100
1000
0000
0001
,
0100
0010
0100
0001
0000
1000
0010
1000
,
0000
0001
0100
1000
0100
0001
0000
1000
,
0010
0100
0010
1000
0000
0100
0010
0001
,
0000
1000
0010
0001
0010
1000
0000
0010
,
0100
0001
0010
0100
0000
1000
0010
1000
,
0000
0100
0001
0100
1000
0010
0000
0100
,
0001
0010
0001
0100
0000
0010
1000
0100
,
0000
0010
0001
0010
0100
1000
0002
0000
,
0100
0010
0100
1000
,
0010
0000
0000
0000
0100
0000
0000
0000
0013
0001
0000
0000
2000
0000
0000
0000
,
0010
0100
0001
0010
,
0100
0000
0000
0000
0001
0000
0000
0000
3010
1000
0000
0000
0200
0000
0000
0000
,
0001
1000
0010
1000
,
0001
0000
0000
0000
1000
0000
0000
0000
0310
0100
0000
0000
0020
0000
0000
0000
,
0100
0000
1030
0000
0010
0001
1000
0010
,
0000
0100
0001
0010
1000
0010
0000
0000
,
0001
0100
0001
0010
0000
0100
1000
0100
,
0000
0010
0001
0010
0100
1000
0000
0010
,
0100
0010
1000
0100
0000
1000
0010
1000
,
0000
0001
0100
0001
0010
1000
0000
0010
,
0001
0100
0010
1000
0000
0001
0100
0001
,
0000
1000
0010
1000
0100
0001
0000
0100
,
1000
0010
1000
0100
0000
0010
0001
1000
,
0000
0010
0100
0001
1000
0010
0100
0001
,
1000
0100
0000
1000
0001
0100
0001
1000
,
0000
0000
0001
0000
0100
0000
0001
0000
1000
0010
0000
0000
1000
0000
0001
0000
,
0010
0001
0000
1000
0001
0010
0001
1000
,
0000
0000
0001
0000
0010
0000
0001
0000
0100
0001
0000
0000
0010
0000
0100
0000
,
1000
0001
0100
0010
1000
0100
0010
0001
,
1000
0000
0001
0000
0010
0000
0100
0000
1000
0001
0000
0000
1000
0000
0001
0000
,
0100
0100
0110
0110
0100
0001
0010
0100
,
0110
0100
2000
0000
3001
0100
0000
0000
;

//---------------dance-single - ----------------
#NOTES:
     dance-single:
     :
     Easy:
     3:
     0.197,0.228,0.023,0.046,0.000,114.000,2.000,4.000,0.000,0.000,0.000,0.197,0.228,0.023,0.046,0.000,114.000,2.000,4.000,0.000,0.000,0.000: // measure 0
0000
0000
0000
0000
,  // measure 1
0000
0000
0000
0000
,  // measure 2
0000
0000
0000
0000
,  // measure 3
0000
0000
0000
0000
,  // measure 4
1000
0000
1000
0000
,  // measure 5
1000
0000
0000
0000
1000
0001
0000
0000
,  // measure 6
0001
0000
0001
0000
,  // measure 7
0001
0000
0000
0000
0001
1000
0000
0000
,  // measure 8
0100
0000
1000
0000
,  // measure 9
0100
0000
0000
0000
1000
0010
0000
0000
,  // measure 10
0100
0000
0001
0000
,  // measure 11
0100
0000
0000
0000
0001
0010
0000
0000
,  // measure 12
0100
0000
1000
0000
,  // measure 13
0010
0000
0000
0000
0100
0001
0000
0000
,  // measure 14
1000
0000
0010
0000
,  // measure 15
0100
0000
0000
0000
0001
0020
0000
0000
,  // measure 16
0100
0000
0100
0000
,  // measure 17
0100
0000
0000
0000
0130
2000
0000
0000
,  // measure 18
0010
0000
0010
0000
,  // measure 19
0010
0000
0000
0000
3010
0200
0000
0000
,  // measure 20
0001
0000
0001
0000
,  // measure 21
0001
0000
0000
0000
0301
0020
0000
0000
,  // measure 22
0100
0000
0100
0000
,  // measure 23
0100
0000
0000
0000
0130
1000
0000
0000
,  // measure 24
0001
0100
0001
0100
,  // measure 25
1000
0000
0100
0000
0001
1000
0000
0000
,  // measure 26
0010
0100
0010
1000
,  // measure 27
0010
0000
0100
0000
0010
1000
0000
0000
,  // measure 28
0001
0010
0100
1000
,  // measure 29
0100
0000
0010
0000
0001
1000
0000
0000
,  // measure 30
0001
0100
1000
0100
,  // measure 31
0001
0100
1000
0100
,  // measure 32
0001
0010
0001
0100
,  // measure 33
0001
0010
0100
1000
,  // measure 34
0010
1000
0100
1000
,  // measure 35
0010
1000
0100
0010
,  // measure 36
0001
0100
0010
0100
,  // measure 37
0001
0010
0100
1000
,  // measure 38
0001
1001
1000
0010
,  // measure 39
0110
0000
0001
0000
1000
0001
0000
0000
;
